<?xml version="1.0" standalone="no"?>
<!DOCTYPE svg PUBLIC "-//W3C//DTD SVG 1.1//EN" "http://www.w3.org/Graphics/SVG/1.1/DTD/svg11.dtd" >
<svg xmlns="http://www.w3.org/2000/svg">
<metadata>Generated by IcoMoon</metadata>
<defs>
<font id="ew" horiz-adv-x="512">
<font-face units-per-em="512" ascent="480" descent="-32" />
<missing-glyph horiz-adv-x="512" />
<glyph unicode="&#x20;" d="" horiz-adv-x="256" />
<glyph unicode="&#xe600;" d="M152.196 163.548l43.352-43.337-14.831-14.831h-15.969v27.368h-27.368v15.969zM270.261 274.768c2.661-2.475 2.375-5.329-0.858-8.562l-82.978-82.978c-3.233-3.233-6.087-3.519-8.561-0.858-2.661 2.474-2.375 5.328 0.857 8.562l82.978 82.978c3.233 3.233 6.087 3.519 8.562 0.858zM192.118 78.013l155.133 155.118-82.12 82.12-155.133-155.118v-82.12zM365.496 251.376l26.23 26.245c5.322 5.322 7.984 11.784 7.985 19.384-0 7.6-2.662 14.060-7.985 19.384l-43.337 43.352c-5.323 5.323-11.787 7.984-19.392 7.985s-14.069-2.662-19.392-7.985l-26.23-26.23zM475 360.88v-273.744c-0-22.623-8.031-41.967-24.094-58.034s-35.405-24.101-58.027-24.101h-273.76c-22.623 0-41.965 8.034-58.027 24.101s-24.093 35.413-24.093 58.034v273.744c0 22.622 8.031 41.964 24.093 58.027s35.404 24.093 58.027 24.094h273.76c22.622-0 41.964-8.031 58.027-24.094s24.093-35.405 24.094-58.027z" />
<glyph unicode="&#xe601;" d="M421.006 185.26c-6.824 6.723-21.957 10.283-44.986 10.586-15.589 0.172-34.351-1.201-54.085-3.964-8.837 5.099-17.946 10.647-25.094 17.329-19.231 17.958-35.284 42.886-45.288 70.297 0.652 2.56 1.207 4.81 1.724 7.106 0 0 10.833 61.53 7.965 82.333-0.395 2.853-0.637 3.681-1.404 5.898l-0.941 2.417c-2.948 6.796-8.724 13.997-17.783 13.604l-5.458 0.172c-10.1 0-18.332-5.166-20.493-12.887-6.569-24.217 0.209-60.446 12.491-107.369l-3.144-7.643c-8.794-21.438-19.815-43.030-29.539-62.079l-1.264-2.476c-10.23-20.019-19.512-37.013-27.927-51.411l-8.688-4.594c-0.632-0.334-15.522-8.209-19.014-10.322-29.628-17.691-49.261-37.77-52.518-53.708-1.036-5.085-0.265-11.593 5.007-14.607l8.403-4.229c3.645-1.826 7.489-2.751 11.427-2.751 21.102 0 45.6 26.286 79.348 85.183 38.965 12.684 83.327 23.228 122.207 29.045 29.629-16.684 66.071-28.273 89.071-28.273 4.084 0 7.606 0.389 10.466 1.148 4.411 1.168 8.129 3.683 10.396 7.096 4.463 6.716 5.367 15.966 4.156 25.438-0.361 2.812-2.606 6.288-5.035 8.661zM105.823 72.976c3.848 10.521 19.080 31.322 41.602 49.778 1.416 1.148 4.904 4.416 8.097 7.451-23.551-37.562-39.323-52.533-49.699-57.229zM239.217 380.157c6.783 0 10.642-17.097 10.962-33.127s-3.429-27.28-8.079-35.604c-3.851 12.324-5.713 31.75-5.713 44.452 0 0-0.283 24.279 2.83 24.279zM199.426 161.253c4.725 8.458 9.641 17.378 14.665 26.839 12.246 23.158 19.979 41.278 25.739 56.173 11.455-20.842 25.722-38.56 42.493-52.756 2.092-1.771 4.309-3.551 6.637-5.325-34.105-6.748-63.582-14.955-89.534-24.931zM414.452 163.174c-2.077-1.299-8.027-2.050-11.854-2.050-12.353 0-27.636 5.647-49.063 14.833 8.234 0.609 15.781 0.919 22.55 0.919 12.391 0 16.060 0.054 28.175-3.036s12.269-9.367 10.192-10.666zM451.716 380.285l-71.432 71.431c-15.556 15.556-46.284 28.284-68.284 28.284h-240c-22 0-40-18-40-40v-432c0-22 18-40 40-40h368c22 0 40 18 40 40v304c0 22-12.728 52.729-28.284 68.285zM429.089 357.657c1.565-1.565 3.125-3.487 4.64-5.657h-81.729v81.728c2.17-1.515 4.092-3.075 5.657-4.64l71.432-71.431zM448 8c0-4.336-3.664-8-8-8h-368c-4.336 0-8 3.664-8 8v432c0 4.336 3.664 8 8 8h240c2.416 0 5.127-0.305 8-0.852v-127.148h127.148c0.547-2.873 0.852-5.583 0.852-8v-304z" />
<glyph unicode="&#xe602;" d="M319.889 242.054h22.106l-25.506-113.089-33.163 159.005h-53.275l-38.557-159.005-28.908 159.005h-55.697l56.546-255.941h54.419l38.147 151.354 34.128-151.354h50.168l64.815 255.941h-85.223zM451.716 380.285l-71.432 71.431c-15.556 15.556-46.284 28.284-68.284 28.284h-240c-22 0-40-18-40-40v-432c0-22 18-40 40-40h368c22 0 40 18 40 40v304c0 22-12.728 52.729-28.284 68.285zM429.089 357.657c1.565-1.565 3.125-3.487 4.64-5.657h-81.729v81.728c2.17-1.515 4.092-3.075 5.657-4.64l71.432-71.431zM448 8c0-4.336-3.664-8-8-8h-368c-4.336 0-8 3.664-8 8v432c0 4.336 3.664 8 8 8h240c2.416 0 5.127-0.305 8-0.852v-127.148h127.148c0.547-2.873 0.852-5.583 0.852-8v-304z" />
<glyph unicode="&#xe603;" d="M371.514 288h-67.647l-47.866-70.516-47.87 70.516h-67.644l81.081-121.232-91.487-134.768h131.12v45.788h-30.278l25.078 37.497 55.698-83.285h70.221l-91.488 134.768zM451.716 380.285l-71.432 71.431c-15.556 15.556-46.284 28.284-68.284 28.284h-240c-22 0-40-18-40-40v-432c0-22 18-40 40-40h368c22 0 40 18 40 40v304c0 22-12.728 52.729-28.284 68.285zM429.089 357.657c1.565-1.565 3.125-3.487 4.64-5.657h-81.729v81.728c2.17-1.515 4.092-3.075 5.657-4.64l71.432-71.431zM448 8c0-4.336-3.664-8-8-8h-368c-4.336 0-8 3.664-8 8v432c0 4.336 3.664 8 8 8h240c2.416 0 5.127-0.305 8-0.852v-127.148h127.148c0.547-2.873 0.852-5.583 0.852-8v-304z" />
<glyph unicode="&#xe604;" d="M224 192l-32 32-96-96 96-96 32 32-64 64zM288 64l32-32 96 96-96 96-32-32 64-64zM451.716 380.285l-71.432 71.431c-15.556 15.556-46.284 28.284-68.284 28.284h-240c-22 0-40-18-40-40v-432c0-22 18-40 40-40h368c22 0 40 18 40 40v304c0 22-12.728 52.729-28.284 68.285zM429.089 357.657c1.565-1.565 3.125-3.487 4.64-5.657h-81.729v81.728c2.17-1.515 4.092-3.075 5.657-4.64l71.432-71.431zM448 8c0-4.336-3.664-8-8-8h-368c-4.336 0-8 3.664-8 8v432c0 4.336 3.664 8 8 8h240c2.416 0 5.127-0.305 8-0.852v-127.148h127.148c0.547-2.873 0.852-5.583 0.852-8v-304z" />
<glyph unicode="&#xe605;" d="M141.429 77.182l26.429 26.429-68.248 68.248-26.429-26.429v-31.067h37.165v-37.181zM293.317 346.696c-0 4.256-2.128 6.385-6.385 6.385-1.938-0-3.584-0.678-4.94-2.033l-157.414-157.398c-1.356-1.356-2.033-3.002-2.033-4.94 0-4.267 2.128-6.401 6.385-6.401 1.938 0 3.584 0.678 4.94 2.033l157.414 157.414c1.355 1.355 2.033 3.001 2.033 4.94zM277.64 402.461l120.82-120.82-241.64-241.64h-120.82v120.82zM476 374.586c-0-10.271-3.584-18.986-10.752-26.143l-48.204-48.22-120.82 120.82 48.204 47.918c6.978 7.358 15.692 11.038 26.143 11.038 10.26-0.001 19.070-3.68 26.429-11.038l68.248-67.947c7.168-7.56 10.752-16.37 10.752-26.429zM0 8h512v-40h-512z" />
<glyph unicode="&#xe606;" d="M452.435 385.711c6.543-0.001 12.107-2.292 16.69-6.875s6.875-10.147 6.875-16.691v-298.579c-0-6.543-2.292-12.108-6.875-16.69s-10.147-6.875-16.69-6.875h-235.724c-6.544 0-12.107 2.291-16.69 6.875s-6.875 10.147-6.875 16.69v70.724h-133.579c-6.544 0-12.108 2.291-16.691 6.875s-6.875 10.147-6.875 16.69v165c0 6.543 1.636 13.745 4.908 21.605s7.2 14.081 11.783 18.665l100.184 100.171c4.583 4.583 10.803 8.513 18.658 11.79s15.059 4.914 21.612 4.914h102.145c6.543-0 12.107-2.292 16.69-6.875s6.875-10.151 6.875-16.704v-80.526c11.136 6.543 21.614 9.815 31.435 9.815zM318.855 333.409l-73.409-73.409h73.409zM161.71 427.699l-73.409-73.41h73.409zM209.835 268.836l77.599 77.585v102.145h-94.29v-102.145c0-6.544-2.292-12.108-6.875-16.69s-10.151-6.875-16.704-6.875h-102.132v-157.145h125.71v62.855c0 6.553 1.636 13.756 4.908 21.612s7.2 14.075 11.783 18.658zM444.565 71.421v282.868h-94.276v-102.145c-0-6.553-2.292-12.121-6.875-16.704s-10.151-6.875-16.704-6.875h-102.145v-157.145zM0 8h512v-40h-512z" />
<glyph unicode="&#xe607;" d="M358.4 112.64c-25.267 0-47.002-15.309-56.423-37.12h-84.377c-36.147 0-39.526 30.515-39.68 39.68v99.021c11.034-5.094 24.141-8.141 39.68-8.141h84.377c9.421-21.837 31.155-37.12 56.423-37.12 33.92 0 61.44 27.52 61.44 61.44s-27.52 61.44-61.44 61.44c-25.267 0-47.002-15.309-56.423-37.12h-84.377c-36.147 0-39.526 30.515-39.68 39.68v58.778c21.837 9.421 37.094 31.155 37.094 56.423 0 33.92-27.494 61.44-61.415 61.44s-61.44-27.52-61.44-61.44c0-25.267 15.309-46.976 37.12-56.423v-237.978c0-35.507 23.526-88.32 88.32-88.32h84.378c9.421-21.837 31.155-37.12 56.423-37.12 33.92 0 61.44 27.495 61.44 61.44 0 33.92-27.52 61.44-61.44 61.44zM358.4 265.856c19.584 0 35.456-15.872 35.456-35.456s-15.872-35.456-35.456-35.456-35.456 15.872-35.456 35.456 15.872 35.456 35.456 35.456zM118.144 409.6c0 19.584 15.872 35.456 35.456 35.456s35.456-15.872 35.456-35.456-15.872-35.456-35.456-35.456-35.456 15.872-35.456 35.456zM358.4 15.744c-19.584 0-35.456 15.872-35.456 35.456s15.872 35.456 35.456 35.456 35.456-15.872 35.456-35.456-15.872-35.456-35.456-35.456z" />
<glyph unicode="&#xe608;" d="M60.73 126.678c-40.487 40.497-60.73 89.262-60.73 146.296s20.246 105.796 60.738 146.288c40.492 40.492 89.255 60.738 146.288 60.738s105.796-20.247 146.288-60.738c40.492-40.493 60.738-89.252 60.738-146.28-0-40.497-11.122-77.715-33.365-111.654l128.321-128.321c1.994-2.276 2.991-4.841 2.992-7.691s-0.998-5.42-2.992-7.707l-46.617-46.617c-2.288-1.995-4.856-2.992-7.707-2.992s-5.415 0.998-7.691 2.992l-128.321 128.321c-33.94-22.243-71.157-33.365-111.654-33.365-57.029 0-105.791 20.243-146.288 60.73zM106.924 372.637c-27.653-27.663-41.479-60.885-41.479-99.663s13.829-72 41.486-99.663c27.657-27.663 61.019-41.495 100.087-41.495s72.361 13.761 99.883 41.283c27.522 27.522 41.282 60.816 41.283 99.883-0 39.066-13.762 72.358-41.283 99.875s-60.816 41.274-99.883 41.275c-39.066-0-72.431-13.832-100.094-41.494zM296.383 194h-37.734l-15 39.024h-68.672l-14.179-39.024h-36.797l66.914 171.797h36.679zM232.516 261.969l-23.672 63.75-23.203-63.75z" />
<glyph unicode="&#xe609;" d="M170.282 131.282v-42.859c0-5.949-2.083-11.007-6.25-15.173s-9.225-6.25-15.173-6.25h-71.436c-5.949 0-11.007 2.084-15.174 6.25s-6.25 9.224-6.25 15.173v42.859c0 5.957 2.084 11.019 6.25 15.185s9.225 6.25 15.174 6.25h71.436c5.949 0 11.006-2.084 15.173-6.25s6.25-9.228 6.25-15.185zM170.282 245.577v-42.859c0-5.957-2.083-11.019-6.25-15.185s-9.225-6.25-15.173-6.25h-71.436c-5.949 0-11.007 2.083-15.174 6.25s-6.25 9.228-6.25 15.185v42.859c0 5.948 2.084 11.006 6.25 15.173s9.225 6.25 15.174 6.25h71.436c5.949 0 11.006-2.083 15.173-6.25s6.25-9.224 6.25-15.173zM313.141 131.282v-42.859c0-5.949-2.084-11.007-6.25-15.173s-9.224-6.25-15.173-6.25h-71.435c-5.949 0-11.007 2.084-15.173 6.25s-6.25 9.224-6.25 15.173v42.859c0 5.957 2.083 11.019 6.25 15.185s9.225 6.25 15.173 6.25h71.435c5.949 0 11.007-2.084 15.173-6.25s6.25-9.228 6.25-15.185zM170.282 359.859v-42.859c0-5.949-2.083-11.007-6.25-15.173s-9.225-6.25-15.173-6.25h-71.436c-5.949 0-11.007 2.083-15.174 6.25s-6.25 9.224-6.25 15.173v42.859c0 5.948 2.084 11.006 6.25 15.173s9.225 6.25 15.174 6.25h71.436c5.949-0 11.006-2.084 15.173-6.25s6.25-9.225 6.25-15.173zM313.141 245.577v-42.859c0-5.957-2.084-11.019-6.25-15.185s-9.224-6.25-15.173-6.25h-71.435c-5.949 0-11.007 2.083-15.173 6.25s-6.25 9.228-6.25 15.185v42.859c0 5.948 2.083 11.006 6.25 15.173s9.225 6.25 15.173 6.25h71.435c5.949 0 11.007-2.083 15.173-6.25s6.25-9.224 6.25-15.173zM456 131.282v-42.859c-0-5.949-2.084-11.007-6.25-15.173s-9.225-6.25-15.173-6.25h-71.435c-5.949 0-11.007 2.084-15.173 6.25s-6.25 9.224-6.25 15.173v42.859c-0 5.957 2.083 11.019 6.25 15.185s9.224 6.25 15.173 6.25h71.435c5.949 0 11.007-2.084 15.173-6.25s6.25-9.228 6.25-15.185zM313.141 359.859v-42.859c0-5.949-2.084-11.007-6.25-15.173s-9.224-6.25-15.173-6.25h-71.435c-5.949 0-11.007 2.083-15.173 6.25s-6.25 9.224-6.25 15.173v42.859c0 5.948 2.083 11.006 6.25 15.173s9.225 6.25 15.173 6.25h71.435c5.949-0 11.007-2.084 15.173-6.25s6.25-9.225 6.25-15.173zM456 245.577v-42.859c-0-5.957-2.084-11.019-6.25-15.185s-9.225-6.25-15.173-6.25h-71.435c-5.949 0-11.007 2.083-15.173 6.25s-6.25 9.228-6.25 15.185v42.859c-0 5.948 2.083 11.006 6.25 15.173s9.224 6.25 15.173 6.25h71.435c5.949 0 11.007-2.083 15.173-6.25s6.25-9.224 6.25-15.173zM456 359.859v-42.859c-0-5.949-2.084-11.007-6.25-15.173s-9.225-6.25-15.173-6.25h-71.435c-5.949 0-11.007 2.083-15.173 6.25s-6.25 9.224-6.25 15.173v42.859c-0 5.948 2.083 11.006 6.25 15.173s9.224 6.25 15.173 6.25h71.435c5.949-0 11.007-2.084 15.173-6.25s6.25-9.225 6.25-15.173z" />
<glyph unicode="&#xe60a;" d="M371.712 479.978c-17.909 0-35.831-6.787-49.469-20.406l-255.344-255.469c-19.912-19.875-25.204-48.765-16.063-73.563l-50.563-144.688c-2.295-7.217 10.309-19.814 17.563-17.594l144.969 50.438c24.686-8.957 53.487-3.545 73.25 16.219l255.438 255.438c27.239 27.24 27.239 71.604 0 98.844l-70.344 70.375c-13.62 13.62-31.529 20.406-49.438 20.406zM356.744 413.697c7.87-0.305 15.858-3.626 22.094-9.844l56.906-56.906c12.473-12.51 13.235-32.021 1.688-43.532l-191.031-191.063c-11.547-11.547-31.022-10.791-43.531 1.719l-56.875 56.875c-12.435 12.473-13.197 31.984-1.688 43.531l191.063 191.063c5.774 5.774 13.505 8.462 21.375 8.156zM296.897 58l-84.897-90h300v90h-215.102z" />
<glyph unicode="&#xe60b;" d="M60.73 126.678c-40.487 40.497-60.73 89.262-60.73 146.296s20.246 105.796 60.738 146.288c40.492 40.492 89.255 60.738 146.288 60.738s105.796-20.247 146.288-60.738c40.492-40.493 60.738-89.252 60.738-146.28-0-40.497-11.122-77.715-33.365-111.654l128.321-128.321c1.994-2.276 2.991-4.841 2.992-7.691s-0.998-5.42-2.992-7.707l-46.617-46.617c-2.288-1.995-4.856-2.992-7.707-2.992s-5.415 0.998-7.691 2.992l-128.321 128.321c-33.94-22.243-71.157-33.365-111.654-33.365-57.029 0-105.791 20.243-146.288 60.73zM106.924 372.637c-27.653-27.663-41.479-60.885-41.479-99.663s13.829-72 41.486-99.663c27.657-27.663 61.019-41.495 100.087-41.495s72.361 13.761 99.883 41.283c27.522 27.522 41.282 60.816 41.283 99.883-0 39.066-13.762 72.358-41.283 99.875s-60.816 41.274-99.883 41.275c-39.066-0-72.431-13.832-100.094-41.494zM196.879 328.213l-19.706-52.169c5.638-0.081 11.569-0.159 17.791-0.235s10.821-0.135 13.797-0.174c2.976-0.040 5.005-0.060 6.087-0.060l3.367 0.234c-2.473 7.342-6.030 16.657-10.671 27.942-4.096 10.204-7.651 18.358-10.665 24.462zM115.257 200.097h-2.434l0.234 9.162c1.699 0.541 4.789 1.236 9.27 2.086 6.881 1.238 11.134 2.437 12.757 3.595 1.547 1.238 3.403 3.865 5.567 7.881l27.474 71.419 32.464 83.942h14.843l1.274-2.435 23.77-55.651c7.959-18.704 12.75-30.183 14.374-34.435 3.013-7.884 6.723-16.965 11.128-27.245 2.012-4.481 4.525-10.819 7.539-19.015 1.856-5.178 4.368-10.935 7.539-17.272 1.699-3.788 3.051-5.992 4.058-6.613 1.699-1.467 4.364-2.354 7.995-2.663 3.635-0.465 7.617-1.509 11.945-3.132 0.461-3.014 0.691-5.216 0.691-6.607 0-1.082-0.038-2.088-0.114-3.018-6.185 0-13.605 0.31-22.262 0.932-7.186 0.617-14.49 0.925-21.913 0.925-6.104 0-11.32-0.078-15.649-0.235l-23.187-1.274-6.727-0.228c0 3.479 0.154 6.493 0.463 9.041l15.192 3.247c4.328 1.006 6.956 1.896 7.881 2.67 0.925 0.925 1.388 1.969 1.388 3.129s-0.231 2.396-0.691 3.706l-5.453 13.22-10.665 26.434-52.176 0.234c-2.24-5.026-6.258-15.616-12.053-31.772-1.78-4.946-2.669-8.192-2.669-9.739 0-2.392 0.657-4.053 1.972-4.983 2.008-1.623 5.988-2.86 11.939-3.709 0.232 0 0.755-0.077 1.566-0.231s1.971-0.348 3.478-0.58c1.507-0.233 3.072-0.465 4.695-0.697 0.081-2.164 0.12-4.404 0.12-6.721 0-1.315-0.078-2.358-0.234-3.132-5.102 0-18.59 0.774-40.465 2.32l-5.56-0.932c-6.26-1.082-12.715-1.623-19.364-1.623z" />
<glyph unicode="&#xe60c;" d="M119.125 443c-22.623-0-41.969-8.032-58.031-24.094s-24.093-35.41-24.093-58.031v-273.75c0-22.623 8.032-41.964 24.093-58.031s35.409-24.094 58.031-24.094h273.75c22.622 0 41.969 8.026 58.031 24.094s24.094 35.409 24.094 58.031v273.75c-0 22.622-8.032 41.969-24.094 58.031s-35.409 24.094-58.031 24.094h-273.75zM198 377h80.75c3.956 0 7.323-1.385 10.094-4.156s4.156-6.138 4.156-10.094v-41.375c-1.555 0.096-3.12 0.012-4.656-0.25-11.299-2.065-22.139-7.077-30.313-15.25l-46.313-46.313c-8.15-8.151-13.209-18.977-15.281-30.313 0.098-0.156 0.226-0.328 0.344-0.563-1.692-3.019-1.095-18.633-1.094-22.094v-57.594h-78.438c-3.961 0-7.323 1.385-10.094 4.156s-4.156 6.132-4.156 10.094v118.75h80.75c3.956 0 7.323 1.385 10.094 4.156s4.156 6.132 4.156 10.094v80.75zM179 376.563v-75.563h-75.563c1.483 8.112 4.704 14.642 9.656 19.594l46.313 46.313c4.947 4.946 11.476 8.173 19.594 9.656zM313.5 299h80.75c3.956 0 7.323-1.385 10.094-4.156s4.156-6.138 4.156-10.094v-199.5c0-3.962-1.385-7.323-4.156-10.094s-6.138-4.156-10.094-4.156h-161.5c-3.961 0-7.323 1.385-10.094 4.156s-4.156 6.132-4.156 10.094v118.75h80.75c3.956 0 7.323 1.385 10.094 4.156s4.156 6.132 4.156 10.094v80.75zM294.5 298.531v-75.531h-75.563c1.483 8.112 4.704 14.642 9.656 19.594l46.313 46.313c4.947 4.946 11.476 8.142 19.594 9.625z" />
<glyph unicode="&#xe60d;" d="M60.73 126.678c-40.487 40.497-60.73 89.262-60.73 146.296s20.246 105.796 60.738 146.288c40.492 40.492 89.255 60.738 146.288 60.738s105.796-20.247 146.288-60.738c40.492-40.493 60.738-89.252 60.738-146.28-0-40.497-11.122-77.715-33.365-111.654l128.321-128.321c1.994-2.276 2.991-4.841 2.992-7.691s-0.998-5.42-2.992-7.707l-46.617-46.617c-2.288-1.995-4.856-2.992-7.707-2.992s-5.415 0.998-7.691 2.992l-128.321 128.321c-33.94-22.243-71.157-33.365-111.654-33.365-57.029 0-105.791 20.243-146.288 60.73zM106.924 372.637c-27.653-27.663-41.479-60.885-41.479-99.663s13.829-72 41.486-99.663c27.657-27.663 61.019-41.495 100.087-41.495s72.361 13.761 99.883 41.283c27.522 27.522 41.282 60.816 41.283 99.883-0 39.066-13.762 72.358-41.283 99.875s-60.816 41.274-99.883 41.275c-39.066-0-72.431-13.832-100.094-41.494zM151.151 362c-4.041 0-7.466-1.414-10.294-4.243l-20.616-20.591c-2.828-2.829-4.242-6.286-4.242-10.324s1.414-7.467 4.242-10.295l44.54-44.548-44.541-44.548c-2.828-2.828-4.242-6.255-4.242-10.296s1.414-7.467 4.242-10.296l20.616-20.619c2.828-2.829 6.254-4.243 10.294-4.243s7.466 1.414 10.294 4.243l44.541 44.548 44.541-44.548c2.828-2.829 6.281-4.243 10.322-4.243s7.466 1.414 10.294 4.243l20.616 20.619c2.828 2.829 4.241 6.255 4.242 10.296s-1.414 7.467-4.242 10.296l-44.541 44.548 44.541 44.548c2.828 2.828 4.241 6.257 4.242 10.296s-1.414 7.495-4.242 10.324l-20.616 20.591c-2.828 2.828-6.253 4.242-10.294 4.242s-7.494-1.414-10.322-4.242l-44.541-44.548-44.541 44.548c-2.828 2.828-6.254 4.242-10.294 4.242z" />
<glyph unicode="&#xe60e;" d="M451.716 380.285l-71.432 71.431c-15.556 15.556-46.284 28.284-68.284 28.284h-240c-22 0-40-18-40-40v-432c0-22 18-40 40-40h368c22 0 40 18 40 40v304c0 22-12.728 52.729-28.284 68.285zM429.089 357.657c1.565-1.565 3.125-3.487 4.64-5.657h-81.729v81.728c2.17-1.515 4.092-3.075 5.657-4.64l71.432-71.431zM448 8c0-4.336-3.664-8-8-8h-368c-4.336 0-8 3.664-8 8v432c0 4.336 3.664 8 8 8h240c2.416 0 5.127-0.305 8-0.852v-127.148h127.148c0.547-2.873 0.852-5.583 0.852-8v-304zM197.923 239.776c1.29-1.291 1.935-2.773 1.935-4.447s-0.645-3.156-1.935-4.447l-75.987-75.987 75.987-75.998c1.29-1.29 1.935-2.772 1.935-4.447s-0.645-3.156-1.935-4.447l-9.665-9.665c-1.29-1.29-2.773-1.935-4.446-1.935s-3.156 0.645-4.447 1.935l-90.104 90.104c-1.29 1.29-1.935 2.772-1.935 4.447s0.645 3.156 1.935 4.447l90.104 90.104c1.29 1.29 2.772 1.935 4.447 1.935s3.156-0.645 4.447-1.935l9.665-9.665zM425.041 159.337c1.29-1.29 1.935-2.772 1.935-4.447s-0.645-3.156-1.935-4.447l-90.104-90.104c-1.29-1.29-2.772-1.935-4.447-1.935s-3.156 0.645-4.447 1.935l-9.665 9.665c-1.29 1.29-1.935 2.772-1.935 4.447s0.645 3.156 1.935 4.447l75.987 75.998-75.987 75.987c-1.29 1.29-1.935 2.772-1.935 4.446s0.645 3.156 1.935 4.447l9.665 9.665c1.29 1.29 2.772 1.935 4.447 1.935s3.156-0.645 4.447-1.935l90.104-90.104zM226.377 211c9.329 5.445 19.516 8.168 30.56 8.168s21.231-2.722 30.558-8.166c9.327-5.444 16.714-12.829 22.157-22.155s8.165-19.512 8.166-30.558c0-11.046-2.722-21.233-8.166-30.56s-12.829-16.714-22.157-22.157c-9.328-5.443-19.514-8.165-30.558-8.166s-21.231 2.722-30.559 8.166c-9.328 5.443-16.714 12.829-22.157 22.157s-8.165 19.514-8.165 30.56c0 11.046 2.721 21.232 8.165 30.558s12.828 16.711 22.155 22.152zM278.659 177.866c-0.107-0.052-0.358-0.303-0.755-0.752s-0.753-0.7-1.071-0.752c0.107 0 0.226 0.132 0.358 0.397s0.264 0.555 0.397 0.872c0.133 0.317 0.226 0.502 0.277 0.557 0.318 0.37 0.899 0.766 1.743 1.188 0.74 0.318 2.114 0.635 4.123 0.95 1.798 0.425 3.146 0.135 4.045-0.872-0.107 0.107 0.144 0.451 0.752 1.032s0.99 0.897 1.147 0.95c0.159 0.107 0.555 0.226 1.19 0.358s1.031 0.33 1.19 0.596l0.161 1.743c-0.636-0.052-1.099 0.133-1.389 0.555s-0.462 0.977-0.514 1.664c0-0.107-0.159-0.318-0.477-0.633 0 0.37-0.12 0.581-0.358 0.633s-0.543 0.025-0.913-0.080c-0.37-0.106-0.607-0.132-0.711-0.080-0.529 0.159-0.925 0.358-1.19 0.596s-0.476 0.675-0.635 1.309c-0.159 0.635-0.264 1.031-0.317 1.19-0.104 0.263-0.355 0.539-0.752 0.83s-0.648 0.568-0.752 0.834c-0.055 0.104-0.122 0.248-0.2 0.433s-0.157 0.357-0.236 0.516c-0.079 0.159-0.186 0.304-0.318 0.435s-0.279 0.197-0.435 0.197c-0.158 0-0.342-0.132-0.555-0.397s-0.411-0.528-0.596-0.791c-0.185-0.263-0.303-0.394-0.356-0.394-0.159 0.104-0.318 0.143-0.477 0.117s-0.277-0.052-0.356-0.078c-0.078-0.026-0.197-0.106-0.356-0.238s-0.292-0.226-0.399-0.277c-0.159-0.107-0.384-0.187-0.674-0.238s-0.515-0.106-0.674-0.161c0.795 0.266 0.769 0.558-0.078 0.875-0.529 0.211-0.951 0.289-1.266 0.234 0.474 0.214 0.671 0.531 0.591 0.954s-0.305 0.792-0.674 1.11h0.399c-0.055 0.211-0.281 0.435-0.676 0.674s-0.858 0.463-1.387 0.674c-0.529 0.211-0.872 0.368-1.027 0.473-0.425 0.266-1.325 0.517-2.699 0.755s-2.247 0.25-2.616 0.039c-0.263-0.315-0.382-0.592-0.356-0.83s0.132-0.608 0.317-1.11c0.185-0.502 0.277-0.832 0.277-0.99 0.055-0.318-0.089-0.662-0.433-1.032s-0.516-0.687-0.516-0.95c0-0.37 0.37-0.779 1.11-1.229s1.004-1.018 0.793-1.706c-0.159-0.422-0.582-0.844-1.27-1.268s-1.11-0.74-1.266-0.952c-0.266-0.422-0.307-0.911-0.122-1.466s0.462-0.991 0.832-1.309c0.107-0.107 0.147-0.213 0.119-0.318s-0.12-0.224-0.277-0.356c-0.158-0.132-0.303-0.237-0.435-0.317s-0.305-0.173-0.516-0.279l-0.238-0.156c-0.581-0.266-1.122-0.108-1.623 0.474s-0.858 1.269-1.068 2.062c-0.37 1.32-0.793 2.114-1.27 2.38-1.217 0.422-1.983 0.394-2.298-0.082-0.266 0.688-1.349 1.375-3.252 2.063-1.321 0.474-2.854 0.579-4.6 0.317 0.318 0.052 0.318 0.448 0 1.188-0.37 0.792-0.871 1.11-1.505 0.954 0.159 0.315 0.264 0.776 0.316 1.385s0.078 0.964 0.078 1.068c0.159 0.688 0.477 1.296 0.953 1.825 0.052 0.052 0.237 0.276 0.555 0.674s0.57 0.754 0.755 1.071c0.185 0.317 0.198 0.474 0.039 0.474 1.849-0.211 3.171 0.079 3.962 0.872 0.263 0.266 0.567 0.715 0.911 1.348s0.622 1.082 0.832 1.348c0.477 0.318 0.848 0.463 1.112 0.435s0.647-0.173 1.149-0.438c0.502-0.264 0.885-0.397 1.151-0.397 0.74-0.052 1.149 0.239 1.227 0.873s-0.12 1.163-0.594 1.584c0.633-0.052 0.712 0.397 0.238 1.348-0.266 0.37-0.478 0.608-0.637 0.716-0.633 0.211-1.346 0.078-2.137-0.399-0.425-0.211-0.373-0.422 0.156-0.633-0.052 0.052-0.303-0.226-0.752-0.832s-0.885-1.070-1.307-1.387c-0.422-0.318-0.846-0.187-1.27 0.394-0.052 0.055-0.197 0.413-0.435 1.073s-0.489 1.017-0.752 1.068c-0.422 0-0.846-0.396-1.27-1.188 0.159 0.422-0.131 0.818-0.871 1.188s-1.375 0.581-1.903 0.633c1.006 0.635 0.794 1.349-0.633 2.142-0.37 0.211-0.912 0.343-1.625 0.397s-1.228-0.053-1.543-0.318c-0.266-0.37-0.412-0.673-0.438-0.911s0.106-0.448 0.397-0.633c0.291-0.185 0.568-0.33 0.833-0.435s0.569-0.211 0.912-0.317c0.344-0.106 0.568-0.186 0.672-0.24 0.74-0.529 0.952-0.899 0.637-1.11-0.107-0.052-0.333-0.144-0.677-0.276s-0.648-0.251-0.912-0.358c-0.264-0.107-0.423-0.212-0.475-0.317-0.159-0.211-0.159-0.581 0-1.11s0.107-0.899-0.156-1.11c-0.266 0.263-0.505 0.724-0.715 1.385s-0.396 1.098-0.555 1.312c0.37-0.477-0.291-0.636-1.981-0.477l-0.793 0.078c-0.211 0-0.633-0.053-1.268-0.158s-1.177-0.132-1.625-0.078c-0.45 0.053-0.805 0.265-1.069 0.635-0.211 0.422-0.211 0.95 0 1.582 0.052 0.211 0.157 0.264 0.316 0.161-0.211 0.159-0.501 0.409-0.871 0.752s-0.635 0.567-0.793 0.674c-2.43-0.792-4.915-1.876-7.452-3.252 0.318-0.052 0.635-0.024 0.95 0.082 0.266 0.104 0.61 0.275 1.032 0.514s0.686 0.384 0.793 0.435c1.798 0.74 2.907 0.925 3.329 0.555l0.394 0.394c0.74-0.844 1.268-1.505 1.587-1.981-0.37 0.211-1.162 0.238-2.375 0.082-1.058-0.318-1.64-0.636-1.747-0.954 0.37-0.633 0.503-1.108 0.399-1.426-0.211 0.159-0.515 0.423-0.912 0.793s-0.781 0.661-1.151 0.872c-0.37 0.211-0.766 0.342-1.188 0.394-0.847 0-1.428-0.026-1.743-0.078-7.716-4.228-13.926-10.094-18.628-17.596 0.37-0.37 0.686-0.582 0.95-0.637 0.211-0.052 0.343-0.289 0.397-0.711s0.12-0.712 0.2-0.872c0.079-0.159 0.382-0.079 0.908 0.238 0.477-0.425 0.556-0.928 0.238-1.509 0.055 0.052 1.218-0.662 3.49-2.142 1.003-0.896 1.558-1.451 1.665-1.664 0.159-0.581-0.106-1.057-0.793-1.426-0.052 0.107-0.29 0.346-0.713 0.716s-0.661 0.476-0.713 0.317c-0.159-0.263-0.146-0.752 0.039-1.466s0.463-1.045 0.833-0.993c-0.37 0-0.62-0.423-0.752-1.268s-0.197-1.784-0.197-2.813c0-1.031-0.028-1.651-0.083-1.862l0.161-0.082c-0.159-0.633-0.014-1.544 0.435-2.733s1.018-1.704 1.706-1.546c-0.688-0.159-0.161-1.295 1.583-3.408 0.318-0.425 0.53-0.663 0.637-0.716 0.156-0.104 0.472-0.302 0.95-0.594s0.874-0.557 1.19-0.793c0.316-0.237 0.58-0.514 0.791-0.832 0.211-0.263 0.476-0.857 0.793-1.781s0.688-1.546 1.11-1.864c-0.107-0.318 0.143-0.847 0.752-1.587s0.887-1.347 0.834-1.821c-0.055 0-0.121-0.026-0.2-0.080s-0.144-0.080-0.2-0.080c0.159-0.37 0.569-0.74 1.229-1.11s1.070-0.714 1.229-1.032c0.052-0.156 0.105-0.419 0.158-0.789s0.133-0.661 0.238-0.873c0.106-0.212 0.317-0.265 0.635-0.158 0.104 1.058-0.53 2.697-1.903 4.916-0.792 1.32-1.242 2.087-1.348 2.298-0.159 0.263-0.304 0.672-0.435 1.227s-0.251 0.938-0.357 1.149c0.107 0 0.266-0.039 0.477-0.117s0.435-0.171 0.674-0.277c0.238-0.107 0.436-0.213 0.594-0.318s0.21-0.185 0.158-0.236c-0.159-0.37-0.107-0.832 0.158-1.387s0.582-1.044 0.952-1.467c0.37-0.423 0.82-0.925 1.348-1.507s0.845-0.923 0.95-1.027c0.318-0.318 0.689-0.834 1.112-1.548s0.423-1.071-0.002-1.071c0.477 0 1.006-0.264 1.587-0.793s1.030-1.057 1.348-1.582c0.263-0.425 0.474-1.113 0.633-2.063s0.292-1.586 0.399-1.903c0.104-0.37 0.328-0.726 0.672-1.068s0.674-0.593 0.99-0.752c0.316-0.159 0.739-0.37 1.268-0.635s0.873-0.45 1.032-0.557c0.263-0.104 0.751-0.381 1.465-0.83s1.281-0.753 1.703-0.913c0.529-0.211 0.952-0.317 1.27-0.317s0.702 0.065 1.151 0.197c0.45 0.132 0.805 0.224 1.069 0.279 0.792 0.104 1.558-0.293 2.298-1.19s1.294-1.453 1.665-1.667c1.905-1.003 3.358-1.293 4.361-0.872-0.107-0.052-0.094-0.25 0.039-0.594s0.344-0.753 0.635-1.229c0.291-0.476 0.528-0.858 0.713-1.149s0.331-0.515 0.438-0.674c0.263-0.318 0.738-0.714 1.424-1.19s1.163-0.87 1.428-1.185c0.318 0.211 0.503 0.448 0.555 0.711-0.159-0.422 0.026-0.95 0.555-1.584s1.004-0.898 1.426-0.791c0.74 0.156 1.11 1.002 1.11 2.536-1.639-0.795-2.933-0.32-3.885 1.426 0 0.052-0.066 0.197-0.197 0.435s-0.237 0.463-0.317 0.674c-0.079 0.211-0.146 0.435-0.2 0.674s-0.053 0.437 0 0.594c0.053 0.158 0.185 0.236 0.397 0.236 0.474 0 0.738 0.092 0.791 0.277s0 0.515-0.158 0.99c-0.159 0.476-0.264 0.82-0.317 1.034-0.052 0.422-0.342 0.95-0.872 1.584s-0.847 1.031-0.954 1.19c-0.263-0.477-0.685-0.688-1.266-0.635s-1.005 0.291-1.27 0.713c0-0.052-0.040-0.197-0.119-0.435s-0.12-0.411-0.119-0.518c-0.685 0-1.081 0.027-1.188 0.082 0.052 0.159 0.118 0.622 0.197 1.387s0.173 1.36 0.279 1.781c0.052 0.211 0.197 0.528 0.435 0.952s0.437 0.807 0.594 1.151c0.158 0.344 0.263 0.674 0.317 0.99s-0.065 0.567-0.356 0.752c-0.291 0.185-0.753 0.252-1.389 0.2-1.003-0.055-1.69-0.584-2.059-1.587-0.052-0.159-0.131-0.437-0.237-0.832s-0.238-0.7-0.397-0.911c-0.159-0.211-0.398-0.396-0.715-0.555-0.37-0.159-1.005-0.212-1.903-0.161s-1.534 0.185-1.903 0.399c-0.685 0.422-1.279 1.188-1.781 2.298s-0.755 2.087-0.755 2.93c0 0.529 0.066 1.229 0.2 2.103s0.213 1.534 0.238 1.983c0.026 0.45-0.12 1.096-0.438 1.94 0.159 0.107 0.398 0.358 0.715 0.755s0.583 0.673 0.793 0.832c0.104 0.052 0.222 0.091 0.356 0.117s0.252 0.026 0.357 0c0.106-0.026 0.211 0.014 0.316 0.119s0.184 0.264 0.237 0.474c-0.052 0.055-0.157 0.135-0.316 0.238-0.159 0.159-0.264 0.238-0.316 0.238 0.37-0.159 1.123-0.12 2.258 0.119s1.863 0.199 2.18-0.119c0.792-0.581 1.373-0.527 1.743 0.161 0 0.052-0.066 0.303-0.197 0.752s-0.145 0.805-0.041 1.068c0.266-1.425 1.033-1.662 2.302-0.711 0.159-0.159 0.568-0.291 1.229-0.397s1.122-0.238 1.385-0.397c0.159-0.107 0.344-0.253 0.555-0.438s0.356-0.303 0.435-0.356c0.079-0.052 0.212-0.038 0.397 0.041s0.411 0.25 0.676 0.514c0.526-0.74 0.842-1.375 0.95-1.903 0.581-2.113 1.082-3.274 1.505-3.486 0.37-0.159 0.661-0.212 0.873-0.161s0.332 0.303 0.358 0.752c0.026 0.45 0.026 0.82 0 1.11s-0.067 0.62-0.122 0.99l-0.078 0.637c0 0.474 0 0.95 0 1.426l-0.078 0.633c-0.792 0.159-1.281 0.476-1.466 0.952s-0.146 0.964 0.117 1.466c0.263 0.502 0.659 0.99 1.188 1.467 0.055 0.052 0.267 0.144 0.637 0.277s0.779 0.305 1.227 0.516c0.448 0.211 0.779 0.422 0.993 0.633 1.11 1.005 1.505 1.93 1.188 2.774 0.37 0 0.661 0.238 0.872 0.716-0.052 0-0.185 0.079-0.397 0.236s-0.411 0.289-0.596 0.397c-0.185 0.107-0.303 0.161-0.356 0.161 0.477 0.263 0.531 0.685 0.161 1.266 0.263 0.159 0.461 0.45 0.594 0.873s0.331 0.687 0.594 0.791c0.477-0.633 1.031-0.685 1.664-0.156 0.37 0.422 0.396 0.844 0.078 1.266 0.266 0.37 0.808 0.647 1.628 0.832s1.307 0.437 1.463 0.755c0.37-0.107 0.582-0.055 0.635 0.158s0.080 0.529 0.080 0.952c0 0.422 0.079 0.738 0.238 0.95 0.211 0.266 0.607 0.505 1.188 0.716s0.925 0.342 1.032 0.394l1.348 0.872c0.159 0.214 0.159 0.32 0 0.321 0.951-0.107 1.77 0.183 2.458 0.872 0.526 0.581 0.367 1.108-0.477 1.582 0.159 0.318 0.079 0.57-0.238 0.755s-0.714 0.331-1.188 0.438c0.159 0.052 0.462 0.065 0.911 0.039s0.726 0.013 0.832 0.117c0.792 0.529 0.607 0.952-0.555 1.27-0.899 0.263-2.034-0.055-3.408-0.954zM265.736 108.348c10.887 1.901 20.161 6.896 27.823 14.983-0.156 0.159-0.486 0.278-0.988 0.358s-0.834 0.171-0.993 0.276c-0.951 0.37-1.586 0.581-1.903 0.633 0.055 0.37-0.010 0.714-0.195 1.032s-0.397 0.557-0.635 0.716c-0.238 0.159-0.568 0.37-0.99 0.633s-0.712 0.448-0.872 0.555c-0.107 0.107-0.293 0.266-0.557 0.477s-0.45 0.356-0.555 0.435c-0.106 0.079-0.303 0.198-0.594 0.356s-0.515 0.21-0.674 0.158c-0.159-0.052-0.423-0.078-0.793-0.078l-0.238-0.078c-0.156-0.055-0.3-0.122-0.433-0.202s-0.279-0.159-0.438-0.236c-0.159-0.078-0.264-0.157-0.317-0.236s-0.052-0.147 0-0.202c-1.11 0.899-2.060 1.481-2.853 1.747-0.266 0.052-0.557 0.197-0.873 0.435s-0.594 0.423-0.832 0.555c-0.238 0.132-0.503 0.171-0.793 0.117s-0.594-0.238-0.908-0.553c-0.266-0.266-0.425-0.663-0.477-1.19s-0.106-0.87-0.161-1.029c-0.37 0.263-0.37 0.724 0 1.385s0.423 1.149 0.161 1.467c-0.159 0.318-0.437 0.437-0.832 0.358s-0.713-0.199-0.952-0.358c-0.238-0.159-0.543-0.384-0.913-0.674s-0.608-0.462-0.713-0.516c-0.106-0.053-0.33-0.199-0.674-0.435s-0.568-0.435-0.672-0.594c-0.159-0.211-0.318-0.528-0.477-0.952s-0.291-0.714-0.394-0.873c-0.107 0.214-0.411 0.387-0.913 0.518s-0.752 0.276-0.752 0.435c0.104-0.529 0.209-1.454 0.315-2.774s0.238-2.325 0.397-3.013c0.37-1.639 0.053-2.908-0.95-3.807-1.428-1.321-2.195-2.377-2.302-3.169-0.211-1.162 0.107-1.849 0.954-2.063 0-0.37-0.212-0.911-0.635-1.623s-0.608-1.281-0.553-1.706c0-0.315 0.052-0.737 0.156-1.266z" />
<glyph unicode="&#xe60f;" d="M88.853 454.387c-34.883 0-63.253-28.343-63.253-63.225v-334.322c0-34.882 28.37-63.253 63.253-63.253h334.294c34.882 0 63.253 28.37 63.253 63.253v334.322c0 34.882-28.37 63.225-63.253 63.225h-334.294zM88.853 436.331h334.294c25.184 0 45.168-19.985 45.168-45.169v-334.322c0-25.184-19.985-45.168-45.168-45.168h-334.294c-25.184 0-45.169 19.985-45.169 45.168v334.322c0 25.184 19.984 45.169 45.169 45.169zM94 179.823v88.365h117.823v117.813h88.365v-117.813h117.813v-88.365h-117.813v-117.823h-88.365v117.823z" />
<glyph unicode="&#xe610;" d="M451.716 380.285l-71.432 71.431c-15.556 15.556-46.284 28.284-68.284 28.284h-240c-22 0-40-18-40-40v-432c0-22 18-40 40-40h368c22 0 40 18 40 40v304c0 22-12.728 52.729-28.284 68.285zM429.089 357.657c1.565-1.565 3.125-3.487 4.64-5.657h-81.729v81.728c2.17-1.515 4.092-3.075 5.657-4.64l71.432-71.431zM448 8c0-4.336-3.664-8-8-8h-368c-4.336 0-8 3.664-8 8v432c0 4.336 3.664 8 8 8h240c2.416 0 5.127-0.305 8-0.852v-127.148h127.148c0.547-2.873 0.852-5.583 0.852-8v-304zM177.524 225.537l-43.727 8.471c4.916 18.907 13.375 32.904 25.379 41.989s29.837 13.628 53.501 13.628c21.492 0 37.496-2.732 48.014-8.195s17.92-12.401 22.207-20.81c4.287-8.41 6.43-23.849 6.43-46.317l-0.514-60.405c0-17.188 0.772-29.865 2.315-38.029s4.43-16.912 8.659-26.243h-47.671c-1.257 3.438-2.801 8.533-4.63 15.286-0.8 3.070-1.372 5.095-1.715 6.077-8.231-8.594-17.034-15.040-26.407-19.337s-19.377-6.445-30.008-6.445c-18.749 0-33.524 5.464-44.327 16.39s-16.204 24.739-16.204 41.437c0 11.050 2.458 20.902 7.374 29.558s11.803 15.286 20.663 19.889c8.859 4.604 21.635 8.625 38.326 12.063 22.52 4.543 38.125 8.778 46.814 12.707v5.156c0 9.945-2.286 17.035-6.859 21.27s-13.204 6.353-25.893 6.353c-8.574 0-15.262-1.811-20.063-5.433s-8.689-9.976-11.661-19.060zM242 183.548c-6.173-2.21-15.947-4.849-29.322-7.919s-22.12-6.077-26.236-9.024c-6.287-4.788-9.431-10.865-9.431-18.232 0-7.243 2.515-13.505 7.545-18.784s11.432-7.919 19.206-7.919c8.688 0 16.976 3.070 24.864 9.208 5.83 4.666 9.66 10.375 11.489 17.127 1.257 4.42 1.886 12.83 1.887 25.23zM335.799 141.375h48.185v-37.017c0-14.978-1.2-26.796-3.601-35.451s-6.945-16.421-13.632-23.296c-6.688-6.875-15.176-12.277-25.464-16.206l-9.431 21.363c9.717 3.438 16.634 8.164 20.749 14.18s6.288 14.242 6.516 24.678h-23.321z" />
<glyph unicode="&#xe611;" d="M496.131 44.302l-121.276 103.147c-12.537 11.283-25.945 16.463-36.776 15.963 28.628 33.534 45.921 77.039 45.921 124.588 0 106.039-85.961 192-192 192s-192-85.961-192-192c0-106.039 85.961-192 192-192 47.549 0 91.054 17.293 124.588 45.922-0.5-10.831 4.68-24.239 15.963-36.776l103.147-121.276c17.661-19.623 46.511-21.277 64.11-3.678s15.946 46.449-3.677 64.11zM192 160c-70.692 0-128 57.308-128 128s57.308 128 128 128 128-57.308 128-128-57.307-128-128-128z" />
<glyph unicode="&#xe612;" d="M197.988 166.005c26.98-26.979 59.445-40.469 97.396-40.469s70.413 13.488 97.387 40.461c26.974 26.974 40.461 59.436 40.461 97.387s-13.488 70.413-40.461 97.387c-26.974 26.974-59.437 40.461-97.387 40.461s-70.413-13.487-97.387-40.461c-26.974-26.974-40.461-59.436-40.461-97.387s13.484-70.41 40.452-97.379zM39.376-32c-10.657 0-19.884 3.896-27.68 11.687s-11.695 17.021-11.695 27.689c0 11.084 3.898 20.317 11.695 27.697l105.22 105.54c-25.431 36.717-38.147 77.641-38.147 122.771 0 29.335 5.693 57.387 17.079 84.152s26.772 49.842 46.157 69.227c19.385 19.385 42.46 34.771 69.227 46.157s54.817 17.079 84.153 17.079c29.335 0 57.389-5.693 84.161-17.079s49.85-26.772 69.236-46.157c19.385-19.385 34.767-42.46 46.149-69.227s17.070-54.817 17.071-84.152c-0-29.335-5.691-57.389-17.071-84.161s-26.764-49.85-46.149-69.236c-19.385-19.385-42.464-34.767-69.236-46.149s-54.826-17.070-84.161-17.071c-45.13 0-86.054 12.716-122.771 38.147l-105.54-105.54c-7.584-7.583-16.816-11.375-27.698-11.375z" />
<glyph unicode="&#xe613;" d="M240 448c-132.548 0-240-107.452-240-240s107.452-240 240-240c132.549 0 240 107.451 240 240s-107.451 240-240 240zM375.795 128c4.29 20.227 6.998 41.696 7.879 64h63.723c-1.668-22.098-6.812-43.557-15.34-64h-56.262zM104.205 288c-4.29-20.227-6.998-41.696-7.879-64h-63.722c1.668 22.097 6.811 43.557 15.339 64h56.262zM343.018 288c4.807-20.481 7.699-41.927 8.64-64h-95.658v64h87.018zM256 320v93.669c7.295-2.123 14.522-5.685 21.614-10.685 13.291-9.37 26.006-23.804 36.77-41.743 7.441-12.401 13.876-26.208 19.248-41.242h-77.632zM165.616 361.242c10.764 17.939 23.478 32.374 36.77 41.743 7.091 5 14.319 8.562 21.614 10.685v-93.67h-77.632c5.373 15.033 11.808 28.84 19.248 41.242zM224 288v-64h-95.657c0.94 22.073 3.833 43.519 8.639 64h87.018zM47.944 128c-8.528 20.443-13.671 41.902-15.339 64h63.722c0.881-22.304 3.589-43.773 7.879-64h-56.262zM128.343 192h95.657v-64h-87.018c-4.806 20.48-7.699 41.927-8.639 64zM224 96v-93.67c-7.294 2.123-14.522 5.686-21.614 10.685-13.292 9.37-26.007 23.805-36.77 41.743-7.441 12.402-13.875 26.209-19.249 41.242h77.633zM314.384 54.758c-10.764-17.938-23.479-32.373-36.77-41.743-7.092-4.999-14.319-8.562-21.614-10.685v93.67h77.633c-5.373-15.033-11.808-28.84-19.249-41.242zM256 128v64h95.657c-0.94-22.073-3.833-43.52-8.64-64h-87.017zM383.674 224c-0.881 22.304-3.589 43.773-7.879 64h56.262c8.528-20.443 13.672-41.903 15.34-64h-63.723zM415.329 320h-47.95c-9.319 29.381-22.188 55.147-37.658 75.714 21.268-10.17 40.529-23.808 57.357-40.636 10.74-10.739 20.181-22.469 28.251-35.078zM92.922 355.078c16.829 16.829 36.090 30.466 57.357 40.636-15.471-20.567-28.338-46.333-37.658-75.714h-47.949c8.069 12.609 17.511 24.339 28.25 35.078zM64.672 96h47.949c9.32-29.381 22.188-55.147 37.659-75.715-21.268 10.17-40.529 23.808-57.357 40.637-10.74 10.739-20.182 22.469-28.251 35.078zM387.078 60.922c-16.828-16.829-36.090-30.467-57.357-40.637 15.471 20.567 28.339 46.334 37.658 75.715h47.95c-8.070-12.609-17.511-24.339-28.251-35.078z" />
<glyph unicode="&#xe614;" d="M119.125 443c-22.623-0-41.969-8.032-58.032-24.094s-24.094-35.41-24.094-58.031v-273.75c0-22.623 8.032-41.964 24.094-58.031s35.409-24.094 58.032-24.094h273.75c22.622 0 41.969 8.026 58.031 24.094s24.094 35.409 24.094 58.031v273.75c-0 22.622-8.032 41.969-24.094 58.031s-35.409 24.094-58.031 24.094h-273.75zM279.063 374c17.188 0 33.625-3.329 49.313-10s29.235-15.704 40.594-27.063c11.358-11.358 20.363-24.879 27.031-40.563s10-32.124 10-49.313c0-17.189-3.332-33.625-10-49.313s-15.673-29.204-27.031-40.563c-11.358-11.358-24.907-20.363-40.594-27.031s-32.124-10-49.313-10c-26.444 0-50.424 7.443-71.938 22.344l-61.813-61.844c-4.444-4.443-9.874-6.656-16.25-6.656-6.245 0-11.65 2.279-16.219 6.844s-6.844 9.968-6.844 16.219c0 6.495 2.275 11.925 6.844 16.25l61.656 61.813c-14.901 21.514-22.344 45.494-22.344 71.938 0 17.189 3.328 33.629 10 49.313s15.704 29.204 27.063 40.563c11.358 11.358 24.879 20.391 40.563 27.063s32.093 10 49.281 10zM279.063 327.844c-22.237 0-41.257-7.913-57.063-23.719s-23.688-34.826-23.688-57.063c0-22.237 7.886-41.23 23.688-57.031 15.808-15.808 34.825-23.719 57.063-23.719s41.257 7.882 57.063 23.688c15.805 15.805 23.719 34.826 23.719 57.063s-7.914 41.257-23.719 57.063c-15.805 15.805-34.826 23.719-57.063 23.719z" />
<glyph unicode="&#xe615;" d="M368.615 40.499c6.861-6.938 6.861-18.125 0-25.063s-17.945-6.938-24.807 0l-200.448 202.419c-6.861 6.938-6.861 18.151 0 25.063l200.448 202.445c6.861 6.938 17.945 6.938 24.807 0s6.861-18.125 0-25.063l-182.784-189.901 182.784-189.901z" />
<glyph unicode="&#xe616;" d="M66.099 343.014c-6.938 6.861-18.151 6.861-25.063 0-6.912-6.835-6.912-17.946 0-24.807l202.445-200.448c6.938-6.861 18.125-6.861 25.063 0l202.445 200.448c6.912 6.861 6.938 17.945 0 24.806s-18.176 6.861-25.063 0.026l-189.927-182.81-189.901 182.784z" />
<glyph unicode="&#xe617;" d="M445.901 117.785c6.938-6.861 18.151-6.861 25.063 0 6.938 6.861 6.938 17.945 0 24.807l-202.445 200.448c-6.912 6.861-18.125 6.861-25.037 0l-202.445-200.448c-6.912-6.861-6.938-17.945 0-24.807s18.125-6.861 25.063 0l189.901 182.81 189.901-182.81z" />
<glyph unicode="&#xe618;" d="M143.352 40.499c-6.861-6.938-6.861-18.125 0-25.063s17.946-6.938 24.806 0l200.448 202.419c6.861 6.938 6.861 18.151 0 25.063l-200.448 202.445c-6.861 6.938-17.946 6.938-24.806 0s-6.861-18.125 0-25.063l182.784-189.901-182.784-189.901z" />
<glyph unicode="&#xe619;" d="M0 8h512v-40h-512zM56 223.461v109.092h145.46v145.447h109.092v-145.447h145.447v-109.092h-145.447v-145.461h-109.092v145.461z" />
<glyph unicode="&#xe61a;" d="M0 8h512v-40h-512zM437.342 344.527c5.18-0 9.588-1.815 13.216-5.442s5.442-8.036 5.442-13.216v-261.211c0-5.187-1.814-9.588-5.442-13.216s-8.036-5.442-13.216-5.442h-211.457c-5.186 0-9.588 1.814-13.216 5.442s-5.441 8.029-5.442 13.216v155.483h105.728c5.18 0 9.589 1.814 13.216 5.442s5.442 8.029 5.442 13.216v105.728h105.728zM306.736 343.913v-98.895h-98.936c1.941 10.621 6.16 19.171 12.643 25.655l60.639 60.639c6.476 6.476 15.026 10.66 25.654 12.602zM155.509 446.082c-10.629-1.942-19.178-6.167-25.655-12.643l-60.638-60.639c-6.483-6.483-10.701-15.034-12.643-25.654h98.936v98.936zM180.387 446.654v-105.728c0-5.187-1.814-9.589-5.442-13.216s-8.036-5.442-13.216-5.442h-105.728v-155.483c0-5.187 1.815-9.588 5.442-13.216s8.030-5.442 13.216-5.442h102.7v75.409c-0.001 4.531-0.784 24.986 1.432 28.939-2.563 5.099-1.459-4.891-0.45 0.726 2.714 14.841 9.337 29.017 20.008 39.689l60.639 60.638c10.702 10.702 24.895 17.264 39.689 19.968 2.010 0.343 4.061 0.452 6.096 0.327v54.173c0 5.18-1.814 9.588-5.442 13.216s-8.036 5.442-13.216 5.442z" />
<glyph unicode="&#xe61b;" d="M402.002 205.762v36.491c-0 4.948-1.807 9.226-5.419 12.834s-7.894 5.411-12.842 5.411h-91.243v91.258c0 4.938-1.807 9.214-5.419 12.827s-7.889 5.418-12.827 5.419h-36.507c-4.939-0-9.214-1.806-12.827-5.419s-5.419-7.888-5.419-12.827v-91.258h-91.258c-4.939 0-9.214-1.804-12.826-5.411s-5.419-7.886-5.419-12.834v-36.491c0-4.949 1.806-9.229 5.419-12.842s7.888-5.419 12.826-5.419h91.258v-91.243c0-4.949 1.806-9.226 5.419-12.834s7.888-5.411 12.827-5.411h36.507c4.938 0 9.214 1.803 12.827 5.411s5.419 7.885 5.419 12.834v91.243h91.243c4.949 0 9.229 1.806 12.842 5.419s5.418 7.893 5.419 12.842zM475 360.88v-273.744c-0-22.623-8.031-41.967-24.094-58.034s-35.405-24.101-58.027-24.101h-273.76c-22.623 0-41.965 8.034-58.027 24.101s-24.093 35.413-24.093 58.034v273.744c0 22.622 8.031 41.964 24.093 58.027s35.404 24.093 58.027 24.094h273.76c22.622-0 41.964-8.031 58.027-24.094s24.093-35.405 24.094-58.027z" />
<glyph unicode="&#xe61c;" d="M171.635 89.379l19.462 19.462-50.255 50.255-19.462-19.462v-22.877h27.368v-27.379zM283.478 287.84c0 3.134-1.567 4.702-4.702 4.702-1.427 0-2.639-0.499-3.637-1.497l-115.914-115.902c-0.998-0.998-1.497-2.211-1.497-3.637 0-3.142 1.567-4.714 4.702-4.714 1.427 0 2.639 0.499 3.637 1.497l115.914 115.914c0.998 0.998 1.497 2.211 1.497 3.637zM271.935 328.903l88.968-88.968-177.935-177.935h-88.968v88.967zM418 308.377c-0-7.564-2.639-13.98-7.918-19.251l-35.496-35.507-88.967 88.968 35.496 35.286c5.138 5.418 11.555 8.128 19.251 8.128 7.555-0 14.042-2.71 19.462-8.128l50.255-50.034c5.278-5.567 7.918-12.055 7.918-19.462zM88.853 454.387c-34.883 0-63.253-28.343-63.253-63.225v-334.322c0-34.882 28.37-63.253 63.253-63.253h334.294c34.882 0 63.253 28.37 63.253 63.253v334.322c0 34.882-28.37 63.225-63.253 63.225h-334.294zM88.853 436.331h334.294c25.184 0 45.168-19.985 45.168-45.169v-334.322c0-25.184-19.985-45.168-45.168-45.168h-334.294c-25.184 0-45.169 19.985-45.169 45.168v334.322c0 25.184 19.984 45.169 45.169 45.169z" />
<glyph unicode="&#xf003;" d="M475.428 45.714v219.428q-9.143-10.286-19.714-18.857-76.572-58.857-121.714-96.572-14.572-12.286-23.714-19.143t-24.714-13.857-29.286-7h-0.571q-13.714 0-29.285 7t-24.714 13.857-23.714 19.143q-45.143 37.714-121.715 96.572-10.572 8.572-19.715 18.857v-219.428q0-3.714 2.715-6.428t6.428-2.714h420.572q3.714 0 6.428 2.714t2.714 6.428zM475.428 346v7t-0.143 3.714-0.857 3.572-1.572 2.572-2.572 2.143-4 0.714h-420.572q-3.715 0-6.428-2.714t-2.715-6.429q0-48 42-81.143 55.143-43.428 114.571-90.572 1.714-1.428 10-8.428t13.143-10.714 12.714-9 14.429-7.857 12.286-2.572h0.572q5.714 0 12.286 2.572t14.428 7.857 12.714 9 13.143 10.714 10 8.428q59.428 47.143 114.572 90.572 15.428 12.286 28.714 33t13.286 37.572zM512 356.572v-310.857q0-18.857-13.428-32.286t-32.286-13.428h-420.572q-18.857 0-32.285 13.428t-13.428 32.286v310.857q0 18.857 13.428 32.286t32.285 13.428h420.572q18.857 0 32.286-13.428t13.428-32.286z" />
<glyph unicode="&#xf007;" d="M402.286 74q0-34.286-20.857-54.143t-55.428-19.857h-249.714q-34.572 0-55.428 19.857t-20.857 54.143q0 15.143 1 29.572t4 31.143 7.572 31 12.285 27.857 17.715 23.143 24.428 15.286 31.857 5.714q2.572 0 12-6.143t21.285-13.714 30.857-13.714 38.143-6.143 38.143 6.143 30.857 13.714 21.286 13.714 12 6.143q17.428 0 31.857-5.714t24.428-15.285 17.714-23.143 12.286-27.857 7.572-31 4-31.143 1-29.572zM310.857 329.143q0-45.428-32.143-77.572t-77.572-32.143-77.572 32.143-32.143 77.572 32.143 77.571 77.572 32.143 77.572-32.143 32.143-77.571z" horiz-adv-x="403" />
<glyph unicode="&#xf02f;" d="M109.715 36.572h256v73.143h-256v-73.143zM109.715 219.429h256v109.714h-45.714q-11.428 0-19.428 8t-8 19.428v45.714h-182.857v-182.857zM438.857 201.143q0 7.428-5.428 12.857t-12.857 5.428-12.857-5.428-5.428-12.857 5.428-12.857 12.857-5.428 12.857 5.428 5.428 12.857zM475.428 201.143v-118.857q0-3.714-2.714-6.428t-6.428-2.714h-64v-45.714q0-11.428-8-19.428t-19.428-8h-274.286q-11.428 0-19.428 8t-8 19.428v45.714h-64q-3.715 0-6.428 2.714t-2.715 6.428v118.857q0 22.572 16.143 38.714t38.715 16.143h18.285v155.429q0 11.428 8 19.428t19.428 8h192q11.428 0 25.143-5.714t21.714-13.715l43.428-43.428q8-8 13.714-21.714t5.714-25.143v-73.143h18.286q22.572 0 38.714-16.143t16.143-38.714z" horiz-adv-x="476" />
<glyph unicode="&#xf040;" d="M103.715 36.572l26 26-67.143 67.143-26-26v-30.572h36.572v-36.572h30.572zM253.143 301.714q0 6.286-6.286 6.286-2.857 0-4.857-2l-154.857-154.857q-2-2-2-4.857 0-6.286 6.285-6.286 2.857 0 4.857 2l154.857 154.857q2 2 2 4.857zM237.714 356.572l118.857-118.857-237.714-237.714h-118.857v118.857zM432.857 329.143q0-15.143-10.572-25.714l-47.428-47.428-118.857 118.857 47.428 47.143q10.286 10.857 25.714 10.857 15.143 0 26-10.857l67.143-66.857q10.572-11.143 10.572-26z" />
<glyph unicode="&#xf045;" d="M402.286 192.857v-74q0-34-24.143-58.143t-58.143-24.143h-237.714q-34 0-58.143 24.143t-24.143 58.143v237.714q0 34 24.143 58.143t58.143 24.143h72.857q3.714 0 6.429-2.715t2.714-6.428q0-7.714-7.428-9.143-22-7.429-38-17.143-2.857-1.143-4.572-1.143h-32q-18.857 0-32.285-13.428t-13.428-32.286v-237.714q0-18.857 13.428-32.286t32.285-13.428h237.714q18.857 0 32.286 13.428t13.428 32.286v61.143q0 5.428 5.143 8.286 8 3.714 15.428 10.572 4.572 4.572 10 2.286 6-2.572 6-8.286zM470 334.572l-109.714-109.714q-5.143-5.428-12.857-5.428-3.428 0-7.143 1.428-11.143 4.857-11.143 16.857v54.857h-45.714q-92.286 0-125.143-37.428-34-39.143-21.143-135.143 0.857-6.572-5.714-9.714-2.286-0.572-3.428-0.572-4.572 0-7.428 3.714-2.857 4-6 8.857t-11.285 19.572-14.143 28.428-11 32.572-5 34.857q0 14 1 26t4 25.715 8 25.143 13.428 23.286 19.572 21.143 27 17.572 35.572 13.857 45.572 8.714 56.143 3.143h45.714v54.857q0 12 11.143 16.857 3.714 1.429 7.143 1.429 7.428 0 12.857-5.429l109.714-109.714q5.428-5.428 5.428-12.857t-5.428-12.857z" horiz-adv-x="476" />
<glyph unicode="&#xf046;" d="M402.286 209.714v-90.857q0-34-24.143-58.143t-58.143-24.143h-237.714q-34 0-58.143 24.143t-24.143 58.143v237.714q0 34 24.143 58.143t58.143 24.143h237.714q18 0 33.428-7.143 4.286-2 5.143-6.572 0.857-4.857-2.572-8.285l-14-14q-2.857-2.857-6.572-2.857-0.857 0-2.572 0.572-6.572 1.714-12.857 1.714h-237.714q-18.857 0-32.285-13.428t-13.428-32.286v-237.714q0-18.857 13.428-32.286t32.285-13.428h237.714q18.857 0 32.286 13.428t13.428 32.286v72.572q0 3.714 2.572 6.286l18.286 18.286q2.857 2.857 6.572 2.857 1.714 0 3.428-0.857 5.714-2.286 5.714-8.286zM468.286 349.429l-232.571-232.572q-6.857-6.857-16.285-6.857t-16.286 6.857l-122.857 122.857q-6.857 6.857-6.857 16.286t6.857 16.286l31.428 31.428q6.857 6.857 16.285 6.857t16.285-6.857l75.143-75.143 184.857 184.857q6.857 6.857 16.286 6.857t16.286-6.857l31.428-31.429q6.857-6.857 6.857-16.285t-6.857-16.286z" horiz-adv-x="476" />
<glyph unicode="&#xf0b0;" d="M400.857 391.143q4.857-11.714-4-20l-140.857-140.857v-212q0-12-11.143-16.857-3.714-1.428-7.143-1.428-7.714 0-12.857 5.428l-73.143 73.143q-5.428 5.428-5.428 12.857v138.857l-140.857 140.857q-8.857 8.286-4 20 4.857 11.143 16.857 11.143h365.714q12 0 16.857-11.143z" horiz-adv-x="403" />
<glyph unicode="&#xf0c5;" d="M484.572 365.714q11.428 0 19.428-8t8-19.428v-347.428q0-11.428-8-19.428t-19.428-8h-274.286q-11.428 0-19.428 8t-8 19.428v82.286h-155.429q-11.428 0-19.428 8t-8 19.428v192q0 11.428 5.715 25.143t13.714 21.715l116.572 116.572q8 8 21.715 13.714t25.143 5.714h118.857q11.428 0 19.428-8t8-19.428v-93.715q19.428 11.429 36.572 11.429h118.857zM329.143 304.857l-85.428-85.428h85.428v85.428zM146.286 414.572l-85.428-85.428h85.428v85.428zM202.286 229.714l90.286 90.286v118.857h-109.714v-118.857q0-11.428-8-19.428t-19.428-8h-118.857v-182.857h146.286v73.143q0 11.428 5.714 25.143t13.714 21.714zM475.428 0v329.143h-109.714v-118.857q0-11.428-8-19.428t-19.428-8h-118.857v-182.857h256z" />
<glyph unicode="&#xf0c9;" d="M438.857 91.429v-36.572q0-7.428-5.428-12.857t-12.857-5.428h-402.286q-7.428 0-12.857 5.428t-5.428 12.857v36.572q0 7.428 5.428 12.857t12.857 5.428h402.286q7.428 0 12.857-5.428t5.428-12.857zM438.857 237.714v-36.572q0-7.428-5.428-12.857t-12.857-5.428h-402.286q-7.428 0-12.857 5.428t-5.428 12.857v36.572q0 7.428 5.428 12.857t12.857 5.429h402.286q7.428 0 12.857-5.428t5.428-12.857zM438.857 384v-36.572q0-7.428-5.428-12.857t-12.857-5.428h-402.286q-7.428 0-12.857 5.428t-5.428 12.857v36.572q0 7.428 5.428 12.857t12.857 5.428h402.286q7.428 0 12.857-5.428t5.428-12.857z" />
<glyph unicode="&#xf0ce;" d="M146.286 82.286v54.857q0 4-2.571 6.572t-6.571 2.572h-91.428q-4 0-6.572-2.572t-2.572-6.572v-54.857q0-4 2.572-6.572t6.572-2.572h91.428q4 0 6.572 2.572t2.571 6.572zM146.286 192v54.857q0 4-2.571 6.572t-6.571 2.571h-91.428q-4 0-6.572-2.571t-2.572-6.572v-54.857q0-4 2.572-6.572t6.572-2.572h91.428q4 0 6.572 2.572t2.571 6.572zM292.572 82.286v54.857q0 4-2.572 6.572t-6.572 2.572h-91.428q-4 0-6.572-2.572t-2.571-6.572v-54.857q0-4 2.571-6.572t6.572-2.572h91.428q4 0 6.572 2.572t2.572 6.572zM146.286 301.714v54.857q0 4-2.571 6.572t-6.571 2.572h-91.428q-4 0-6.572-2.572t-2.572-6.572v-54.857q0-4 2.572-6.572t6.572-2.572h91.428q4 0 6.572 2.572t2.571 6.572zM292.572 192v54.857q0 4-2.572 6.572t-6.572 2.571h-91.428q-4 0-6.572-2.571t-2.571-6.572v-54.857q0-4 2.571-6.572t6.572-2.572h91.428q4 0 6.572 2.572t2.572 6.572zM438.857 82.286v54.857q0 4-2.572 6.572t-6.572 2.572h-91.428q-4 0-6.572-2.572t-2.572-6.572v-54.857q0-4 2.572-6.572t6.572-2.572h91.428q4 0 6.572 2.572t2.572 6.572zM292.572 301.714v54.857q0 4-2.572 6.572t-6.572 2.572h-91.428q-4 0-6.572-2.572t-2.571-6.572v-54.857q0-4 2.571-6.572t6.572-2.572h91.428q4 0 6.572 2.572t2.572 6.572zM438.857 192v54.857q0 4-2.572 6.572t-6.572 2.571h-91.428q-4 0-6.572-2.571t-2.572-6.572v-54.857q0-4 2.572-6.572t6.572-2.572h91.428q4 0 6.572 2.572t2.572 6.572zM438.857 301.714v54.857q0 4-2.572 6.572t-6.572 2.572h-91.428q-4 0-6.572-2.572t-2.572-6.572v-54.857q0-4 2.572-6.572t6.572-2.572h91.428q4 0 6.572 2.572t2.572 6.572zM475.428 393.143v-310.857q0-18.857-13.428-32.286t-32.286-13.428h-384q-18.857 0-32.285 13.428t-13.428 32.286v310.857q0 18.857 13.428 32.286t32.285 13.428h384q18.857 0 32.286-13.428t13.428-32.286z" horiz-adv-x="476" />
<glyph unicode="&#xf100;" d="M179.143 82.286q0-3.714-2.857-6.572l-14.286-14.286q-2.857-2.857-6.572-2.857t-6.572 2.857l-133.143 133.143q-2.857 2.857-2.857 6.572t2.857 6.572l133.143 133.143q2.857 2.857 6.572 2.857t6.572-2.857l14.286-14.286q2.857-2.857 2.857-6.571t-2.857-6.572l-112.285-112.286 112.285-112.286q2.857-2.857 2.857-6.572zM288.857 82.286q0-3.714-2.857-6.572l-14.286-14.286q-2.857-2.857-6.572-2.857t-6.572 2.857l-133.143 133.143q-2.857 2.857-2.857 6.572t2.857 6.572l133.143 133.143q2.857 2.857 6.572 2.857t6.572-2.857l14.286-14.286q2.857-2.857 2.857-6.571t-2.857-6.572l-112.286-112.286 112.286-112.286q2.857-2.857 2.857-6.572z" horiz-adv-x="293" />
<glyph unicode="&#xf101;" d="M170 201.143q0-3.714-2.857-6.572l-133.143-133.143q-2.857-2.857-6.572-2.857t-6.572 2.857l-14.286 14.286q-2.857 2.857-2.857 6.572t2.857 6.572l112.285 112.286-112.285 112.286q-2.857 2.857-2.857 6.572t2.857 6.572l14.285 14.286q2.857 2.857 6.572 2.857t6.572-2.857l133.143-133.143q2.857-2.857 2.857-6.572zM279.714 201.143q0-3.714-2.857-6.572l-133.143-133.143q-2.857-2.857-6.571-2.857t-6.572 2.857l-14.285 14.286q-2.857 2.857-2.857 6.572t2.857 6.572l112.285 112.286-112.285 112.286q-2.857 2.857-2.857 6.572t2.857 6.572l14.285 14.286q2.857 2.857 6.572 2.857t6.572-2.857l133.143-133.143q2.857-2.857 2.857-6.572z" horiz-adv-x="293" />
<glyph unicode="&#xf104;" d="M179.143 320q0-3.714-2.857-6.571l-112.285-112.286 112.285-112.286q2.857-2.857 2.857-6.572t-2.857-6.572l-14.286-14.286q-2.857-2.857-6.572-2.857t-6.572 2.857l-133.143 133.143q-2.857 2.857-2.857 6.572t2.857 6.572l133.143 133.143q2.857 2.857 6.572 2.857t6.572-2.857l14.286-14.286q2.857-2.857 2.857-6.571z" horiz-adv-x="183" />
<glyph unicode="&#xf105;" d="M170 201.143q0-3.714-2.857-6.572l-133.143-133.143q-2.857-2.857-6.572-2.857t-6.572 2.857l-14.286 14.286q-2.857 2.857-2.857 6.572t2.857 6.572l112.285 112.286-112.285 112.286q-2.857 2.857-2.857 6.572t2.857 6.572l14.285 14.286q2.857 2.857 6.572 2.857t6.572-2.857l133.143-133.143q2.857-2.857 2.857-6.572z" horiz-adv-x="183" />
<glyph unicode="&#xf147;" d="M329.143 246.857v-18.285q0-4-2.572-6.572t-6.572-2.572h-237.714q-4 0-6.572 2.572t-2.572 6.572v18.286q0 4 2.572 6.572t6.572 2.571h237.714q4 0 6.572-2.571t2.572-6.572zM365.714 118.857v237.714q0 18.857-13.428 32.286t-32.286 13.428h-237.714q-18.857 0-32.285-13.428t-13.428-32.286v-237.714q0-18.857 13.428-32.286t32.285-13.428h237.714q18.857 0 32.286 13.428t13.428 32.286zM402.286 356.572v-237.714q0-34-24.143-58.143t-58.143-24.143h-237.714q-34 0-58.143 24.143t-24.143 58.143v237.714q0 34 24.143 58.143t58.143 24.143h237.714q34 0 58.143-24.143t24.143-58.143z" horiz-adv-x="403" />
<glyph unicode="&#xf196;" d="M329.143 246.857v-18.285q0-4-2.572-6.572t-6.572-2.572h-100.572v-100.571q0-4-2.571-6.572t-6.571-2.572h-18.286q-4 0-6.572 2.572t-2.571 6.572v100.572h-100.572q-4 0-6.572 2.571t-2.572 6.572v18.286q0 4 2.572 6.572t6.572 2.571h100.572v100.572q0 4 2.571 6.572t6.572 2.572h18.286q4 0 6.572-2.572t2.571-6.572v-100.572h100.571q4 0 6.572-2.571t2.572-6.572zM365.714 118.857v237.714q0 18.857-13.428 32.286t-32.286 13.428h-237.714q-18.857 0-32.285-13.428t-13.428-32.286v-237.714q0-18.857 13.428-32.286t32.285-13.428h237.714q18.857 0 32.286 13.428t13.428 32.286zM402.286 356.572v-237.714q0-34-24.143-58.143t-58.143-24.143h-237.714q-34 0-58.143 24.143t-24.143 58.143v237.714q0 34 24.143 58.143t58.143 24.143h237.714q34 0 58.143-24.143t24.143-58.143z" horiz-adv-x="403" />
</font>
</defs>
</svg>
