<?xml version="1.0" standalone="no"?>
<!DOCTYPE svg PUBLIC "-//W3C//DTD SVG 1.1//EN" "http://www.w3.org/Graphics/SVG/1.1/DTD/svg11.dtd" >
<svg xmlns="http://www.w3.org/2000/svg">
<metadata></metadata>
<defs>
<font id="after_shokregular" horiz-adv-x="1040" >
<font-face units-per-em="1000" ascent="800" descent="-200" />
<missing-glyph horiz-adv-x="556" />
<glyph horiz-adv-x="1000" />
<glyph horiz-adv-x="1000" />
<glyph unicode="&#xd;" horiz-adv-x="556" />
<glyph unicode=" "  horiz-adv-x="556" />
<glyph unicode="&#x09;" horiz-adv-x="556" />
<glyph unicode="&#xa0;" horiz-adv-x="556" />
<glyph unicode="!" horiz-adv-x="440" d="M379 651q9 -16 9 -29q0 -31 -51 -55t-51 -30q0 -13 57 -31q9 -24 9 -42q0 -31 -32 -48q-6 -3 -65 -22q-42 -13 -57 -33q18 -20 57 -20q9 0 26.5 1.5t25.5 1.5q10 0 18 -1q1 -4 1 -7q0 -7 -19 -30q-22 18 -55 18t-54 -18q-55 119 -55 234q0 62 18 111q-23 20 -29 20 q-3 0 -7 -2q17 19 58 19q8 0 23 -1t22 -1q52 0 61 38l-164 36q28 19 64 19q23 0 67 -10.5t64 -10.5q12 0 23 2zM361 215q-23 -42 -92 -62l-126 -28v54q15 -14 29 -14q12 0 30 12q23 17 32 20l-36 37zM361 52l-66 -24q-46 -16 -82 -16q-17 0 -33 4l36 36l-18 18q9 29 38 29 q30 0 71 -29l18 18z" />
<glyph unicode="#" horiz-adv-x="521" d="M441 706l-75 -30l-15 30h90zM502 525q-3 -7 -17 -27q-10 -15 -10 -25q0 -12 12 -24q2 0 -42 -1q-25 0 -34 17q8 -21 8 -37q0 -28 -29 -41q-27 -9 -55 -19t-28 -31q0 -15 14 -39q16 1 50 13.5t48 12.5q30 0 38 -41q-23 18 -41 18q-16 0 -45 -24.5t-53 -24.5q-6 0 -12 1 q0 -38 15 -45q21 18 30 15q12 -6 15 -20v-25q-9 -3 -30 15q-17 -7 -16 -27q0 -35 1 -34l-46 16q28 18 28 44q0 15 -13 46t-15 45q-5 19 -39 26q-40 9 -51 20q-11 -15 -11 -26t21 -34t20 -46q-10 -2 -19 -2q-40 0 -54 36q-8 34 -17 67q-12 36 -47 36q-6 0 -14 -1l136 30 q-31 5 -40 28q-19 46 -20 48q-10 16 -34 16q-44 -1 -42 -1q-3 10 -3 18q0 17 16 25.5t32 16.5q25 0 50 -1q40 0 56 16q-22 18 -30 15q8 21 8 30q0 10 -8 31q-3 0 48 0q30 1 42 -16l-45 -30q19 0 35.5 -25.5t32.5 -25.5q10 0 23 6q16 13 16 42q-1 51 -1 49l90 -16 q-5 -3 -31 -33q-18 -23 -44 -27q19 -15 58 -15h17.5h16.5q40 0 59 -15zM306 374q-10 22 -19.5 43t-31.5 21q-10 0 -25 -4q17 -8 17 -30t-17 -30q19 11 38 11q18 0 38 -11z" />
<glyph unicode="$" horiz-adv-x="610" d="M510 541q-2 -17 -29 -16q-48 0 -46 1v30q57 -18 75 -15zM585 179q-8 1 -15 1q-27 0 -35 -37q-9 -45 -25 -55q-49 -23 -130 -29q-23 -1 -127 -1q-5 -2 -10 -2q-20 0 -46 23t-34 24q-2 0 42 1q24 0 33 -16q9 16 34 16q44 -1 42 -1q12 -24 40 -29q25 0 50 -1l61 60 q-45 2 -66 8q-42 10 -55 38q-8 -3 -35 -20q-22 -13 -38 -13q-9 0 -18 2q0 21 -19 32q-22 12 -26 29q-24 -15 -56 -15q-65 0 -110 45v30q34 14 68 14q98 0 158 -89q17 18 17 56q-1 68 -1 64q-20 19 -58 29q-32 8 -63 17q3 8 -15 30q-55 20 -91 90q33 10 66 19q45 12 78 12 q39 0 67 -15q17 12 17 41q-1 51 -1 49q-6 13 -20 15h-26q0 -61 -38 -61q-17 0 -65 18q-44 17 -63 13h-15q8 26 22 38q7 6 39 22l-16 15q56 25 111 49q69 38 86 87h60v-25q-2 -14 -15 -20l30 -30q20 17 41 17q23 0 56 -25q43 -33 54 -37q15 -4 15 -36v-7.5v-8.5q0 -42 27 -42 q8 0 18 3l-15 -45l-60 90q-18 -21 -15 -30q-17 4 -43 4q-57 0 -93 -19q-3 -16 -3 -31q0 -74 63 -105q11 3 20 3q20 0 45 -13q33 -18 41 -20q-16 -19 -16 -24q0 -22 26 -22q40 0 35 1q2 -10 2 -21q0 -30 -12 -50q-13 -23 -35 -20q3 9 -15 30q-15 -7 -15 -45q11 -15 45 -15.5 t45 -14.5v-45zM344 -18h-30q8 47 30 46v-46zM510 646l-15 -15q-18 -2 -76 15v-30zM404 179v15q15 13 15 32t-13.5 36.5t-31.5 21.5v-105h30z" />
<glyph unicode="%" horiz-adv-x="1011" d="M696 771q-22 -33 -59 -33q-8 0 -16 3q28 31 63 31q6 0 12 -1zM319 741l-45 15h45v-15zM923 197q-12 -15 -43 -15q-6 0 -17 1h-17q-40 0 -44 -31l-30 30q-2 -10 -16.5 -31.5t-14.5 -33.5q0 -14 16 -25q-58 -18 -76 -15q-18 21 -15 30q9 3 30 -15l16 15q-5 45 -69 45 q-9 0 -26 -1h-25q-42 0 -42 25q0 13 11 36q-22 18 -31 16v30q9 -3 31 15q-22 18 -31 15v15h31q-3 -9 15 -30q20 0 31.5 21t28.5 24q-1 21 -17.5 33.5t-36.5 12.5q-23 0 -37 -16q-2 9 16 30q7 3 16 3q36 0 59 -33q7 -14 18 -14q6 0 20.5 7.5t21.5 6.5q-22 -3 -31.5 -46 t-43.5 -44q20 -6 64 -35q38 -26 61 -26q28 0 56 31q-2 4 -2 13q0 6 2 26t2 31q0 46 -32 50h-45q2 9 -15 30h-46v26q-2 14 -15 20h-15q-2 8 -2 13q0 10 13.5 15.5t18.5 16.5q18 -15 46 -15q27 0 45 15q-1 2 -1 -34q0 -20 16 -26q15 16 49 16q59 -1 57 -1q6 -29 36 -85 q26 -48 26 -80q0 -29 -17 -62zM878 122q-8 -15 -46 -15v45q47 -8 46 -30zM621 590l-60 -61q12 -5 14 -19q1 -2 1 -26q-3 -3 -30 -18q-20 -11 -20 -26q0 -7 4 -16q-8 3 -30 -15l15 -15q-6 -8 -35 -16t-40 -17q-19 -14 -15 -43q-3 -9 15 -30q21 18 30 15q5 -29 -22 -42 l-54 -14q-30 -9 -30 -27q0 -15 15 -38q18 22 16 30h15q2 -7 2 -13q0 -17 -24 -29q-19 -9 -39 -18l-15 15q-18 -21 -15 -30h-15q-6 14 -6 25q0 21 27 37q34 20 39 29l15 15q-21 18 -30 15q35 34 77 122q47 99 73 133q50 65 122 77zM440 620l-45 -45q21 -18 30 -15 q3 -9 -15 -31q16 -6 16 -26q-1 -36 -1 -34q-11 -29 -59 -42q-44 -12 -47 -49q4 1 -71 1q-43 1 -65 -16q-21 18 -30 15l30 31q-21 18 -30 15q8 5 36 38q21 26 47 26q10 0 23 -4q15 -60 75 -75q18 21 15 30q-30 4 -40 28q-19 46 -20 47q22 18 22 40q0 29 -35 64q-27 27 -63 47 q-19 -21 -35.5 -66t-29.5 -60q-23 -25 -70 -25q-12 -4 -19 -4q-14 0 -14 27q-1 31 -13 38q16 4 42 29q21 19 49 16l15 -15q18 21 15 30q-9 16 -34 16q-43 0 -41 -1q11 6 12 38q0 27 14 27q8 0 19 -4q-3 -9 15 -31l45 31q-3 -9 15 -31q11 5 17 21q6 12 15 12q5 0 14 -2h60 q-3 -9 15 -31q26 9 46 9q58 0 60 -69h15zM878 333l-31 45q12 -6 12 -23q0 -8 -2.5 -19.5t-2.5 -12.5v0q2 1 8 10h16zM138 575q-10 15 -24 15q-12 0 -30 -14q-21 -16 -22 -16q9 16 19 16q7 0 19.5 -9t18.5 -9q10 0 19 17z" />
<glyph unicode="&#x26;" horiz-adv-x="888" d="M830 85q-11 -4 -22 -4q-14 0 -35 7t-31 7q-16 0 -33 -10q3 8 -15 30q2 0 -34 1q-20 0 -26 -16v-15h-15q-3 8 15 30q-7 15 -18 15q-6 0 -20.5 -8t-22.5 -7q-63 31 -152 31q-63 0 -119 -16q21 -17 64 -16q75 0 71 1v-30q2 -1 -33 -1q-21 -1 -27 16q-11 -23 -30 -16l-30 16 q-14 3 -15 -31l-31 31q-18 -22 -15 -31h-30l45 46q-12 16 -42 16q-51 -1 -48 -1q3 8 -15 30q-10 -4 -17 -4q-13 0 -19 19q-7 27 -10 30v31q9 -3 31 15q-29 11 -29 29q0 12 21 38.5t23 37.5q10 -1 20 23.5t18 24.5q9 0 22 -18q19 29 19 62q0 10 -3 37q-2 23 -1 37h-30v76 q-2 -1 34 -1q20 0 26 16v30h76q-3 -9 15 -30q9 -3 30 15v30h15v-45q-8 3 -30 -15q-2 -10 -2 -20q0 -21 11 -45q11 -20 21 -41q9 -1 16 -1q39 0 60 31q9 -28 22 -28q9 0 34 22.5t40 22.5q5 0 9 -2q-14 31 -67.5 32t-68.5 29l76 30q5 33 -18 49q-11 7 -49 19q-31 9 -39 23 l136 -16q-3 -8 15 -30q10 4 17 4q13 0 18 -19q8 -27 11 -30h-26q-14 -2 -18.5 -13.5t-4.5 -18.5q0 -21 32 -26q39 -6 47 -17v-31q-19 -12 -30 -49q-15 -51 -21 -62q-18 -32 -55 -40q-27 -5 -56 -11t-50 -19q30 -27 113.5 -28t113.5 -32q12 6 15 20v25q17 -17 29 -17t28 26 q18 30 33 36h-15v15h15q3 -9 3 -17q0 -44 -48 -58l30 -45q-30 0 -30 -31v-9.5v-9.5q0 -35 -30 -41q17 -17 74 -42q48 -21 62 -48zM437 266q-16 -1 -33 16q-13 15 -27 29q-7 -14 -31 -28q-18 -12 -18 -27q0 -9 4 -20q8 -15 29 -25q24 -13 31 -21q-3 23 23.5 33.5t26.5 24.5 q0 7 -5 18z" />
<glyph unicode="'" horiz-adv-x="375" d="M233 794l-54 18h54v-18zM270 758q-1 -9 -1 -21q0 -9 1 -29t1 -30q0 -44 -19 -66q18 -11 18 -31q0 -12 -7 -31q-6 -14 -11 -29q-108 66 -146 146q8 -3 15 -3q16 0 30.5 13t27.5 26l-91 73h55q-2 -4 -2 -7q0 -6 20 -29q15 19 48 19q8 0 23 -1t23 -1t15 1zM179 449l-91 18 l55 91q26 2 36 -55l-18 -18q19 -23 19 -29q0 -4 -1 -7z" />
<glyph unicode="(" horiz-adv-x="333" d="M278 60q-10 -29 -28 -29q-11 0 -39.5 16t-45.5 16q-8 0 -15 -3l43 28q-17 25 -65 33q-42 7 -49 39l28 -29q12 6 14 19v24q-5 24 -41 26q-32 2 -30 31l14 14q-15 6 -15 25q1 34 1 32h57q-3 -8 14 -28q9 -3 29 14q0 -2 1 31q0 20 -15 26h-29l14 42l-71 29l57 28 q-7 6 -17 36q-7 25 -23 25q-7 0 -17 -4q5 15 11 31t18 26q-15 7 -15 43q6 12 19 14h24q6 -11 15 -11q8 0 22 10q20 15 20 16q-7 2 -25 15q-14 10 -24 10q-11 0 -22 -11l14 71q32 -43 68 -43q18 0 32 14l14 15q-5 12 -19 14h-24q3 8 -14 28h-43l15 29q15 -38 37 -38 q11 0 39 14t45 14q11 0 21 -4q1 -33 -15 -74q-14 -34 -28 -69l15 -14l-23 -50q-15 -21 -49 -21q-15 -19 -15 -23q0 -19 23 -20h35v-43q-8 3 -28 -14q31 -20 31 -67q0 -37 -17 -75q-8 3 -29 -14l44 -42q26 -25 28 -58l-72 -43q10 -14 26 -14q2 0 46 14q3 -12 -8 -22.5 t-21 -20.5z" />
<glyph unicode=")" horiz-adv-x="322" d="M282 392h-43v24q-2 14 -14 19q-8 3 -28 -14q-2 -9 -2 -16q0 -24 37.5 -34t37.5 -34q0 -7 -2 -16l-100 -28q15 -16 47 -15q56 0 53 1v-43q-27 -13 -63 -23q-48 -14 -65 -20q11 -14 38 -14h12h11q27 0 38 -14q-1 -11 -36 -15.5t-35 -17.5q0 -9 15 -24q5 12 18 14h24 q-21 -31 -56 -31q-8 0 -15 2q-9 24 -34 41t-51 16q7 13 19 51q10 33 23 49q-14 7 -14 43l86 57l-72 42q35 44 86 57q-6 12 -19 14q-1 1 -24 1l43 42q-8 3 -39 19q-24 12 -42 12q-9 0 -19 -2q0 -2 -1 32q0 19 15 25q-2 10 -16 12t-14 8q0 3 2 8v57q9 -2 18 -2q20 0 43 11 q19 10 39 20l-29 28l71 -14l-14 -71l-28 28q-12 -10 -29 -57q10 -2 46 -18q27 -13 47 -13q10 0 21 3q0 2 -1 -40q0 -23 15 -31l-43 -29q4 -20 26 -39.5t22 -36.5q0 -10 -5 -24zM211 65q-18 -2 -44.5 -31t-45.5 -29q-17 0 -38 17q7 30 47 30q6 0 18 -1h17q32 0 46 14z" />
<glyph unicode="*" horiz-adv-x="565" d="M493 624q-19 -21 -68.5 -36.5t-67.5 -38.5l91 -60q-33 -23 -33 -60q0 -8 2 -16q-9 -7 -19 -7q-21 0 -57.5 40t-48.5 40q-17 0 -26 -43q-25 -30 -62 -30q-24 0 -43 15q44 5 44 24q0 9 -13 31.5t-13 34.5q0 19 27 31q-11 10 -67 35q-42 18 -42 42q0 18 18 44q16 5 33 5 q23 0 61.5 -14t56.5 -14q16 0 31 8q93 -18 120 -15q5 5 18 32q8 16 24 16q8 0 19 -3l-30 -30zM236 594v15h-60z" />
<glyph unicode="," horiz-adv-x="375" d="M298 29q-13 -30 -72.5 -78t-72.5 -86q-6 1 -13 1q-6 0 -19.5 -1t-19.5 -1q-28 0 -39 19v73q17 9 40 9q17 0 47.5 -6t42.5 -6q36 0 36 46q0 13 -2 30q-34 7 -68 13q-38 7 -78 5q-14 19 -17 51q-1 9 -1 58q20 -14 41 -14q32 0 50 32q-9 18 -40 18h-8h-7q-39 0 -36 37 q25 37 71 37q10 0 20 -1q13 -5 23 -35q9 -24 32 -20q18 6 18 32q0 5 -1 14.5t-1 13.5q0 20 14 20q9 0 24 -7q-2 -12 -19.5 -38t-17.5 -40q0 -17 19 -31q23 19 29 19q4 0 6 -2t2 -6q0 -6 -19 -29q23 -19 30 -19q3 0 6 1v-55q-3 1 -7 1q-12 0 -25 -14q-19 -21 -22 -23 q7 -14 24 -17q5 -1 30 -1z" />
<glyph unicode="." horiz-adv-x="352" d="M311 235q-4 1 -7 1q-6 0 -29 -20q2 -17 16 -34t14 -24q0 -13 -30 -32q-9 -6 -18 -6q-11 0 -27.5 12.5t-23.5 12.5q-11 0 -22 -19v-37h-36q1 4 1 7q0 6 -20 30q-23 -20 -29 -20q-3 0 -7 1q15 20 15 41q0 31 -33 50q8 29 60 43q58 17 67 30q-1 -4 -1 -7q0 -6 19 -29l91 36 v-36zM311 53h-59q-34 2 -32 36h91v-36zM166 235q1 -5 1 -9q0 -15 -19.5 -25t-19.5 -16q0 -8 20 -23q-3 7 -3 14q0 11 11 29t10 30z" />
<glyph unicode="0" horiz-adv-x="930" d="M807 298q-20 -120 -90 -200q-22 -2 -45 -2q-85 0 -232 35q-153 37 -232 39q15 11 18 55q2 36 37 36q-8 15 -24 18h-31q-19 -23 -19 -29q0 -3 1 -7h-36l-19 182q9 -4 18 -4q13 0 35.5 13t36.5 13q9 0 19 -4q2 -4 2 -7q0 -6 -20 -29q2 -33 36 -49q31 -12 61 -24 q32 -18 30 -55q-3 2 -7 2q-6 0 -29 -20l36 -54q20 23 20 29q0 3 -2 7q31 -24 61 -48q36 -26 66 -26q27 0 55 20l18 18q-3 15 -3 41q0 13 3 69q2 46 0 71q-3 56 61 56q8 0 23.5 -1t21.5 -1q33 0 33 19q0 13 -12 36q-11 5 -22 5q-15 0 -39 -10.5t-35 -10.5q-17 0 -31 16l55 55 q-7 15 -24 18h-31l109 36q-7 20 -31 20q-5 0 -15.5 -1.5t-15.5 -1.5q-6 0 -10 1q-5 38 -53 38q-6 0 -20 -1h-21q-37 0 -52 18q-4 -72 -61 -98q-56 -15 -111 -29q-65 -20 -82 -73q-4 1 -10 1q-5 0 -16 -1t-16 -1q-23 0 -31 19q13 53 63 101q41 41 83 81q-7 15 -24 18h-31 q37 45 103 75q63 29 133 34q27 -38 92 -38q9 0 27 1t27 1q48 0 72 -18q0 -11 -30 -23t-30 -29q0 -9 6 -21q9 -19 22 -19t31 18.5t19 18.5q1 -4 1 -10q0 -5 -1 -15.5t-1 -16.5q0 -23 20 -31l54 19q2 -20 20 -66q17 -42 17 -65q0 -28 -19 -51q-19 -6 -38 -13q-22 -8 -34 -23 q10 -20 39 -20q6 0 19 1.5t19 1.5q8 0 13 -1v-73q-12 -8 -28 -8q-18 0 -50.5 13t-42.5 13q-26 0 -24 -54q0 -1 26 -20q17 -13 28 -13q12 0 19 14v19h72zM335 497q1 -3 1 -7q0 -6 -19 -29l-18 54q3 2 7 2q6 0 29 -20zM589 43l-72 18h72v-18zM480 7h-54q1 3 1 7q0 6 -19 29 h-37q5 19 35 19q4 0 14 -1h14q35 0 46 19q2 -4 2 -7q0 -7 -20 -30q20 -23 20 -29q0 -4 -2 -7z" />
<glyph unicode="1" horiz-adv-x="680" d="M546 42h-72q-5 38 -52 38q-11 0 -34.5 -2.5t-34.5 -2.5q-13 0 -23 3q-14 33 -14 60q0 71 86 84q4 1 7 1q6 0 29 -19q22 18 22 28q0 9 -29.5 21.5t-29.5 31.5q0 4 1 9q-12 -19 -25 -19q-12 0 -32 17q-23 18 -33 20q20 12 20 27q0 9 -11 27t-11 28q0 14 20 26 q-15 19 -48 19q-8 0 -23 -1t-22 -1q-8 0 -15 1q1 4 1 7q0 6 -19 29q-19 -23 -19 -29q0 -3 1 -7q-12 22 -24 43q-15 32 -15 59q0 12 3 24q4 1 7 1q12 0 25 -14q19 -20 22 -23q-3 15 -3 27q0 47 58 47q10 0 28.5 -1.5t25.5 -1.5q36 0 36 22q0 18 -19 52q-1 4 -1 9 q0 19 29.5 31.5t29.5 20.5q0 11 -22 29q8 -1 18 -1q8 0 25.5 1t25.5 1q39 0 57 -19q7 15 24 18h30l-54 -36q20 -10 20 -23q0 -7 -10.5 -22.5t-10.5 -22.5q0 -12 19 -22q23 19 30 19q3 0 6 -1q2 -35 -18 -46q-8 -5 -44 -9q-31 -3 -46 -18q15 -14 46 -17q36 -5 44 -9 q20 -11 18 -46q-17 -20 -17 -41q0 -14 11 -44.5t11 -48.5q0 -14 -5 -28q-10 3 -20 3q-20 0 -45 -15q-34 -21 -43 -24q36 -14 71 -28q37 -20 37 -62q0 -1 -18 -19t-18 -31t18 -22h18q3 -7 3 -15q0 -12 -9.5 -33t-9.5 -31q0 -16 16 -29zM420 24q-2 -20 -33 -20q-7 0 -21.5 1 t-21.5 1q-8 0 -14 -1l-18 19q19 20 54 20t54 -20z" />
<glyph unicode="2" horiz-adv-x="856" d="M763 130q-14 -8 -45 -79q-26 -62 -60 -62q-17 0 -40 15q-125 -22 -220 -22q-129 0 -194 40q-6 1 -13 1t-20 -1t-19 -1q-28 0 -39 19l73 36q-27 28 -27 48q0 18 27 60q3 2 21 23q13 14 25 14q4 0 8 -1q10 -2 23 -2q25 0 87.5 12t98.5 12q22 0 43 -4q2 -11 2 60 q0 48 -20 66q-19 -23 -19 -29q0 -3 1 -7h-36q11 29 65 84q50 50 61 97q-14 7 -17 23q-1 5 -1 31l18 18l-36 36q-20 -26 -74 -36q-47 -9 -93 -18q-50 -16 -67 -54l54 -55q-25 -20 -84 -20q-60 0 -97 20l109 55q-23 19 -30 19q-3 0 -6 -1v54q4 1 10 1q5 0 15.5 -1t15.5 -1 q23 0 31 19l-36 36q-8 -19 -31 -19q-5 0 -15.5 1t-15.5 1q-6 0 -10 -1q37 -6 45 27q5 32 10 63q10 36 53 36h324q2 -31 35 -46q28 -13 55 -26l-90 -54q13 -37 73 -37h12.5h12.5q53 0 53 -36q0 -14 -6 -35q6 -18 6 -33q0 -32 -33 -51q-14 -9 -64 -25q21 -20 21 -36 q0 -18 -32 -38q-37 -22 -43 -34q-40 -2 -80.5 -45t-81.5 -45v-18q32 -19 91 -19q13 0 40 1t40 1q15 0 27 -1q2 -9 -7.5 -26.5t-9.5 -24.5q0 -13 17 -21q26 0 31 1q16 3 23 17l-18 54h73v-36zM456 635q3 7 3 14q0 10 -11.5 28t-9.5 30q-10 -19 -10 -32q0 -19 28 -40z" />
<glyph unicode="3" horiz-adv-x="840" d="M401 631q-18 -19 -36 -37q-28 -27 -54 -27q-13 0 -25 6q-13 34 -42 34q-16 0 -32.5 -11t-22.5 -23v77q35 -21 98 -21q14 0 42.5 1.5t42.5 1.5q16 0 29 -1zM786 207q-119 -38 -119 -100q0 -26 23 -54q3 -19 -10.5 -29.5t-33.5 -10.5q-7 0 -14 1q-53 35 -103 35 q-33 0 -99.5 -22.5t-110.5 -22.5q-35 0 -72 10q1 4 1 8q0 6 -20 31q-8 -15 -25 -18q-6 -1 -33 -1q-1 5 -1 10q0 28 59.5 53.5t59.5 30.5q0 10 -79 21l-116 -19q-1 9 -11 44q-9 32 -9 49q0 38 39 42q14 -3 60 0q40 3 56 -5q24 -12 19 -53l19 -19q21 24 21 31q0 3 -1 7 q12 6 21 6q17 0 24 -25q9 -34 12 -38q-4 -2 -10 -2t-17 1.5t-17 1.5q-25 0 -33 -21q25 -21 68 -21t67 21q-1 -4 -1 -7q0 -7 20 -31q80 84 154 96q-25 21 -50 43q-33 32 -33 63q0 14 6 29l20 19q-60 6 -60 89q0 13 2 27q62 5 58 96q-4 2 -24 24q-13 15 -26 15q-4 0 -8 -1 q-1 4 -1 8q0 6 20 31q-29 21 -92 34q-81 17 -97 24q-48 18 -61 57h88q57 2 66 39q1 -4 1 -8q0 -6 -20 -31q32 -13 63.5 -25.5t55.5 -12.5q32 0 73 19l174 -77q-11 -15 -19.5 -41t-15.5 -35q-13 -16 -43 -20q-24 20 -31 20q-3 0 -7 -1l-19 -19l38 -39q-6 -13 -28 -39 q-17 -19 -17 -32q0 -18 26 -44h77v-39q-5 -1 -11 -1q-5 0 -16.5 1.5t-16.5 1.5q-25 0 -33 -21l19 -58q-8 3 -16 3q-16 0 -31.5 -14t-29.5 -27q31 -26 76 -26q15 0 42.5 3.5t40.5 3.5q47 0 72 -39zM420 438l-19 -58l-19 58h38zM151 592q-10 -60 -39 -58q10 60 39 58zM594 631 q-21 24 -21 31q0 3 1 7h-19v-19h19q-10 -20 -24 -20q-13 0 -32 19.5t-21 19.5l39 -58q27 0 32 1q18 4 26 19z" />
<glyph unicode="4" horiz-adv-x="776" d="M717 239q-44 0 -88 -1q-48 -6 -75 -35q-1 -3 -1 -7q0 -6 19 -29h36l-36 -91q-12 18 -24 35q-20 25 -43 25q-11 0 -24 -6l-18 -18q19 -23 19 -29q0 -3 -1 -7q-4 17 -48.5 40.5t-44.5 53.5q0 7 2 15q4 -1 7 -1q6 0 30 19q-7 15 -24 18h-31q-19 -23 -19 -29q0 -3 1 -7 q-27 39 -71 39q-10 0 -20 -3q-19 -23 -19 -29q0 -3 1 -7h-54q1 4 1 7q0 6 -20 29l-54 -36l-36 54l54 37l-91 72q20 14 33 52q15 46 22 55q17 25 54 21v18q4 1 8 1q12 0 25 -15q18 -20 22 -23q9 11 9 32q0 7 -1.5 23.5t-1.5 24.5q0 44 48 48l-18 18q21 145 224 145 q70 0 139 -18q-1 -15 -1 -32q0 -16 1 -47.5t1 -46.5q0 -71 -19 -110q-6 1 -13 1q-6 0 -19 -1t-20 -1q-28 0 -39 19l-36 -36q21 -20 65 -20q10 0 30 1t30 1q11 0 20 -1l-36 -36q17 -24 57 -57q45 -36 59 -52q28 -33 29 -73zM463 22l-73 18h73v-18zM372 367v181l-109 -181h109 zM263 294h-91q11 -19 23 -19q7 0 23.5 12.5t27.5 12.5q8 0 17 -6z" />
<glyph unicode="5" horiz-adv-x="766" d="M712 299l-55 -55q23 -19 30 -19q3 0 7 1l-19 -109l-36 36q-12 -15 -28 -15q-10 0 -32 8t-33 8q-20 0 -34 -19q0 -16 -19.5 -18t-38.5 -4q-19 -6 -15 -32q11 -20 39 -20q7 0 20 1.5t19 1.5q7 0 13 -1q-33 -20 -80 -20q-33 0 -101 12.5t-99 12.5q-26 0 -47 -5v-19l-73 73 q-19 -23 -19 -29q0 -4 1 -7l-54 36l109 36q-18 20 -58 20q-8 0 -25.5 -1t-26.5 -1q-10 0 -17 1l199 18q-3 -18 10 -28t32 -10q7 0 13 1h54q0 -25 1 -30q3 -17 18 -24q5 1 13 1q6 0 19 -1t19 -1q29 0 39 19q-38 15 -38 30q0 9 29.5 34.5t29.5 48.5q0 7 -2 14l18 18 q-33 95 -105 91l-138 -36q-87 -20 -139 36q-23 -19 -29 -19q-3 0 -7 1q6 32 60 43t67 48q-15 19 -48 19q-8 0 -23 -1t-23 -1t-15 1v36q26 0 31 1q17 3 24 17q-32 16 -36 65q0 40 -1 81l56 26q33 16 35 46h309q2 39 44 39q10 0 31.5 -2.5t31.5 -2.5q12 0 20 3q5 -12 5 -20 q0 -16 -23 -23q-32 -9 -36 -12q-4 1 -7 1q-7 0 -30 -19q15 -10 39.5 -17.5t33.5 -15.5q14 -12 18 -40v-36h-182q15 15 15 29q0 12 -13 30q-16 23 -20 32q-5 -31 -32 -53q-35 -29 -40 -38q-5 -1 -11 -1q-5 0 -15.5 1t-15.5 1q-24 0 -31 -19q1 -4 1 -10q0 -5 -1 -16t-1 -16 q0 -23 19 -31q38 10 64 10q25 0 63 -10q0 -25 1 -30q3 -17 17 -24q5 1 11 1q5 0 15.5 -1t15.5 -1q24 0 31 19l-36 54q7 -49 68 -68q52 -16 105 -32q52 -28 45 -99zM439 -28l-54 18h54v-18zM530 644q-18 8 -18 21q0 7 9.5 24.5t8.5 26.5q4 -28 -23 -34q-8 -2 -50 -2l55 -54z " />
<glyph unicode="6" horiz-adv-x="827" d="M751 282q-20 -18 -20 -40q0 -14 11 -42t11 -42q0 -22 -20 -40q-43 -37 -111 -37q-8 0 -26 1h-26q-67 0 -110 -36q6 1 6 3q0 3 -44 3q-61 0 -121 -6q-71 -7 -71 -18q0 -9 49 -19q-2 4 -2 7q0 6 20 30l-55 54q-19 -23 -19 -29q0 -4 1 -7q-20 -7 -34 -7q-30 0 -39 34 q-5 31 -11 63q-10 34 -43 37l-18 109h36q-1 -4 -1 -7q0 -6 19 -29q7 15 46 20q31 4 27 34q-8 19 -31 19q-5 0 -15.5 -1t-15.5 -1q-6 0 -11 1l73 37q-25 12 -49 25q-29 13 -55 13q-11 0 -23 -2v54q15 -2 29 -2q71 0 116 57q-23 19 -29 19q-4 0 -7 -1q6 19 13.5 39.5 t22.5 33.5l-54 72q17 22 54 22q19 0 56 -8t49 -8q25 0 25 22q0 20 -21 63q20 -3 81 0q54 3 81 -4q41 -11 56 -50q24 21 41 21q15 0 40.5 -29.5t51.5 -29.5q6 0 12 1l-36 -36q13 -15 33.5 -22.5t39.5 -13.5q3 -12 3 -19q0 -19 -25 -19q-5 0 -16 1h-16q-30 0 -37 -18 q-99 0 -200 55q-19 7 -34 7q-31 0 -54 -36q-20 -31 -39 -62l18 -18l-18 -18q8 -18 21 -18q7 0 24.5 9.5t27.5 8.5l72 -73l37 36q-3 4 -23 22q-15 13 -15 25q0 4 1 8l109 -18l-54 -37q30 -17 102 -18q54 -1 79 -36q0 -26 1 -31q3 -17 18 -24h18q1 -3 1 -7q0 -6 -19 -29 q23 -19 29 -19q3 0 7 1zM551 118v19q-56 12 -56 85q0 10 1 31t1 32q0 47 -19 69q1 -38 -36 -38q-8 0 -27 2.5t-28 2.5q-10 0 -18 -3q3 -11 3 -21q0 -54 -76 -54q-10 0 -28 1t-25 1q-22 0 -22 -8q0 -4 3 -10q11 20 41 19q51 0 50 -1q39 8 39 -43q0 -21 -6 -41v0q1 2 3 12h18 q20 -23 20 -30q0 -3 -1 -6l18 18h83q53 -2 62 -37z" />
<glyph unicode="7" horiz-adv-x="776" d="M698 730l-72 18h72v-18zM571 730q-41 0 -48 2q-27 6 -24 34q8 3 16 3q28 0 56 -39zM353 766q-5 -19 -42 -19q-8 0 -25.5 1t-25.5 1q-9 0 -16 -1v36zM717 621q-102 -106 -164 -145q-18 -23 -18.5 -82.5t-17.5 -81.5h-55v31q-3 17 -18 24q-19 -11 -19 -40q0 -6 1 -19t1 -19 q0 -8 -1 -13l18 -18q7 15 24 17q1 1 31 1q-13 -42 -26 -83q-16 -49 -47 -63h-73l37 37q-15 19 -49 19q-7 0 -22.5 -1t-22.5 -1q-9 0 -15 1q-5 11 -5 19q0 18 29.5 30t29.5 24q5 1 10 1t16 -1.5t16 -1.5q23 0 31 20q-42 0 -63 37l-28 72q38 16 93 21q61 6 89 15 q-24 19 -30 19q-3 0 -7 -1l73 55q-9 9 -38 24q-25 13 -35 30q-23 -19 -29 -19q-3 0 -5.5 2.5t-2.5 5.5q0 12 14 25q21 19 23 22q-29 20 -91 20q-14 0 -38.5 -1t-33.5 -1q-11 0 -18 1l-73 72q-17 -16 -35 -33q-21 -20 -19 -39q-4 9 -39.5 35t-35.5 46q0 5 2 9q18 20 57 20 q9 0 26.5 -1t25.5 -1q10 0 18 1q0 -26 1 -31q3 -17 17 -24q10 39 62 39q12 0 38 -2.5t38 -2.5q15 0 26 2q-2 -3 -2 -6q0 -7 20 -30q38 40 133 40q73 0 157 -22l-54 -54q8 -18 21 -18q7 0 24.5 9.5t27.5 8.5zM372 94q1 -4 1 -7q0 -12 -15 -25q-21 -19 -23 -22h-72q9 11 49 25 q44 17 60 29z" />
<glyph unicode="8" horiz-adv-x="819" d="M763 225q1 -59 -59 -81q-52 -14 -105 -28q8 -19 31 -19q6 0 16.5 1t15.5 1q6 0 10 -1l-73 -73l-72 55q-25 -38 -71 -38q-10 0 -20 2l-18 18q-14 -7 -17 -24q-1 -5 -1 -31q-189 0 -291 146l55 54q-8 19 -31 19q-6 0 -16.5 -1t-15.5 -1q-6 0 -10 1v37q4 1 10 1 q5 0 15.5 -1.5t16.5 -1.5q23 0 31 20q-20 7 -20 31q0 5 1 15.5t1 15.5q0 6 -1 10h128q-8 -18 -8 -35q0 -40 54 -87q70 -60 81 -77q38 14 76 29q43 22 51 61l-18 91q4 1 10 1q5 0 15.5 -1t15.5 -1q24 0 31 19q-23 21 -63 21q-41 0 -64 -21q1 4 1 7q0 6 -19 30 q-25 -13 -49 -26q-29 -13 -55 -13q-11 0 -23 2q1 11 30.5 22.5t29.5 29.5q0 9 -6 21l-18 18l-18 -18q-14 42 -74 55q-50 9 -99 18q-49 17 -45 72q59 5 55 91q34 7 73.5 27.5t71.5 27.5q-15 19 -49 19q-7 0 -22.5 -1t-22.5 -1q-8 0 -15 1q20 58 100 58q19 0 58 -3.5t58 -3.5 q22 0 38 3q0 -25 1 -30q3 -17 17 -24q17 47 59 47q20 0 62.5 -14t60.5 -15l73 -109l-91 -36q11 -20 39 -20q6 0 19 1t20 1t13 -1l-37 -36q7 -16 7 -31q0 -23 -22 -54q-32 -46 -39 -60q53 2 78 -40q9 -14 31 -87q-6 -13 -35 -23q-24 -9 -20 -32q9 -18 21 -18q8 0 25.5 10 t26.5 8zM509 498q-20 7 -19 32q1 40 0 40q-18 72 -90 91q-6 -56 -85 -56q-12 0 -24 2q13 3 22 3q28 0 33 -28q1 -26 3 -52q4 -30 32 -32q25 -3 91 18q20 -23 20 -30q0 -3 -2 -7z" />
<glyph unicode="9" horiz-adv-x="863" d="M788 400q3 -18 3 -35q0 -85 -57 -146q-11 1 -20 1q-46 0 -71 -38q3 -3 36 -22q23 -13 23 -30q0 -9 -5 -20q-37 -26 -74 -51q-46 -27 -79 -27q-15 0 -28 5l-18 -18l-37 36q-7 -19 -31 -19q-5 0 -15.5 1t-15.5 1q-6 0 -10 -1l-19 18q-10 -19 -22 -19q-8 0 -23 10.5 t-23 10.5q-12 0 -22 -20l-18 55q19 -7 38 -13q22 -9 34 -24q25 19 25 42q0 8 -3.5 23t-3.5 23q0 21 18 39l37 -54q37 15 84 66q59 64 79 79q-23 20 -29 20q-3 0 -7 -2l18 19q-20 0 -81.5 -9t-97.5 -9q-55 0 -93 18v36q3 -1 7 -1q6 0 29 19q-17 19 -37 19q-12 0 -39 -12.5 t-44 -12.5q-13 0 -25 6q-2 24 -29.5 60.5t-27.5 56.5q0 22 20 46q-19 24 -19 30q0 3 1 7h37q-2 -4 -2 -7q0 -6 20 -30q19 8 19 31q0 6 -1 16.5t-1 15.5q0 6 1 10q-21 5 -38 26t-17 44t19 39q16 37 62 37q21 0 63.5 -9.5t57.5 -9.5q36 0 36 37q0 8 -2 18h-54v36h218 q-1 -3 -1 -7q0 -6 19 -29h55v-18h-73q1 3 1 7q0 6 -19 29q-3 -17 -57 -40t-54 -42t38 -45h55q-3 -8 -3 -15q0 -16 13 -30.5t26 -27.5q30 19 66 19q30 0 85 -17q59 -18 85 -20l-36 -36q7 -14 24 -18q4 -1 30 -1v-54q-3 1 -7 1q-6 0 -29 -19q6 -13 23 -20t17 -18q0 -7 -4 -17z M334 237q3 -8 3 -15q0 -16 -13 -30.5t-26 -27.5q-4 -1 -7 -1q-6 0 -29 19q-12 -18 -32 -18q-12 0 -31 7q-14 6 -28 11q-3 8 -3 15q0 24 35 31q29 5 59 9q-2 -4 -2 -7q0 -6 20 -29q3 2 22 23q13 14 25 14q3 0 7 -1zM570 527h-36q1 11 1 20q0 52 -41 72q-25 13 -90 18.5 t-88 17.5q54 0 55 -31q-1 6 -18 -66q-12 -45 17 -67q26 -19 55 -19q28 0 73 23q54 28 72 32z" />
<glyph unicode=":" horiz-adv-x="330" d="M135 598l-55 19h55v-19zM280 435q-8 -1 -18 -1q-8 0 -25.5 1t-26.5 1q-39 0 -57 -19q7 -20 31 -20q5 0 15.5 1t15.5 1q6 0 10 -1v-18h-54q1 4 1 7q0 6 -19 30q-5 -1 -10 -1t-16 1t-16 1q-23 0 -31 -20v-18q-38 16 -38 87q0 12 2 22q25 0 30 1q17 3 24 18l-18 54 q10 -2 22 -2q11 0 32.5 2t32.5 2q44 0 58 -38q24 19 30 19q3 0 7 -1v-31q-3 -17 -18 -24q23 -19 29 -19q3 0 7 1v-36zM280 108q-16 -19 -55 -19q-9 0 -28 1.5t-28 1.5q-59 0 -53 -57l-54 73l91 36q-25 38 -72 38q-9 0 -19 -2q-5 30 16 35q20 2 40 3q21 5 17 35h109l-37 -36 q28 -2 41 -23q5 -10 14 -44q7 -30 18 -42zM280 53q-3 -20 -45 -20q-43 0 -46 20h91z" />
<glyph unicode=";" horiz-adv-x="382" d="M304 340q-23 -31 -90 -31q-53 0 -109 17q14 7 14 17q0 5 -7.5 19t-6.5 21l57 57q-5 12 -19 14h-24v43q10 2 22 2q14 0 40.5 -4t37.5 -4q17 0 28 6q30 1 30 -28q0 -3 -1 -10v-11q0 -31 28 -36l-85 -29zM304 212q-25 -15 -25 -38q0 -9 5.5 -28.5t5.5 -29.5q0 -18 -14 -32 h-29v24q-2 13 -14 19h-14q-3 8 14 28q-13 9 -24 9q-10 0 -29.5 -14t-35.5 -14q-11 0 -25 5v24q-2 13 -14 19q9 2 23 2q12 0 42.5 -2.5t45.5 -2.5q68 0 74 45zM247 41q-10 -15 -21 -15q-7 0 -22.5 10t-25.5 10q-8 0 -16 -5l-43 57h29q-3 -8 14 -28q23 25 35 25q8 0 21 -24 t29 -30zM233 -16l-43 15h43v-15zM247 -73l-57 15h57v-15zM162 -87l-28 -28l-15 57z" />
<glyph unicode="?" horiz-adv-x="868" d="M620 419l-36 -36l-18 36h54zM747 564h-54q1 4 1 7q0 6 -19 30q-20 -10 -74 -15q-49 -5 -72 -22q15 -19 49 -19q7 0 22.5 1t22.5 1q9 0 15 -1q5 -14 5 -25q0 -32 -39 -46q-5 -2 -72 -16q-39 -8 -39 -25q0 -18 36 -51l-36 -37q15 -7 18 -24v-30q-25 0 -30 1q-17 3 -24 17 q-15 -15 -35 -15q-18 0 -47 13q-41 19 -45 20q-10 19 -10 32q0 20 34 37t34 39q0 8 -4 19q17 20 57.5 37t51.5 28q23 21 18 62q-11 37 -55 37h-12.5h-12.5q-33 0 -47 18q-4 -4 -22 -36q-13 -24 -31 -24q-8 0 -19 5q3 18 -10 28t-32 10q-7 0 -13 -1q-13 1 -25 1 q-78 0 -84 -56q22 3 63 -8q46 -13 71 -13q15 0 30 3q-25 -20 -85 -20t-97 20q17 48 52 98q28 42 57 84q19 -19 41 -19q14 0 45 12t49 12q15 0 28 -5q3 -34 20 -34q7 0 31 11t38 11q11 0 20 -6q25 -12 83 -12h24q51 0 74 -10q33 -13 37 -51q-3 1 -7 1q-6 0 -29 -19 q7 -14 24 -18h30v-37zM420 128q-27 -2 -51 22t-21 51h72q2 -4 2 -7q0 -6 -20 -29q20 -24 20 -30q0 -3 -2 -7zM366 74l-54 18h54v-18z" />
<glyph unicode="@" horiz-adv-x="829" d="M730 535q-46 5 -96 40q-43 33 -85 66q-29 3 -29 35q0 18 10.5 32.5t26.5 14.5q11 0 22 -6q-3 -9 15 -31q7 2 13 2q26 0 34 -35q8 -31 16 -61q15 -32 58 -26q18 -22 15 -31zM730 445h-76q-2 8 -2 13q0 10 13.5 16t18.5 16q4 -2 31 -10q19 -5 19 -18q0 -7 -4 -17zM488 671 q-37 0 -45 15l-15 -15l-15 61q6 -4 50 -10q32 -4 32 -24q0 -11 -7 -27zM700 385l-46 15h46v-15zM383 701q-9 3 -31 -15q0 -25 -38 -39q-34 -11 -67 -21h-61q-1 9 -1 17q0 29 22 46q14 9 50 20.5t50 22.5h76v-31zM654 324q0 -35 -39 -58q-45 -26 -51 -48q-7 -1 -13 -1 q-20 0 -53.5 14.5t-49.5 14.5q-15 0 -39.5 -15t-50.5 -15q-41 0 -82 27t-59 66l15 15q-15 8 -15 45q37 0 45 16q-17 6 -16 26q0 35 1 34q8 -3 30 15q-16 23 -16 42q0 59 152 79q-3 -9 15 -30q18 21 15 30q5 -5 38 -17q26 -9 26 -27q0 -7 -4 -17q-8 3 -30 -15q8 -15 45 -15 q17 7 16 27q0 35 0 34h60q0 -12 -39 -37t-39 -43q0 -20 33 -41q18 21 15 30h15q3 -9 -15 -30q9 -7 9 -16q0 -8 -13 -28.5t-13 -32.5q0 -15 17 -29q1 0 -34 1q-20 0 -27 -16l31 -30l15 15l30 -30q-1 28 36.5 35t38.5 25zM232 596q-10 0 -20 -25t-25 -25q-7 0 -16 5v25 q-2 14 -15 20l-45 -30q17 34 39 34q6 0 24 -3.5t31 -3.5t27 3zM609 143q5 -29 -30 -30t-30 -30q-9 11 -20 11t-33 -13.5t-31 -13.5q-16 0 -22 31q-18 -22 -15 -30h-61l61 45q-22 18 -30 15q17 15 47 15q10 0 30 -2t29 -2q41 0 60 34q12 4 25 -9q10 -10 20 -21zM171 188 l-75 76l45 45q-60 16 -75 76q5 27 11 55q6 32 4 65h90v-45q-8 3 -30 -15q5 -11 19 -16.5t14 -15.5q0 -5 -3 -13q-24 -24 -24 -50q0 -36 52 -85.5t52 -58.5q0 -18 -80 -18zM322 113q-6 -17 -27 -16q-35 0 -33 1l45 45q-6 13 -20 15h-25l15 30q47 -15 47 -54q0 -9 -2 -21z M488 430q-27 45 -66 45q-18 0 -66 -16t-79 -14h30q11 -10 21 -20q13 -13 9 -25q-21 -18 -30 -15q26 -24 52 -47q31 -27 69 -29z" />
<glyph unicode="A" horiz-adv-x="816" d="M777 90h-35q4 11 4 19q0 18 -22 30q-32 18 -35 22q-28 -36 -77 -36q-29 0 -94 18t-95 18q-7 -32 -49 -36q-37 -2 -73 -3q-38 -8 -38 -51q0 -7 1 -16h-35v29q-3 17 -18 24q-8 5 -17 5q-10 0 -26 -12t-23 -12q-12 0 -22 19q-12 -20 -26 -20q-15 0 -36 27.5t-27 27.5 q165 26 213 106q-7 15 -24 18h-29v17h35q-1 -3 -1 -6q0 -6 19 -29q3 -1 6 -1q6 0 29 19q-11 24 -23 49q-16 27 -40 27q-11 0 -25 -5l-36 106h30q16 4 23 17v30q-3 16 -17 23h-18q-4 12 -4 21q0 29 44.5 42t44.5 29q0 12 -14 32q-23 -19 -29 -19q-3 0 -5.5 2.5t-2.5 5.5 q0 6 19 29q3 1 7 1q6 0 28 -19q19 9 19 22q0 12 -18 30t-18 19q16 23 57 13q58 -14 61 -14q27 3 23 54q-11 1 86 1q48 0 73 -19v-71q-3 2 -7 2q-6 0 -28 -19q43 -3 67.5 -26.5t24.5 -63.5q0 -16 -4 -34q8 1 -59 1q-32 0 -47 -19q18 -37 66 -37q12 0 35 2t34 2q14 0 24 -2 l36 -159q7 1 -59 1q-33 0 -47 -19q-5 -36 19 -56q26 -16 51 -32h89l-53 -36q60 -25 62 -27q26 -18 26 -61zM724 55q-8 -18 -37 -29.5t-62 -11.5q-81 0 -78 58zM123 37l-53 18h53v-18zM459 302q-21 74 -21 96q0 15 3 46l-35 35q4 -13 4 -24q0 -29 -41 -57.5t-41 -48.5 q0 -19 25 -47q24 -19 58 -19q32 0 48 19zM388 161v17h-71z" />
<glyph unicode="B" horiz-adv-x="928" d="M829 177q-2 -26 -28.5 -46.5t-26.5 -43.5q0 -7 2 -16q-19 -2 -43 -2q-20 0 -61 2.5t-61 2.5q-86 0 -118 -38q-20 6 -41 6q-19 0 -49.5 -6.5t-41.5 -6.5q-28 0 -45 25q-14 -7 -17 -24q-1 -4 -1 -29q-22 5 -44 11q-28 6 -46 6q-31 0 -51 -17l35 35q-48 15 -48 45 q0 14 11.5 40.5t11.5 37.5q0 27 -46 36q19 70 89 88q-16 56 -68 56q-10 0 -21 -3v283q4 -1 8 -1q11 0 24 14q18 21 21 23q-6 15 -23 17h-30v36q12 -1 23 -1q46 0 113 28.5t103 28.5q38 0 80 -21q53 20 123 20q71 0 124 -20q-1 -3 -1 -7q0 -6 19 -28h53q-33 -20 -100 -20 t-112 20q-23 -19 -29 -19q-3 0 -7 1l-35 35q-6 0 -58 10t-87 10q-17 0 -32 -2l-18 -18q8 -18 31 -18q45 0 40 1l-88 -36q7 -18 30 -18q45 0 41 1q-2 -4 -2 -7q0 -6 19 -29q60 36 130 36q59 0 165 -32q115 -35 165 -39l-53 -53q22 -19 28 -19q4 0 7 1q0 -41 -36 -60l-70 -28 q35 1 61 -26q8 -8 38 -55q21 -34 43 -43q1 -12 -10 -29t-11 -28q0 -7 3 -14q-14 19 -30 19q-13 0 -38.5 -17t-37.5 -19q14 -35 54 -36h70zM563 513q-14 13 -23 34q-6 18 -12 37q-33 -13 -126 -22q-82 -8 -122 -31q11 -5 23 -5q14 0 37.5 10.5t33.5 10.5q17 0 30 -16 q1 -4 1 -7q0 -6 -18 -28q18 -10 18 -23q0 -12 -18 -29.5t-18 -18.5q15 -10 26 -10q16 0 29.5 23.5t22.5 23.5q11 0 28 -19q28 -2 44 35t44 35zM616 390h-29q-17 3 -24 17v-35q-14 -7 -55 -46q-33 -32 -66 -32q-17 0 -38 7v-106q15 -3 31 -3q24 0 73 12q46 10 73 9l-18 53 q12 22 23 39q8 11 8 14q0 2 -8 13q-11 17 -23 40q7 15 24 17q1 1 29 1zM227 230l-70 -17h53z" />
<glyph unicode="C" horiz-adv-x="864" d="M803 579l-88 -53q19 -23 19 -29q0 -3 -1 -7l-36 36q-13 -3 -15 -20.5t-10 -17.5q-4 0 -10 2q-14 -1 -25 -1q-26 0 -39.5 12t-23.5 43l17 17q-36 17 -72 35q-45 19 -78 19t-62 -18q-19 -23 -19 -29q0 -3 1 -7q-11 -1 -28.5 10t-28.5 11q-6 0 -13 -3q-18 -13 -18 -28 q0 -10 10 -30.5t10 -33.5q0 -7 -2 -14l-53 53q-19 -14 -19 -30q0 -13 17.5 -38.5t18.5 -37.5q21 9 34 9q20 0 20 -33v-10.5v-11.5q0 -34 17 -43l-88 -35q3 -2 21 -22q13 -14 24 -14q4 0 8 1q3 -36 -35 -36h-7.5h-7.5q-30 0 -39 -17q28 2 34 -18q2 -19 5.5 -38t31.5 -15 l18 18l-18 17q0 16 19 18t37 3q18 7 15 32q15 -4 47 -39q29 -32 48 -32q22 0 46 36q17 -6 31 -6q32 0 51 32q8 13 24 62v18q20 -16 44 -16q16 0 49.5 10.5t53.5 10.5q15 0 30 -5l-18 -124q-3 -1 -6 -1q-6 0 -29 19q-2 -37 -43 -37q-6 0 -18 1t-18 1q-33 0 -45 -18 q25 -19 73 -19q97 0 86 1q-16 -2 -34 -40t-43 -38q-12 0 -29 7q-68 31 -175 19q-155 -17 -166 -17q-87 3 -136 69q29 -4 33 27q5 37 20 44q-23 19 -29 19q-3 0 -6 -1q-14 -7 -17 -24q-1 -4 -1 -29q-13 -4 -22 -4q-20 0 -30 18.5t-19 38.5l18 17q-26 0 -32 15q-3 7 -3.5 36 t-17.5 38l53 35q-7 15 -23 17q-2 1 -30 1q-1 3 -1 6q0 6 19 29q-19 7 -19 30q0 46 1 41q3 -1 7 -1q6 0 28 18q-7 34 -7 58q0 51 43 102q18 27 36 27q8 0 27.5 -7t33.5 -7q13 0 26 4q26 15 61 65q27 40 58 40q24 0 58 -16q-1 5 -1 -41q0 -23 19 -30l35 35q-14 7 -17 24 q-1 4 -1 29q18 19 56 19q77 0 68 -1q1 -3 1 -7q0 -6 -18 -28l146 -56q83 -40 83 -121zM520 -5h-141q12 18 64 20q58 2 77 16v-36z" />
<glyph unicode="D" horiz-adv-x="944" d="M305 803q-6 -1 -37 -18.5t-50 -17.5q-21 0 -37 18l-17 -18l-36 36h177zM871 485q-3 -13 0 -55q2 -37 -5 -51q-11 -22 -48 -18h-30q-17 -3 -23 -18q7 -19 30 -19q45 0 40 1q-38 -15 -38 -33q0 -10 20.5 -33t20.5 -36q0 -20 -38 -38.5t-110 -24.5q-103 -8 -120 -11 q17 -41 52 -41q10 0 36 4.5t42 4.5q15 0 29 -4q-65 -72 -249 -72q-26 0 -69 2q1 3 1 6q0 6 -19 29q-10 -3 -32.5 -19.5t-32.5 -16.5q-16 0 -23 36q-19 -23 -19 -29q0 -3 1 -6q-20 -8 -36 -8q-36 0 -68 39q-43 50 -55 57v35q25 0 30 1q16 3 23 17v30q-3 16 -17 23 q-19 -23 -19 -29q0 -3 1 -6q-21 11 -21 58q0 45 21 65l18 18q-23 19 -29 19q-3 0 -7 -1v35q8 -2 15 -2q15 0 29 12.5t27 25.5q-32 26 -45 49q-2 3 -26 57q4 1 7 1q6 0 29 -19q19 19 43 19q15 0 45 -10.5t45 -10.5q24 0 43 20q-19 35 -80 35q-12 0 -34.5 -1.5t-32.5 -1.5 q-66 0 -66 54q0 9 1 20q12 16 57 20q39 3 49 33q-7 14 -23 17h-30q21 0 81.5 18t91.5 18q50 0 75 -36h35q-1 -3 -1 -6q0 -6 19 -29l53 18q-1 -4 -1 -7q0 -6 18 -29q4 -1 7 -1q6 0 29 19l-53 124q37 4 90 -22q59 -29 87 -31l-53 -36q22 -30 77 -35q72 -6 82 -11 q37 -16 35 -77q-5 -36 -40 -36q-13 0 -37.5 5.5t-31.5 5.5q-15 0 -15 -13q0 -15 18 -51q11 13 22 13q10 0 33 -19t42 -19q13 0 27 8zM659 432l-71 53l35 35q-36 2 -47 42q-16 56 -24 64q-11 -39 -41 -35q-29 8 -59 17q-37 9 -59 -17l18 -18q8 -23 8 -40q0 -36 -35 -52 q-20 -8 -73 -16q-47 -6 -59 -16q-11 1 86 1q48 0 73 -18q1 6 1 -51q0 -27 -19 -38q-3 -1 -6 -1q-6 0 -29 19q-19 -15 -19 -23q0 -5 19 -15t19 -24q0 -4 -1 -9q-11 -19 -38 -19q-57 0 -51 1l18 -17q10 19 38 19q57 0 50 -2q19 -22 19 -28q0 -3 -1 -7q22 -4 40 -4q36 0 77 21 q54 29 78 36l-18 18q-4 22 19 30q29 10 34 23h-18q-19 22 -19 28q0 4 2 7q29 19 58 39v0q-1 -1 -5 -3zM464 166q-50 10 -88 10t-89 -10q-19 23 -19 29q0 3 2 7h-36v-36q26 0 79.5 -17.5t78.5 -17.5q43 0 72 35z" />
<glyph unicode="E" horiz-adv-x="798" d="M721 753l-71 18h71v-18zM597 612l-71 17h71v-17zM756 64l-17 -18l-36 35q-19 -36 -27 -45q-13 -16 -44 -25l-35 35q-7 -19 -30 -19q-45 0 -41 1l-17 18q-19 -23 -19 -29q0 -3 1 -6h-35q-1 3 -1 6q0 6 18 29q-5 1 -10 1q-17 0 -64.5 -21t-80.5 -21q-20 0 -39 6 q-22 -9 -37 -9q-37 0 -51 61q-17 74 -36 89q4 -1 7 -1q6 0 29 19l-36 35q-22 -19 -28 -19q-4 0 -7 1l35 36q-37 24 -37 69q0 9 2 19q11 9 46 15q31 4 42 21q-10 18 -38 18q-57 0 -50 -1q12 14 12 33q0 12 -7.5 40.5t-7.5 44.5q0 12 3 24q-7 -1 50 -1q28 0 38 18 q-24 37 -69 37q-9 0 -19 -1v92q3 60 22 88q25 38 84 32q97 -73 212 -71q19 23 19 29q0 3 -1 7q21 -20 43 -20q25 0 62 28.5t50 28.5q24 0 39 -55h36q-2 -4 -2 -7q0 -6 19 -29h36q3 -12 3 -21q0 -20 -18.5 -30t-37.5 -19l35 35l-71 53q-19 -22 -19 -28q0 -4 1 -7h-35q1 3 1 7 q0 6 -19 28l-78 -36q-42 -25 -45 -70q6 1 -51 1q-27 0 -38 -19v-70l319 -36v-35q6 1 -51 1q-27 0 -38 -19q13 -16 43 -21q34 -5 46 -14q-3 -16 -48 -19.5t-45 -30.5q0 -9 4 -21q-25 16 -93.5 4.5t-100.5 13.5q-3 -9 -24 -42q-15 -25 -15 -44q0 -10 3 -20l18 -18 q-14 -7 -17 -23q-1 -5 -1 -30q23 -19 29 -19q3 0 7 1q14 7 17 24v29h30q17 -2 23 -17q12 19 26 19q9 0 27 -10.5t27 -10.5q15 0 26 19z" />
<glyph unicode="F" horiz-adv-x="790" d="M723 585h-53q-1 3 -1 7q0 12 14 24q20 19 22 22q-7 15 -23 17h-30l18 53q15 0 17 -19t4 -37q6 -18 32 -14v-53zM652 426l-53 17h53v-17zM599 638q-25 -29 -75 -18q-42 8 -84 17q-47 0 -71 -52q19 -8 19 -30q0 -46 -1 -41q-2 -9 -2 -20q0 -31 14 -64q15 -37 41 -57l53 53 q-19 22 -19 28q0 3 1 7q-1 -4 -1 -8q0 -11 9 -20t20 -9q4 0 8 2h53q-19 -61 -19 -74q0 -7 1 -15q-3 1 -7 1q-6 0 -28 -18q22 -19 28 -19q4 0 7 1q-1 -15 -27 -22q-36 -9 -44 -14v54h30q17 3 23 17l-35 53q1 -35 -36 -35h-11h-11q-41 0 -48 -35q3 -3 21 -23q13 -14 25 -14 q3 0 7 1q-4 1 -8 1q-14 0 -32.5 -28.5t-31.5 -28.5q-15 0 -34 21q5 11 5 19q0 17 -23 30q-32 18 -35 22q-7 -15 -45 -20q-30 -5 -26 -34q4 -24 31 -32q4 -1 48 -7q25 -3 25 -15t-15 -34q6 -14 23 -17q5 -1 30 -1q0 -25 1 -29q3 -17 16 -24h18v-35q-3 1 -7 1q-6 0 -28 -19 l17 -53l-176 18q35 21 35 54q0 31 -29 64q-27 29 -60 41h-17q26 121 28 128q22 71 60 102q10 -2 19 -2q45 0 70 37v18q-29 19 -82 19q-107 0 -95 -1v282q23 7 46 7q46 0 123 -39.5t123 -39.5q13 0 26 2q23 19 29 19q3 0 6 -2l-35 -35q22 -18 79.5 -18.5t79.5 -16.5zM175 72 l-53 18h53v-18z" />
<glyph unicode="G" horiz-adv-x="1037" d="M891 117q-32 -36 -86 -36q-29 0 -85 14t-77 14q-67 0 -70 -98q-45 21 -84 21q-25 0 -67 -11.5t-67 -11.5q-39 0 -83 20q-7 18 -78 83q-62 57 -62 98q0 33 34 66q1 4 1 7q0 6 -19 28h-35v89q-6 -1 50 -1q28 0 39 19l-54 53q-18 -23 -18 -29q0 -3 1 -7q-4 -1 -7 -1 q-6 0 -29 19q14 48 27 96q20 67 49 102q39 48 101 49l53 -53l36 53l-71 53q106 40 212 40t212 -40q0 -25 32 -44q36 -20 39 -26h-124q1 3 1 6q0 6 -19 29q-13 -7 -16 -23q-1 -5 -1 -30q22 -19 28 -19q4 0 7 1q1 -3 1 -6q0 -6 -19 -29l36 -35q26 55 112 55q15 0 29 -2 q30 -11 33 -50q4 -44 20 -56l-247 -18q4 37 -20 57q-25 16 -51 31q-25 0 -30 1q-16 3 -23 17l-18 -18q-10 19 -38 19q-56 0 -50 -1l-18 -18q18 -8 18 -20q0 -7 -9.5 -24t-8.5 -26q-20 -13 -20 -66q0 -16 2.5 -54.5t2.5 -56.5q0 -21 -2 -36q-37 -9 -37 -25q0 -10 28.5 -39.5 t28.5 -47.5q0 -6 -3 -11q-7 1 59 1q33 0 47 -19q2 -3 2 -7q0 -6 -19 -28q7 -19 30 -19q45 0 40 1l18 18q-23 19 -29 19q-3 0 -6 -2q34 14 91 73l86 86q-1 1 -26 20q-17 12 -27 12q-11 0 -18 -14v-18h-36v36q26 0 30 1q17 3 23 17q-14 18 -47 18q-66 0 -59 -1v53q25 4 50 4 q32 0 87.5 -8t83.5 -8q42 0 80 12q-1 -3 -1 -7q0 -6 19 -28q22 19 28 19q4 0 7 -1q-19 -13 -19 -27q0 -8 12.5 -28t12.5 -32q0 -10 -6 -20q-3 2 -7 2q-6 0 -28 -19q37 -35 37 -79q0 -9 -2 -30.5t-2 -35.5q0 -16 2 -32zM873 29q-31 -21 -93 -21q-69 0 -83 38q28 -19 81 -19 q108 0 95 2zM714 541zM626 594l-18 18q-1 3 -1 7q0 6 19 28l-18 -17q5 -1 -40 -1q-23 0 -31 18q5 -11 45 -22.5t44 -30.5zM308 453l-142 18q12 -37 62 -37q38 0 80 19z" />
<glyph unicode="H" horiz-adv-x="851" d="M733 774q-13 -35 -41 -35q-14 0 -49 12t-55 12q-17 0 -32 -6v35zM804 85q-8 1 -16 1q-33 0 -88.5 -28.5t-83.5 -28.5q-30 0 -60 21q3 17 38 19q40 3 51 16q8 -9 23 -9q28 0 65 27l18 17q-15 54 -67 54q-16 0 -46 -6.5t-39 -6.5q-23 0 -23 23q0 20 16 60l-124 142 q-17 2 -42.5 -26.5t-37.5 -28.5q-13 0 -26 19q-12 -19 -26 -19q-9 0 -27 10.5t-27 10.5q-14 0 -26 -19q56 -23 56 -82q0 -14 -3 -42t-3 -42q0 -16 3 -29q7 -1 -59 -1q-32 0 -47 19q-1 3 -1 6q0 6 19 29q-21 5 -70 29q-43 21 -72 24q19 60 19 74q0 7 -1 15q-23 18 -29 18 q-3 0 -7 -1l36 36q-23 18 -29 18q-3 0 -7 -1l107 53q-23 19 -29 19q-3 0 -7 -1v18l53 -36l53 71q-12 4 -50 32q-32 22 -52 22q-21 0 -39 -19q-1 4 -1 7q0 6 19 29q-7 14 -24 17h-30q-1 -4 -1 41q0 23 19 30l71 -18q9 11 24 51q13 33 29 38q1 -4 1 -7q0 -6 -19 -29 q17 -15 68 -4t74 -13q-12 -12 -34 -12q-6 0 -17.5 1t-16.5 1q-34 0 -38 -43q-1 -36 42 -36q5 0 14 1h14q39 0 39 -30q0 -10 -3 -24q29 -30 65 -30q16 0 53 9t58 9q18 0 36 -5q19 14 19 47q0 66 -2 59l36 -36q19 23 19 29q0 3 -1 7l35 -53q8 3 34 23q20 15 37 15q8 0 17 -3 q-1 -3 -1 -7q0 -6 19 -28q15 7 17 23q1 1 1 30q-23 19 -29 19q-3 0 -7 -2v18h71q4 -21 4 -38q0 -75 -92 -86l-18 -17q15 -19 47 -19q66 0 59 1q-3 -18 -3 -42q0 -20 3 -62.5t3 -63.5q0 -88 -56 -115q54 -4 54 -64q0 -11 -2 -34.5t-2 -34.5q0 -15 3 -26zM291 50 q-10 -5 -18 -5q-17 0 -29 29t-23 29zM185 32h-124q-2 30 5 43.5t31 27.5q27 -39 69 -39q10 0 19 3v-35zM221 315q-19 22 -19 28q0 4 1 7h-18v-35h36z" />
<glyph unicode="I" horiz-adv-x="440" d="M367 757q-4 -27 -18 -38q-8 -8 -32.5 -15.5t-38.5 -16.5q2 3 2 6q0 6 -19 29q-14 -7 -17 -23q-1 -5 -1 -30q-51 8 -91 33q-47 31 -50 73q16 6 33 6q21 0 57.5 -12.5t54.5 -12.5q26 0 49 19q12 2 30 -9t28 -11q6 0 13 2zM349 598q-26 2 -36 -25l-17 -45q-29 10 -29 29 q0 9 8 32t8 38q0 13 -5 24q11 5 19 5q17 0 29 -29t23 -29zM243 634q-12 -33 -53 -106q-12 -2 -29 9t-28 11q-7 0 -14 -3q0 25 1 30q3 16 17 23q-6 13 -24 20q-14 7 -14 18q0 6 3 15zM367 15l-36 35q-19 -37 -84 -37q-16 0 -48 2t-47 2q-19 0 -33 -2l-17 18q14 6 17 23v30 q7 3 14 3q11 0 31 -9.5t27 -9.5q15 0 17 33q-37 -2 -63.5 21t-26.5 55q0 25 19 48q13 -3 26 -3q25 0 59 15q44 20 56 23l-35 36q-14 -16 -30 -16q-10 0 -33.5 10.5t-38.5 10.5q-11 0 -22 -5l71 35q-27 4 -39 18q-7 9 -14.5 33t-17.5 37q23 2 66 28.5t66 26.5t45 -19 q7 19 30 19q46 0 41 -1v-30q-3 -17 -18 -24q22 -25 22 -40q0 -18 -49 -30q-53 -13 -61 -36q14 -28 47 -33q29 -1 59 -2q-17 -19 -68 -33q-63 -18 -81 -28q-40 -22 -46 -63q13 -53 54 -53q20 0 71 19q48 18 70 17l-71 -53q37 -20 45 -27q16 -14 26 -44z" />
<glyph unicode="J" horiz-adv-x="732" d="M657 295l-106 -35l89 -36q4 -13 4 -26q0 -48 -57 -98l-36 36q-15 -14 -43.5 -54t-47.5 -56q-30 -24 -67 -24q-25 0 -54 10l-17 18q-15 -20 -23 -20q-5 0 -15 19.5t-25 19.5q-4 0 -8 -2q-50 1 -100 1q-57 4 -77 52q-5 12 -5 21q0 20 31 29q38 12 45 21q2 31 44 53t44 53 q-18 55 -97 55q-13 0 -27 -2v18l106 -18q-1 -3 -1 -6q0 -6 19 -29h36q-1 -1 -18.5 -19t-17.5 -30t18 -22l18 18l88 -89q19 8 19 31q0 45 -1 40q25 0 29 1q17 3 24 17q-13 24 -25 48q-13 28 -13 53q0 11 2 23l71 35l-71 53l53 35q-20 5 -36.5 25.5t-16.5 43.5q0 22 18 37 l-18 142l53 -106q33 2 60 57.5t50 55.5q20 0 49 -25q23 19 29 19q3 0 7 -1v-71q-9 -1 -26 8.5t-24 9.5q-13 0 -21 -18v-17q5 -2 -41 -2q-22 0 -30 19q-18 -22 -18 -28q0 -4 1 -7q25 -19 73 -19q97 0 86 1v-53h-30q-16 -3 -23 -18q30 -2 45 -34q13 -27 25 -54l-35 -35l35 -36 q-8 -17 -38 -17h-8h-7q-38 0 -35 -36zM127 224h-71l36 53q26 2 35 -53z" />
<glyph unicode="K" d="M902 748l-53 18h53v-18zM936 18q16 -1 -120 -1q-68 0 -106 19q-7 -19 -29 -19q-45 0 -40 1q-94 112 -87 192q-7 14 -23 17h-29q1 19 -19 38q-17 16 -33 32q-42 -22 -50 -69l-2 -88q-21 17 -53 17q-31 0 -52 -17l-17 -17q17 -19 55 -19q75 0 67 1v-52h-122q1 36 -35 36 h-15q-11 -1 -16 -1q-29 0 -38 17l-18 209q-7 -1 58 -1q32 0 47 18q-15 19 -47 19q-65 0 -58 -1v121q-4 -1 40 -1q23 0 30 19l-70 52q12 9 46 14q30 4 41 21q-9 8 -23 36q-13 23 -29 33h-35q-1 -5 -1 40q0 22 19 30l-18 17q24 18 56 18q21 0 70 -12t77 -12q21 0 41 6 q-2 -12 -38.5 -20t-36.5 -29q0 -9 5 -21l35 -34l17 17l35 -87q73 -5 102 52l38 106q29 56 103 51l191 -52q-9 -40 -62 -82q-45 -35 -90 -71q-47 -42 -47 -86q0 -19 8 -39q-5 -13 -41 -40q-31 -23 -31 -43q0 -17 20 -39q15 7 17 23v29q10 -3 48 -23q29 -15 51 -15q11 0 23 3 l70 -139q-18 19 -55 19q-75 0 -67 -1q-7 -16 -7 -27q0 -28 51 -28q9 0 32 1.5t34 1.5q47 0 64 -18l-35 -52zM762 661v53l-52 -53h52zM676 158h-87q52 -18 57 -18q19 0 30 18z" />
<glyph unicode="L" horiz-adv-x="704" d="M654 203q2 -15 2 -25q0 -46 -54 -62q-13 -4 -25 -4q-14 0 -36.5 6t-31.5 6q-25 0 -46 -25q17 -19 54 -19q76 0 67 1v-52h-521q-20 42 -20 68q0 39 46 47q44 4 87 7q47 4 47 32q0 9 -4 20l-52 -18q1 -4 1 40q0 23 -18 30h-29q-17 -3 -23 -17v-18q-27 9 -33 49q-2 12 -2 73 q12 -2 24 -2q75 0 80 54q-5 29 -42 44q-31 13 -62 25q-3 62 40 91q28 17 99 31q-23 23 -46 45q-32 31 -63 31q-15 0 -30 -6q5 22 50 45q40 21 37 59q-11 1 85 1q47 0 71 -19q-6 -34 -62 -37q-62 -3 -77 -32q16 -18 54 -18q5 0 16 1h16q37 0 53 -18v-69q-34 17 -62 17 q-31 0 -78 -29q-53 -33 -86 -40q28 -37 90 -37q14 0 44 2t44 2q17 0 31 -2l-35 -35q56 -9 56 -72q0 -14 -3.5 -44.5t-3.5 -45.5q0 -17 3 -29h-29q-16 -3 -23 -17q-3 -9 -3 -18q0 -16 15 -36q20 -26 23 -33q119 54 299 54q33 0 66 -2z" />
<glyph unicode="M" d="M966 586h-35q9 55 35 52v-52zM236 777q-7 -19 -52 -19q-46 0 -52 19h104zM966 82h-29q-17 -2 -23 -17q22 -19 28 -19q3 0 6 2v-18l-34 35q-16 -38 -65 -38q-40 0 -74 21q-36 35 -36 127v39q1 26 1 39q0 70 -17 107q-40 -67 -58 -141q-14 -77 -29 -154q-11 6 -23 6 q-18 0 -48 -21t-40 -21q-18 0 -28 36q-20 -7 -35 -7q-30 0 -42 32q-5 15 -11 69q-5 45 -17 62l-52 139l-17 -243q7 1 -58 1q-32 0 -46 -18q8 -18 52 -18q-18 -5 -58 -22q-27 -12 -48 -12q-27 0 -68 17l52 35q-7 14 -23 17h-29v87q3 -1 7 -1q6 0 28 18q-22 19 -28 19 q-4 0 -7 -1q-1 3 -1 6q0 6 18 29q-18 7 -18 29q0 45 1 40q-5 -1 40 -1q22 0 30 18q-72 -3 -72 91q0 15 2 31q-6 -1 50 -1q27 0 37 18q-10 19 -37 19q-56 0 -50 -1v35q28 0 29 -1q16 -2 23 -17q18 12 18 31q0 11 -7 29q-5 14 -11 27l52 17q-1 -3 -1 -6q0 -6 19 -28q9 8 23 36 q12 24 29 33q-22 19 -28 19q-4 0 -7 -1v17q3 1 7 1q6 0 28 -18q16 -2 46.5 7.5t45.5 9.5q25 0 47 -17l35 -35l-70 -35q122 -33 139 -243l17 -18q13 25 26 49q13 29 9 56q28 28 44 116q16 93 43 127q2 0 115 23q76 15 130 15q26 0 50 -3v-52q-14 4 -26 4q-24 0 -52.5 -29 t-60.5 -28q20 -48 75 -84q62 -41 82 -72q-27 -23 -18 -69q9 -40 18 -81q4 -48 -35 -76q37 -12 37 -67q0 -13 -2.5 -40t-2.5 -40q0 -15 3 -27zM827 239zM271 499q2 26 -25 36q-44 16 -45 17l35 -35l-17 -18h52zM271 360l-35 35l-69 18zM288 187v34q-13 -13 -28 -13 q-18 0 -47 21q-34 23 -46 27q18 -37 54 -47q58 -17 67 -22z" />
<glyph unicode="N" horiz-adv-x="901" d="M791 719q-16 17 -58 17h-10.5h-10.5q-53 0 -60 35q-10 1 76 1q43 0 63 -18v-35zM843 59q-28 -38 -102 -38q-47 0 -141 20l-174 226q16 17 16 29q0 10 -27 30.5t-24 45.5q-3 -1 -6 -1q-6 0 -28 18q-19 -7 -19 -30q0 -44 1 -39q5 1 -40 1q-22 0 -29 -19q6 -9 45 -33 q31 -18 31 -42q0 -13 -7 -29h-29q-16 -3 -23 -17q-1 -4 -1 -7q0 -6 19 -28l17 17q18 -5 18 -40q0 -71 -1 -64q-3 -1 -6 -1q-6 0 -28 18q-19 -22 -19 -28q0 -3 1 -7l-69 53q-13 -3 -15 -20t-10 -17q-4 0 -10 2q-14 -2 -25 -2q-44 0 -62 54v52q43 0 52 18q1 3 1 6q0 6 -18 28 h-35v52q-6 -1 50 -1q27 0 37 19q-24 36 -68 36q-9 0 -19 -1v52q-6 -1 50 -1q27 0 37 18q1 3 1 7q0 6 -18 28q-19 -8 -31 -8q-23 0 -27 37q-6 49 -12 58l35 34q-37 5 -37 51q0 10 2 33t2 33q0 13 -2 22q48 90 192 90q25 0 51 -3q34 -67 112 -172q66 -87 132 -175q4 12 4 33 q0 17 -4.5 60t-4.5 65q0 95 74 102q-7 15 -23 18h-29v17q16 -8 98 -13q62 -4 76 -39q6 15 22 17h30q10 -17 10 -36q0 -9 -3 -25.5t-3 -24.5q0 -19 13 -35q-36 -16 -36 -57q0 -29 19 -47l17 -18q-52 -11 -52 -57q0 -9 2 -26.5t2 -25.5q0 -44 -56 -47l-17 -18l-35 35l-35 -52 q31 -20 78 -20t78 20v17q4 2 7 2q6 0 28 -19h-29q-16 -3 -23 -17q5 -13 33 -23q23 -7 19 -29l-35 -35l18 -18l-191 -34q27 -18 81 -18h23q16 1 23 1q54 0 81 -18z" />
<glyph unicode="O" horiz-adv-x="972" d="M888 312q-16 -98 -86 -174q11 1 -85 1q-47 0 -72 -18q9 -18 52 -18q-1 -3 -1 -6q0 -6 19 -28h34v-18q-43 0 -52 18q-5 -25 -29 -32q-30 -8 -40 -21l-76 22q-47 13 -79 13q-40 0 -71 -17q-32 -37 -73 -37q-7 0 -14 2l-52 70q-5 -2 40 -2q31 0 31 26q0 5 -19 28 q-20 0 -53 35.5t-48 35.5q-20 0 -38 -37l-70 87l18 18q-19 17 -19 37q0 11 8 33t8 33q0 19 -15 36l53 34q-7 15 -23 18h-30v52q44 0 53 17q-18 17 -18 39q0 18 13 43l22 40q135 120 261 122q-1 -4 -1 -7q0 -6 18 -28l35 52q-1 -3 -1 -7q0 -6 18 -28l18 18q-3 -37 31 -48 q32 -7 65 -13q38 -11 43 -44l69 53q1 -4 1 -7q0 -6 -18 -28q10 -19 37 -19q56 0 50 1q-1 -15 -27 -21q-36 -9 -43 -13q-13 34 -36 34q-14 0 -43.5 -17t-42.5 -17q-3 1 -6 1q-6 0 -28 -19q45 -18 130 -18q144 0 130 1l35 -87q-6 -3 -13 -3q-11 0 -31 9.5t-26 9.5 q-15 0 -17 -33q14 -14 43 -18q34 -4 43 -8q18 -10 18 -44v-35q10 1 -76 1q-42 0 -63 -18q11 -18 38 -18q56 0 49 1q-1 -4 -1 -7q0 -6 19 -28h34zM645 555h-52q-18 22 -18 28q0 3 1 7q-28 -19 -81 -17q-43 4 -85 9q-40 4 -43 -10q19 -6 19 -19q0 -16 -25 -37v0q1 0 6 4 q1 10 1 -103q0 -70 -18 -105q5 -1 -40 -1q-23 0 -30 18q1 -3 1 -6q0 -6 -18 -29q-44 0 -52 18q-22 -19 -28 -19q-4 0 -7 1q28 -17 82 -17h21q14 1 21 1q72 0 102 -36v-29q-3 -16 -17 -23q11 -19 25 -19q9 0 26.5 10.5t26.5 10.5q14 0 26 -19l17 17h29q17 -3 23 -17 q3 2 21 22q13 14 24 14q4 0 7 -1q-22 16 -22 26q0 8 22.5 17t22.5 17q0 10 -23 26q18 32 18 69q0 31 -16 87q-17 60 -19 88q7 14 23 17h29z" />
<glyph unicode="P" horiz-adv-x="834" d="M767 448q4 1 -40 1q-23 0 -30 -19v-34q-16 18 -36 18q-10 0 -28 -6.5t-26 -6.5q-19 0 -32 29l-52 -52l35 -35q10 19 37 19q56 0 50 -1l17 -18q7 19 30 19q45 0 40 -1q-35 -45 -104 -65q-46 -14 -137 -22q-104 -10 -141 -17q-19 -15 -19 -47q0 -65 1 -58q-15 36 -83 36 q-11 0 -21 -1q-17 -9 -17 -52q3 -2 21 -22q12 -14 24 -14q3 0 7 1q4 -9 4 -17q0 -18 -23 -37q-29 -25 -33 -33q-41 0 -82 -1q-45 3 -40 53q1 4 1 7q0 6 -19 28q19 7 19 30q0 44 -1 40q43 0 52 17q-26 4 -38 18q-7 8 -14.5 32t-17.5 37q4 -1 7 -1q6 0 28 18q-1 17 -14 58 q-12 38 -12 57q0 45 61 59q1 3 1 7q0 6 -18 28h-35q-1 3 -1 6q0 6 18 29q-2 3 -22 21q-14 12 -14 24q0 3 1 7q7 14 23 17h30q-8 -1 86 -1q60 0 87 18q-22 19 -28 19q-3 0 -6 -1l34 35q-7 3 -33 22q-20 15 -36 15q-9 0 -17 -3q1 4 1 7q0 6 -19 28q-8 -3 -33 -23 q-20 -15 -37 -15q-8 0 -17 3l-17 52h486q2 -8 -7.5 -25t-9.5 -24q0 -12 17 -20q35 23 59 23q20 0 40 -17q20 -21 40 -41l35 -52q5 1 -40 1q-22 0 -29 -18q40 0 59 -36q14 -34 28 -69v-34zM645 482q-19 -6 -37 -6q-42 0 -103.5 53t-103.5 53q-24 0 -51 -13v-121h52 q18 -23 18 -28q0 -4 -1 -7h70l-18 17q16 40 72 49q4 1 102 3zM176 48v17h-52z" />
<glyph unicode="Q" horiz-adv-x="906" d="M849 444q1 5 1 -40q0 -22 -18 -29q1 -11 1 -24q0 -89 -36 -150h-29q-16 -3 -23 -17q2 -21 34.5 -52.5t34.5 -52.5q-35 20 -87 20q-51 0 -86 -20q-6 -45 -31 -45q-7 0 -26 6t-29 6q-22 0 -36 -19q13 -1 -130 -1q-86 0 -131 19l-34 86l-53 -34q-45 43 -60 64q-28 37 -28 77 q0 7 1 15l18 17l-52 35l104 35l-104 52q43 0 52 18q-7 14 -23 17h-29q-3 19 -3 37q0 93 61 170q36 45 133 123q56 19 122 19q67 0 181 -25q122 -26 166 -29q1 -3 1 -6q0 -6 -18 -28q9 -14 53 -20q37 -6 37 -29q0 -9 -3 -21q-10 1 -19 1q-44 0 -68 -36q14 -8 16 -53 q1 -36 36 -34l35 35q-19 22 -19 28q0 3 1 7q18 8 31 8q23 0 28 -37q6 -51 11 -58l-18 -17q23 -19 28 -19q4 0 7 1zM571 357q10 41 10 73q0 52 -27 101q-56 70 -113 70q-29 0 -61 -18q-18 -29 -36 -59q-20 -36 -20 -60q0 -11 4 -20v-29q-3 -16 -18 -23q14 -21 29 -73.5 t30 -72.5q22 -31 65 -31q15 0 33 3l-70 70q0 18 31 18q-4 0 4 -1l-17 18q-1 19 18 38q17 16 34 31q17 20 31 20q13 0 34.5 -26.5t38.5 -28.5zM571 131v35q-10 3 -20 3q-17 0 -48 -9.5t-45 -9.5q-24 0 -43 16z" />
<glyph unicode="R" horiz-adv-x="840" d="M784 121q3 -45 -33 -68q-30 -19 -82 -19q-53 0 -94 18q-36 44 -36 111q0 13 1 28l18 17q-18 9 -18 52l18 18q-24 26 -71 26q-28 0 -71 -10q-33 -8 -67 -16v-105q5 1 -40 1q-22 0 -29 -18q7 -18 29 -18q45 0 40 1q-12 -37 -67 -37q-13 0 -40 2t-40 2q-15 0 -27 -2q2 3 2 6 q0 6 -19 29q-19 -23 -19 -29q0 -3 2 -6q-11 -5 -19 -5q-35 0 -35 57q0 9 1 17v70q11 -5 20 -5q17 0 29 23q17 31 21 34q4 11 4 19q0 21 -29 31q-39 14 -45 20v69q4 1 7 1q6 0 28 -18q19 10 19 37q0 56 -1 50q-3 2 -21 22q-13 13 -24 13q-4 0 -8 -1v52q14 -13 28 -13 q11 0 29 12q22 16 30 19v52l60 2q31 5 45 33q-13 17 -52.5 17.5t-52.5 16.5q8 19 34 19q15 0 60 -10t70 -10q38 0 62 19q24 31 46 31q18 0 61.5 -41t80.5 -41q26 0 56 16q3 -2 21 -22q12 -14 24 -14q3 0 7 1q1 -3 1 -6q0 -6 -19 -28q12 -18 31 -18q12 0 29 7q14 5 27 11 l-35 -35q44 -59 44 -95q0 -20 -9 -62q-7 -2 -14 -2q-19 0 -52.5 27.5t-52.5 27.5q-18 0 -37 -18q12 -14 33 -22q18 -7 36 -13v-69q7 1 -49 1q-27 0 -38 -18q-2 -36 35 -36h7h7q30 0 38 -17q60 19 73 19q7 0 14 -1q1 -19 -19 -38q-16 -16 -33 -32q36 -19 45 -26 q15 -14 25 -43l-87 -52l52 -53q18 23 18 29q0 3 -1 6h18zM488 677l-17 18q-4 -36 -52 -36q-6 0 -18 1h-17q-48 0 -52 -35zM540 521q-5 71 -131 71q-17 0 -42 -2q6 -36 -40 -36q-7 0 -13 2q38 -1 47 -45q10 -50 40 -60l74 24q42 17 65 46z" />
<glyph unicode="S" horiz-adv-x="872" d="M804 201q-20 -26 -53 -17q-26 8 -51 17q-27 3 -35 -35q14 -18 46 -18q65 0 58 1q3 -72 -69 -72q-10 0 -31 1t-32 1q-57 0 -77 -34q23 -19 29 -19q3 0 6 1q-13 -18 -51 -18q-42 0 -88 18q-1 4 -1 7q0 6 19 28q-7 15 -23 17h-30q-18 -22 -18 -28q0 -3 1 -6q6 -1 -50 -1 q-27 0 -37 18q-22 -19 -28 -19q-3 0 -7 2v34q-4 -1 40 -1q23 0 30 19q-18 14 -55 17q-46 4 -57 8q-31 11 -45 44q-10 12 -26 47l-26 57q-1 -3 -1 -6q0 -6 19 -28q22 38 93 38q57 0 115 -21q-1 -7 -1 -13q0 -29 24 -42q12 -7 49 -14.5t50 -17.5q8 20 45 39q32 16 32 37 q0 12 -8 28q-44 37 -111 37q-13 0 -28 -2q2 4 2 7q0 6 -19 28q-8 -17 -20 -17q-7 0 -24 9t-26 8q-4 35 -47 35h-16q-11 -1 -17 -1q-47 0 -59 36l87 52q-6 14 -22 17h-30v35q4 -1 7 -1q6 0 28 18q-7 15 -23 17q-1 1 -29 1q-18 -9 -18 -53q-3 6 -35 34q-21 19 -21 43 q0 12 4 28l70 34l-52 53q30 36 103 36q9 0 29 -1t30 -1q53 0 81 18q-1 -4 -1 -7q0 -6 18 -28q19 7 19 30q0 44 -1 39l-35 35q104 -2 151 -12q88 -19 127 -75h29q16 -3 23 -17v-52q5 1 -40 1q-31 0 -31 -25q0 -6 19 -28l87 17v-52q-4 -1 -7 -1q-6 0 -28 18q-21 -26 -58 -17 q-29 9 -58 17q-29 4 -40 -34l-52 34l104 35q-29 34 -72 34q-25 0 -77.5 -16.5t-76.5 -17.5q-18 -17 -18 -36q0 -15 19 -48.5t16 -54.5q15 2 28 2q47 0 110.5 -39.5t106.5 -39.5q24 0 51 8q-1 -4 -1 -7q0 -6 18 -28h35v-52q-28 0 -29 -1q-17 -2 -23 -17q10 -18 37 -18 q56 0 50 1q1 -4 1 -7q0 -6 -19 -28q15 -7 17 -23q1 -1 1 -29z" />
<glyph unicode="T" horiz-adv-x="976" d="M858 739q-5 -1 -13 -1q-6 0 -19 1t-19 1q-28 0 -39 -19l72 -90q-26 -12 -92.5 -18t-92.5 -18q-43 -20 -49 -72q-37 4 -55.5 -21t-34.5 -51q-4 -14 -4 -24q0 -31 38 -31q7 0 20 1t19 1q38 0 38 -32q0 -10 -3 -23q-8 -1 -17 -1t-26.5 1t-25.5 1q-39 0 -57 -19q0 -26 1 -31 q3 -17 17 -24h18l-54 -54l18 -18q-21 2 -46 -29.5t-49 -31.5q-14 0 -31 7v72q-6 -1 41 -1q32 0 32 27q0 5 -19 28h-54q1 7 1 16q0 7 -1.5 22t-1.5 22q0 34 20 49q-14 7 -18 23v31q25 0 30 1q17 3 24 17q-7 15 -24 18h-30q-1 14 3 41t4 38q0 49 -62 47q-36 -20 -90 -20 q-53 0 -90 20v180q24 3 52 3q34 0 99.5 -5t95.5 -5q45 0 78 7l36 -36q31 18 108 18.5t108 17.5q0 -25 1 -30q3 -17 17 -24q15 7 18 24v30h108v-36zM642 108q-2 -37 -44 -37h-18q-12 1 -19 1q-33 0 -45 -18q13 -18 54 -18.5t54 -17.5v-18q-43 19 -126 19q-18 0 -51.5 -1 t-47.5 -1q-16 0 -27 1q14 10 17 55q3 35 37 35q12 2 30 -9.5t28 -11.5q7 0 14 3q16 7 16 14q0 4 -9.5 14.5t-9.5 17.5q0 4 3 8q9 -2 22 -2q10 0 31.5 2.5t32.5 2.5q44 0 58 -39z" />
<glyph unicode="U" horiz-adv-x="853" d="M283 790q-7 -20 -54 -20t-54 20h108zM806 429q-4 2 -7 2q-6 0 -29 -20q3 -8 3 -15q0 -21 -30 -34q-40 -18 -45 -23l36 -36l-72 -36q24 -15 61 -23q32 -7 65 -13q-5 -6 -58 -26q-45 -17 -50 -46q11 -18 32 -18q12 0 30 7q14 5 28 11q-28 -126 -235 -162q-12 3 -33 3 q-16 0 -57 -3.5t-63 -3.5q-93 0 -117 58q7 15 45 20q31 4 27 34l-54 54q-15 -12 -47 -58q-19 -27 -61 -32q-9 13 -9 25q0 16 22.5 39t22.5 35q0 13 -18 27q-25 -31 -44 -31q-14 0 -39 24t-43 25v36q10 -3 21 -3q52 0 69 57q-26 14 -51 27q-30 13 -57 9q-3 27 54 36 q7 -14 18 -14t28 13l26 19q-25 13 -49 26q-29 13 -54 13q-11 0 -23 -3v217q3 -1 6 -1q7 0 30 19q-14 7 -17 23q-1 5 -1 31q23 -16 60 -16q26 0 75.5 9.5t68.5 9.5q55 0 55 -59q0 -22 -7 -52v-253h-30q-17 -3 -24 -18q34 -51 69 -101q46 -64 103 -64q13 0 26 3q27 26 53 51 q31 31 37 57l-18 18l36 36l-18 18q6 -1 11 -1q25 0 62.5 47t71.5 44l-40 34q-27 21 -48 21q-20 0 -39 -18h-18q-3 6 -3 13q0 12 10 32.5t10 26.5q0 16 -35 18l20 38t30 19q10 0 23 -3q8 -9 23 -9q29 0 67 27q-22 19 -65 19q-10 0 -30 -1t-29 -1q-12 0 -21 1q-1 3 -1 7 q0 6 19 29q-17 8 -17 21q0 7 9.5 24.5t7.5 26.5q13 -1 28 -1q13 0 40 1t40 1q59 0 91 -19q13 2 15 20t11 18q4 0 10 -2q-8 -25 -8 -49q0 -16 5.5 -47t5.5 -51q0 -16 -3 -33h-31q-16 -3 -23 -18q15 -7 18 -24v-30l-18 -18q3 -3 22 -23q13 -15 24 -15q4 0 8 2v-55zM229 592 q-7 3 -13 3q-11 0 -29 -11.5t-30 -9.5q4 1 10 1q5 0 15.5 -1t15.5 -1q23 0 31 19zM553 87q-6 1 -15 1q-7 0 -22 -1t-23 -1q-33 0 -48 19q8 -21 64 -21q20 0 44 3z" />
<glyph unicode="V" horiz-adv-x="861" d="M791 777q-10 -24 -18 -80.5t-18 -80.5q-17 -40 -54 -55l18 -18l-54 -72q8 -21 8 -44q0 -36 -31.5 -110.5t-30.5 -116.5q-33 -13 -45 -71q-14 -73 -28 -91q-23 2 -86 -17q-67 -19 -98 -19q-61 0 -86 54q-13 13 -26 27.5t-13 29.5q0 7 3 15l18 18q-23 19 -29 19q-4 0 -7 -1 l54 54q-25 38 -71 38q-9 0 -19 -2l36 36q-37 20 -46 28q-16 14 -26 45q20 -5 36.5 16.5t16.5 47.5q0 39 -35 44q31 1 61 1q33 6 47 35q-12 19 -27 19q-9 0 -27 -10.5t-28 -10.5q-14 0 -26 20q-9 -18 -21 -18q-7 0 -24.5 9.5t-26.5 8.5l-18 54q1 13 45.5 19t44.5 22 q0 11 -18 31h-36q-3 11 -3 21q0 53 57 69l72 -72q19 23 19 29q0 4 -1 7l54 -36q2 -72 35 -166q28 -79 55 -159l90 55q-23 19 -29 19q-3 0 -7 -1q14 69 27 139q23 83 81 83q17 0 37 -6q19 23 19 29q0 3 -1 7q-35 -2 -46 18q-5 8 -9 45q-3 31 -18 45h73q-2 -3 -2 -7 q0 -6 20 -29q19 23 19 29q0 4 -1 7q3 1 7 1q6 0 29 -19q12 20 26 20q9 0 27.5 -10.5t27.5 -10.5q15 0 27 19zM575 290l-91 18q10 2 27 -7.5t25 -9.5q12 0 20 17z" />
<glyph unicode="W" horiz-adv-x="1134" d="M1070 577l-54 -36q23 -19 29 -19q4 0 7 1q-10 -26 -18 -87t-18 -86q-16 -44 -54 -62q-3 -7 -3 -14q0 -13 11 -34.5t11 -30.5q0 -16 -19 -29q-3 -1 -7 -1q-6 0 -29 19q-6 -26 -31 -32q-31 -8 -41 -22q72 -18 90 -90q-10 -2 -31.5 -19.5t-33.5 -17.5q-13 0 -25 19 q-24 -36 -61 -36q-22 0 -68.5 18t-68.5 18q11 13 63 28q42 12 45 44q-20 -4 -35 -4q-45 0 -67 33q-11 18 -27 75q-14 53 -33 76v37q3 -2 6 -2q7 0 30 20l-54 36q-68 -173 -73 -343q-21 -30 -66 -30q-7 0 -20.5 1t-20.5 1q-23 0 -37 -8q-10 -6 -20 -6q-12 0 -32 12.5 t-29 12.5q-14 0 -27 -19q-58 28 -54 144q3 -1 7 -1q6 0 29 19q1 4 1 7q0 6 -19 29h-36q-3 11 -3 21q0 20 15 45q21 33 24 43q-8 19 -31 19q-5 0 -15.5 -1t-15.5 -1q-6 0 -10 1q6 11 6 22q0 15 -12.5 38.5t-12.5 34.5q0 16 19 31q-31 19 -46 80l-26 100l36 36q-57 11 -57 85 q0 12 3 23q21 3 43 3q43 0 106 -15q82 -21 103 -24l-54 -36q7 -14 24 -17q5 -1 30 -1q-10 -19 -10 -40q0 -28 25.5 -82.5t25.5 -84.5q0 -33 -23 -63l54 -54q3 13 24 65q15 39 15 68q0 14 -3 29q4 -1 7 -1q6 0 29 19q-19 12 -19 26q0 10 10.5 28t10.5 27q0 15 -20 27 q9 18 40 18h7.5h7.5q38 0 35 36q4 1 7 1q6 0 30 -19q19 8 19 31q0 5 -1 15.5t-1 15.5q0 6 1 10q40 19 67 19q39 0 51 -44q5 -19 8 -91q3 -60 18 -82l-18 -18q30 -16 46 -71q13 -46 26 -91q10 13 17.5 51t14.5 52q14 24 44 24q6 0 14 -1l-54 36l90 36q-7 19 -31 19 q-5 0 -15.5 -1t-15.5 -1q-6 0 -10 1l18 54q6 -1 23 -20.5t32 -19.5q8 0 17 4q29 14 29 32q0 10 -12 28q-14 22 -17 30h-72q13 3 29 33q15 27 36 27q11 0 25 -6q4 -88 108 -144l-18 -18q23 -19 29 -19q4 0 7 1zM511 505v36l-36 -36l-18 18v-18h54z" />
<glyph unicode="X" horiz-adv-x="956" d="M875 26h-72q1 3 1 6q0 7 -19 30q-41 -57 -144 -57q-18 0 -36 3l-56 96q-38 65 -71 102l-108 -180q-19 3 -39 3q-33 0 -93.5 -12.5t-94.5 -12.5q-22 0 -43 4q-3 12 -3 24q0 51 75 120q25 -4 49 18q15 13 40 47t37 43q-23 19 -29 19q-4 0 -7 -1q57 53 57 125q0 27 -9 78 q-10 58 -12 86q-12 16 -43 21q-36 5 -47 15v36q4 1 10 1q5 0 15.5 -1.5t15.5 -1.5q24 0 31 20q-11 19 -39 19q-6 0 -19 -1t-19 -1q-8 0 -13 1v18l126 -18q-1 -4 -1 -7q0 -6 19 -29l54 54q-23 16 -77 22q-63 8 -79 14q-38 14 -42 54q70 -4 141 -8q80 -12 93 -64l-18 -18 q7 -14 24 -17q5 -1 30 -1l-18 -54q29 0 87.5 -18t86.5 -18q47 0 79 36q-1 4 -1 10q0 5 1 15.5t1 15.5q0 23 -19 31q-20 -23 -20 -29q0 -4 2 -7q-11 -5 -19 -5q-18 0 -30 29.5t-24 29.5q20 23 20 29q0 3 -1 7h36q-2 -4 -2 -7q0 -6 20 -29q15 7 17 23q1 2 1 31h54 q-4 -12 -4 -21q0 -25 39 -31q45 -7 55 -20q1 -38 -36 -38q-5 0 -16 1t-17 1q-29 0 -39 -18l36 -54q-29 0 -31 -1q-16 -2 -23 -17q15 -7 17 -24q1 -2 1 -31q-10 -2 -22 -2q-11 0 -32.5 2.5t-31.5 2.5q-44 0 -59 -39q11 -19 39 -19q6 0 19 1t20 1t13 -1q-10 -30 -26 -45 q-9 -7 -47 -27l55 -36l-163 -36q22 -25 55 -25q5 0 15 1h15q25 0 42 -12q14 19 48 19q7 0 22 -1t23 -1t15 1l-36 -36l72 -54q-8 -1 -18 -1q-8 0 -25.5 1t-26.5 1q-38 0 -56 -19v-18q25 -19 74 -19q11 0 33 1t32 1q13 0 23 -1q-1 -4 -1 -7q0 -6 19 -29q6 1 11 1q23 0 37 -35 q21 -52 24 -56zM388 206q-3 1 -7 1q-6 0 -29 -19q3 18 -9.5 27.5t-31.5 9.5q-7 0 -13 -1z" />
<glyph unicode="Y" horiz-adv-x="925" d="M831 750q3 -9 3 -16q0 -20 -30 -33q-40 -18 -46 -23q23 -20 30 -20q3 0 6 2q3 -9 3 -15q0 -23 -32 -23q-5 0 -17 1t-18 1q-34 0 -44 -18l-18 18q-18 -40 -49 -37q-28 10 -57 19q-34 9 -56 -18q30 -31 105 -34q83 -4 111 -21q7 -33 -40 -47q-22 -7 -92 -12q-51 -5 -51 -15 q0 -14 75 -52h36q6 -70 -42 -90q-3 -1 -103 -18q-67 -11 -89 -54q16 -73 125 -73q15 0 37 1q2 -27 -54 -36l-18 18q-19 -23 -19 -29q0 -26 31 -26q47 0 42 1q-3 -16 -54.5 -18.5t-51.5 -20.5q0 -12 16 -33h36l-180 -18q-12 29 -12 66q0 38 16 111t16 104q0 93 -110 115 l54 36q-8 19 -31 19q-5 0 -15.5 -1t-15.5 -1q-6 0 -10 1q0 11 29.5 22.5t29.5 29.5q0 9 -5 20q-15 20 -49 20q-7 0 -22 -1t-22 -1q-9 0 -16 1v36q8 1 18 1q8 0 25.5 -1.5t26.5 -1.5q39 0 57 20l-54 54q-14 -3 -16 -21t-10 -18q-4 0 -11 3h-72q14 13 17 39q1 6 2 43 q0 52 35 62q-1 -36 55 -60q63 -27 72 -48l54 36q36 -13 36 -61q0 -7 -1 -22.5t-1 -22.5q0 -54 56 -57q23 13 36 44q18 42 22 47q16 21 50 18q-14 7 -17 23q-1 5 -1 31q26 0 30 1q17 3 24 17v54l54 -54q15 7 18 23v31zM578 209h-72v36q12 2 30 -9.5t29 -11.5q6 0 13 3v-18z " />
<glyph unicode="Z" horiz-adv-x="946" d="M243 767q2 -35 -19 -35q-14 0 -32 13.5t-21 21.5h72zM874 45l-72 -36q-17 29 -33 58q-24 41 -58 41q-16 0 -36 -9q-25 -72 -98 -72q-22 0 -69.5 8t-70.5 8q-55 0 -86 -34q-7 3 -20 3q-10 0 -36 -2.5t-41 -2.5q-62 0 -83 38q4 -1 9 -1q19 0 60 29.5t65 29.5q23 0 46 -22 q15 7 18 24v30q-29 20 -91 20q-14 0 -38 -1t-33 -1q-11 0 -18 1v-37q-28 18 -28 39q0 18 25 51q32 41 39 55q9 -4 18 -4q17 0 37 16q27 20 35 24q-4 5 -4 13q0 19 30 62q39 55 46 69q41 -5 57 21l22 58q14 36 47 47q-7 15 -23 18h-31q-8 41 -52 55l-74 20q-38 18 -36 69h-18 q-3 18 9.5 28t31.5 10q7 0 13 -1q19 -40 60 -37q39 9 78 19q49 9 78 -19q31 31 61 31q22 0 63 -23.5t64 -23.5t47 16q56 -9 54 -36l-18 -18q37 -25 37 -70q0 -9 -1 -20l-54 -36q1 4 1 8q0 11 -15 24q-20 19 -22 22l-72 -36q7 -19 30 -19q5 0 16 1t16 1t10 -1l-145 -36 q13 -40 38 -36l44 18q28 9 45 -18q-7 -26 -38 -57q-26 -25 -53 -51q-7 -1 -17 -1q-8 0 -25.5 1t-26.5 1q-39 0 -57 -19q8 -19 31 -19q5 0 15.5 1t15.5 1q6 0 10 -1q-25 -28 -51.5 -56.5t-74.5 -33.5q-3 -16 -54.5 -18.5t-51.5 -20.5q0 -12 16 -33q23 19 29 19q4 0 7 -1 l18 -18h253q-4 -30 27 -34q38 -5 45 -21zM243 676l-72 18h72v-18z" />
<glyph unicode="a" horiz-adv-x="816" d="M777 90h-35q4 11 4 19q0 18 -22 30q-32 18 -35 22q-28 -36 -77 -36q-29 0 -94 18t-95 18q-7 -32 -49 -36q-37 -2 -73 -3q-38 -8 -38 -51q0 -7 1 -16h-35v29q-3 17 -18 24q-8 5 -17 5q-10 0 -26 -12t-23 -12q-12 0 -22 19q-12 -20 -26 -20q-15 0 -36 27.5t-27 27.5 q165 26 213 106q-7 15 -24 18h-29v17h35q-1 -3 -1 -6q0 -6 19 -29q3 -1 6 -1q6 0 29 19q-11 24 -23 49q-16 27 -40 27q-11 0 -25 -5l-36 106h30q16 4 23 17v30q-3 16 -17 23h-18q-4 12 -4 21q0 29 44.5 42t44.5 29q0 12 -14 32q-23 -19 -29 -19q-3 0 -5.5 2.5t-2.5 5.5 q0 6 19 29q3 1 7 1q6 0 28 -19q19 9 19 22q0 12 -18 30t-18 19q16 23 57 13q58 -14 61 -14q27 3 23 54q-11 1 86 1q48 0 73 -19v-71q-3 2 -7 2q-6 0 -28 -19q43 -3 67.5 -26.5t24.5 -63.5q0 -16 -4 -34q8 1 -59 1q-32 0 -47 -19q18 -37 66 -37q12 0 35 2t34 2q14 0 24 -2 l36 -159q7 1 -59 1q-33 0 -47 -19q-5 -36 19 -56q26 -16 51 -32h89l-53 -36q60 -25 62 -27q26 -18 26 -61zM724 55q-8 -18 -37 -29.5t-62 -11.5q-81 0 -78 58zM123 37l-53 18h53v-18zM459 302q-21 74 -21 96q0 15 3 46l-35 35q4 -13 4 -24q0 -29 -41 -57.5t-41 -48.5 q0 -19 25 -47q24 -19 58 -19q32 0 48 19zM388 161v17h-71z" />
<glyph unicode="b" horiz-adv-x="928" d="M829 177q-2 -26 -28.5 -46.5t-26.5 -43.5q0 -7 2 -16q-19 -2 -43 -2q-20 0 -61 2.5t-61 2.5q-86 0 -118 -38q-20 6 -41 6q-19 0 -49.5 -6.5t-41.5 -6.5q-28 0 -45 25q-14 -7 -17 -24q-1 -4 -1 -29q-22 5 -44 11q-28 6 -46 6q-31 0 -51 -17l35 35q-48 15 -48 45 q0 14 11.5 40.5t11.5 37.5q0 27 -46 36q19 70 89 88q-16 56 -68 56q-10 0 -21 -3v283q4 -1 8 -1q11 0 24 14q18 21 21 23q-6 15 -23 17h-30v36q12 -1 23 -1q46 0 113 28.5t103 28.5q38 0 80 -21q53 20 123 20q71 0 124 -20q-1 -3 -1 -7q0 -6 19 -28h53q-33 -20 -100 -20 t-112 20q-23 -19 -29 -19q-3 0 -7 1l-35 35q-6 0 -58 10t-87 10q-17 0 -32 -2l-18 -18q8 -18 31 -18q45 0 40 1l-88 -36q7 -18 30 -18q45 0 41 1q-2 -4 -2 -7q0 -6 19 -29q60 36 130 36q59 0 165 -32q115 -35 165 -39l-53 -53q22 -19 28 -19q4 0 7 1q0 -41 -36 -60l-70 -28 q35 1 61 -26q8 -8 38 -55q21 -34 43 -43q1 -12 -10 -29t-11 -28q0 -7 3 -14q-14 19 -30 19q-13 0 -38.5 -17t-37.5 -19q14 -35 54 -36h70zM563 513q-14 13 -23 34q-6 18 -12 37q-33 -13 -126 -22q-82 -8 -122 -31q11 -5 23 -5q14 0 37.5 10.5t33.5 10.5q17 0 30 -16 q1 -4 1 -7q0 -6 -18 -28q18 -10 18 -23q0 -12 -18 -29.5t-18 -18.5q15 -10 26 -10q16 0 29.5 23.5t22.5 23.5q11 0 28 -19q28 -2 44 35t44 35zM616 390h-29q-17 3 -24 17v-35q-14 -7 -55 -46q-33 -32 -66 -32q-17 0 -38 7v-106q15 -3 31 -3q24 0 73 12q46 10 73 9l-18 53 q12 22 23 39q8 11 8 14q0 2 -8 13q-11 17 -23 40q7 15 24 17q1 1 29 1zM227 230l-70 -17h53z" />
<glyph unicode="c" horiz-adv-x="864" d="M803 579l-88 -53q19 -23 19 -29q0 -3 -1 -7l-36 36q-13 -3 -15 -20.5t-10 -17.5q-4 0 -10 2q-14 -1 -25 -1q-26 0 -39.5 12t-23.5 43l17 17q-36 17 -72 35q-45 19 -78 19t-62 -18q-19 -23 -19 -29q0 -3 1 -7q-11 -1 -28.5 10t-28.5 11q-6 0 -13 -3q-18 -13 -18 -28 q0 -10 10 -30.5t10 -33.5q0 -7 -2 -14l-53 53q-19 -14 -19 -30q0 -13 17.5 -38.5t18.5 -37.5q21 9 34 9q20 0 20 -33v-10.5v-11.5q0 -34 17 -43l-88 -35q3 -2 21 -22q13 -14 24 -14q4 0 8 1q3 -36 -35 -36h-7.5h-7.5q-30 0 -39 -17q28 2 34 -18q2 -19 5.5 -38t31.5 -15 l18 18l-18 17q0 16 19 18t37 3q18 7 15 32q15 -4 47 -39q29 -32 48 -32q22 0 46 36q17 -6 31 -6q32 0 51 32q8 13 24 62v18q20 -16 44 -16q16 0 49.5 10.5t53.5 10.5q15 0 30 -5l-18 -124q-3 -1 -6 -1q-6 0 -29 19q-2 -37 -43 -37q-6 0 -18 1t-18 1q-33 0 -45 -18 q25 -19 73 -19q97 0 86 1q-16 -2 -34 -40t-43 -38q-12 0 -29 7q-68 31 -175 19q-155 -17 -166 -17q-87 3 -136 69q29 -4 33 27q5 37 20 44q-23 19 -29 19q-3 0 -6 -1q-14 -7 -17 -24q-1 -4 -1 -29q-13 -4 -22 -4q-20 0 -30 18.5t-19 38.5l18 17q-26 0 -32 15q-3 7 -3.5 36 t-17.5 38l53 35q-7 15 -23 17q-2 1 -30 1q-1 3 -1 6q0 6 19 29q-19 7 -19 30q0 46 1 41q3 -1 7 -1q6 0 28 18q-7 34 -7 58q0 51 43 102q18 27 36 27q8 0 27.5 -7t33.5 -7q13 0 26 4q26 15 61 65q27 40 58 40q24 0 58 -16q-1 5 -1 -41q0 -23 19 -30l35 35q-14 7 -17 24 q-1 4 -1 29q18 19 56 19q77 0 68 -1q1 -3 1 -7q0 -6 -18 -28l146 -56q83 -40 83 -121zM520 -5h-141q12 18 64 20q58 2 77 16v-36z" />
<glyph unicode="d" horiz-adv-x="944" d="M305 803q-6 -1 -37 -18.5t-50 -17.5q-21 0 -37 18l-17 -18l-36 36h177zM871 485q-3 -13 0 -55q2 -37 -5 -51q-11 -22 -48 -18h-30q-17 -3 -23 -18q7 -19 30 -19q45 0 40 1q-38 -15 -38 -33q0 -10 20.5 -33t20.5 -36q0 -20 -38 -38.5t-110 -24.5q-103 -8 -120 -11 q17 -41 52 -41q10 0 36 4.5t42 4.5q15 0 29 -4q-65 -72 -249 -72q-26 0 -69 2q1 3 1 6q0 6 -19 29q-10 -3 -32.5 -19.5t-32.5 -16.5q-16 0 -23 36q-19 -23 -19 -29q0 -3 1 -6q-20 -8 -36 -8q-36 0 -68 39q-43 50 -55 57v35q25 0 30 1q16 3 23 17v30q-3 16 -17 23 q-19 -23 -19 -29q0 -3 1 -6q-21 11 -21 58q0 45 21 65l18 18q-23 19 -29 19q-3 0 -7 -1v35q8 -2 15 -2q15 0 29 12.5t27 25.5q-32 26 -45 49q-2 3 -26 57q4 1 7 1q6 0 29 -19q19 19 43 19q15 0 45 -10.5t45 -10.5q24 0 43 20q-19 35 -80 35q-12 0 -34.5 -1.5t-32.5 -1.5 q-66 0 -66 54q0 9 1 20q12 16 57 20q39 3 49 33q-7 14 -23 17h-30q21 0 81.5 18t91.5 18q50 0 75 -36h35q-1 -3 -1 -6q0 -6 19 -29l53 18q-1 -4 -1 -7q0 -6 18 -29q4 -1 7 -1q6 0 29 19l-53 124q37 4 90 -22q59 -29 87 -31l-53 -36q22 -30 77 -35q72 -6 82 -11 q37 -16 35 -77q-5 -36 -40 -36q-13 0 -37.5 5.5t-31.5 5.5q-15 0 -15 -13q0 -15 18 -51q11 13 22 13q10 0 33 -19t42 -19q13 0 27 8zM659 432l-71 53l35 35q-36 2 -47 42q-16 56 -24 64q-11 -39 -41 -35q-29 8 -59 17q-37 9 -59 -17l18 -18q8 -23 8 -40q0 -36 -35 -52 q-20 -8 -73 -16q-47 -6 -59 -16q-11 1 86 1q48 0 73 -18q1 6 1 -51q0 -27 -19 -38q-3 -1 -6 -1q-6 0 -29 19q-19 -15 -19 -23q0 -5 19 -15t19 -24q0 -4 -1 -9q-11 -19 -38 -19q-57 0 -51 1l18 -17q10 19 38 19q57 0 50 -2q19 -22 19 -28q0 -3 -1 -7q22 -4 40 -4q36 0 77 21 q54 29 78 36l-18 18q-4 22 19 30q29 10 34 23h-18q-19 22 -19 28q0 4 2 7q29 19 58 39v0q-1 -1 -5 -3zM464 166q-50 10 -88 10t-89 -10q-19 23 -19 29q0 3 2 7h-36v-36q26 0 79.5 -17.5t78.5 -17.5q43 0 72 35z" />
<glyph unicode="e" horiz-adv-x="798" d="M721 753l-71 18h71v-18zM597 612l-71 17h71v-17zM756 64l-17 -18l-36 35q-19 -36 -27 -45q-13 -16 -44 -25l-35 35q-7 -19 -30 -19q-45 0 -41 1l-17 18q-19 -23 -19 -29q0 -3 1 -6h-35q-1 3 -1 6q0 6 18 29q-5 1 -10 1q-17 0 -64.5 -21t-80.5 -21q-20 0 -39 6 q-22 -9 -37 -9q-37 0 -51 61q-17 74 -36 89q4 -1 7 -1q6 0 29 19l-36 35q-22 -19 -28 -19q-4 0 -7 1l35 36q-37 24 -37 69q0 9 2 19q11 9 46 15q31 4 42 21q-10 18 -38 18q-57 0 -50 -1q12 14 12 33q0 12 -7.5 40.5t-7.5 44.5q0 12 3 24q-7 -1 50 -1q28 0 38 18 q-24 37 -69 37q-9 0 -19 -1v92q3 60 22 88q25 38 84 32q97 -73 212 -71q19 23 19 29q0 3 -1 7q21 -20 43 -20q25 0 62 28.5t50 28.5q24 0 39 -55h36q-2 -4 -2 -7q0 -6 19 -29h36q3 -12 3 -21q0 -20 -18.5 -30t-37.5 -19l35 35l-71 53q-19 -22 -19 -28q0 -4 1 -7h-35q1 3 1 7 q0 6 -19 28l-78 -36q-42 -25 -45 -70q6 1 -51 1q-27 0 -38 -19v-70l319 -36v-35q6 1 -51 1q-27 0 -38 -19q13 -16 43 -21q34 -5 46 -14q-3 -16 -48 -19.5t-45 -30.5q0 -9 4 -21q-25 16 -93.5 4.5t-100.5 13.5q-3 -9 -24 -42q-15 -25 -15 -44q0 -10 3 -20l18 -18 q-14 -7 -17 -23q-1 -5 -1 -30q23 -19 29 -19q3 0 7 1q14 7 17 24v29h30q17 -2 23 -17q12 19 26 19q9 0 27 -10.5t27 -10.5q15 0 26 19z" />
<glyph unicode="f" horiz-adv-x="790" d="M723 585h-53q-1 3 -1 7q0 12 14 24q20 19 22 22q-7 15 -23 17h-30l18 53q15 0 17 -19t4 -37q6 -18 32 -14v-53zM652 426l-53 17h53v-17zM599 638q-25 -29 -75 -18q-42 8 -84 17q-47 0 -71 -52q19 -8 19 -30q0 -46 -1 -41q-2 -9 -2 -20q0 -31 14 -64q15 -37 41 -57l53 53 q-19 22 -19 28q0 3 1 7q-1 -4 -1 -8q0 -11 9 -20t20 -9q4 0 8 2h53q-19 -61 -19 -74q0 -7 1 -15q-3 1 -7 1q-6 0 -28 -18q22 -19 28 -19q4 0 7 1q-1 -15 -27 -22q-36 -9 -44 -14v54h30q17 3 23 17l-35 53q1 -35 -36 -35h-11h-11q-41 0 -48 -35q3 -3 21 -23q13 -14 25 -14 q3 0 7 1q-4 1 -8 1q-14 0 -32.5 -28.5t-31.5 -28.5q-15 0 -34 21q5 11 5 19q0 17 -23 30q-32 18 -35 22q-7 -15 -45 -20q-30 -5 -26 -34q4 -24 31 -32q4 -1 48 -7q25 -3 25 -15t-15 -34q6 -14 23 -17q5 -1 30 -1q0 -25 1 -29q3 -17 16 -24h18v-35q-3 1 -7 1q-6 0 -28 -19 l17 -53l-176 18q35 21 35 54q0 31 -29 64q-27 29 -60 41h-17q26 121 28 128q22 71 60 102q10 -2 19 -2q45 0 70 37v18q-29 19 -82 19q-107 0 -95 -1v282q23 7 46 7q46 0 123 -39.5t123 -39.5q13 0 26 2q23 19 29 19q3 0 6 -2l-35 -35q22 -18 79.5 -18.5t79.5 -16.5zM175 72 l-53 18h53v-18z" />
<glyph unicode="g" horiz-adv-x="1037" d="M891 117q-32 -36 -86 -36q-29 0 -85 14t-77 14q-67 0 -70 -98q-45 21 -84 21q-25 0 -67 -11.5t-67 -11.5q-39 0 -83 20q-7 18 -78 83q-62 57 -62 98q0 33 34 66q1 4 1 7q0 6 -19 28h-35v89q-6 -1 50 -1q28 0 39 19l-54 53q-18 -23 -18 -29q0 -3 1 -7q-4 -1 -7 -1 q-6 0 -29 19q14 48 27 96q20 67 49 102q39 48 101 49l53 -53l36 53l-71 53q106 40 212 40t212 -40q0 -25 32 -44q36 -20 39 -26h-124q1 3 1 6q0 6 -19 29q-13 -7 -16 -23q-1 -5 -1 -30q22 -19 28 -19q4 0 7 1q1 -3 1 -6q0 -6 -19 -29l36 -35q26 55 112 55q15 0 29 -2 q30 -11 33 -50q4 -44 20 -56l-247 -18q4 37 -20 57q-25 16 -51 31q-25 0 -30 1q-16 3 -23 17l-18 -18q-10 19 -38 19q-56 0 -50 -1l-18 -18q18 -8 18 -20q0 -7 -9.5 -24t-8.5 -26q-20 -13 -20 -66q0 -16 2.5 -54.5t2.5 -56.5q0 -21 -2 -36q-37 -9 -37 -25q0 -10 28.5 -39.5 t28.5 -47.5q0 -6 -3 -11q-7 1 59 1q33 0 47 -19q2 -3 2 -7q0 -6 -19 -28q7 -19 30 -19q45 0 40 1l18 18q-23 19 -29 19q-3 0 -6 -2q34 14 91 73l86 86q-1 1 -26 20q-17 12 -27 12q-11 0 -18 -14v-18h-36v36q26 0 30 1q17 3 23 17q-14 18 -47 18q-66 0 -59 -1v53q25 4 50 4 q32 0 87.5 -8t83.5 -8q42 0 80 12q-1 -3 -1 -7q0 -6 19 -28q22 19 28 19q4 0 7 -1q-19 -13 -19 -27q0 -8 12.5 -28t12.5 -32q0 -10 -6 -20q-3 2 -7 2q-6 0 -28 -19q37 -35 37 -79q0 -9 -2 -30.5t-2 -35.5q0 -16 2 -32zM873 29q-31 -21 -93 -21q-69 0 -83 38q28 -19 81 -19 q108 0 95 2zM714 541zM626 594l-18 18q-1 3 -1 7q0 6 19 28l-18 -17q5 -1 -40 -1q-23 0 -31 18q5 -11 45 -22.5t44 -30.5zM308 453l-142 18q12 -37 62 -37q38 0 80 19z" />
<glyph unicode="h" horiz-adv-x="851" d="M733 774q-13 -35 -41 -35q-14 0 -49 12t-55 12q-17 0 -32 -6v35zM804 85q-8 1 -16 1q-33 0 -88.5 -28.5t-83.5 -28.5q-30 0 -60 21q3 17 38 19q40 3 51 16q8 -9 23 -9q28 0 65 27l18 17q-15 54 -67 54q-16 0 -46 -6.5t-39 -6.5q-23 0 -23 23q0 20 16 60l-124 142 q-17 2 -42.5 -26.5t-37.5 -28.5q-13 0 -26 19q-12 -19 -26 -19q-9 0 -27 10.5t-27 10.5q-14 0 -26 -19q56 -23 56 -82q0 -14 -3 -42t-3 -42q0 -16 3 -29q7 -1 -59 -1q-32 0 -47 19q-1 3 -1 6q0 6 19 29q-21 5 -70 29q-43 21 -72 24q19 60 19 74q0 7 -1 15q-23 18 -29 18 q-3 0 -7 -1l36 36q-23 18 -29 18q-3 0 -7 -1l107 53q-23 19 -29 19q-3 0 -7 -1v18l53 -36l53 71q-12 4 -50 32q-32 22 -52 22q-21 0 -39 -19q-1 4 -1 7q0 6 19 29q-7 14 -24 17h-30q-1 -4 -1 41q0 23 19 30l71 -18q9 11 24 51q13 33 29 38q1 -4 1 -7q0 -6 -19 -29 q17 -15 68 -4t74 -13q-12 -12 -34 -12q-6 0 -17.5 1t-16.5 1q-34 0 -38 -43q-1 -36 42 -36q5 0 14 1h14q39 0 39 -30q0 -10 -3 -24q29 -30 65 -30q16 0 53 9t58 9q18 0 36 -5q19 14 19 47q0 66 -2 59l36 -36q19 23 19 29q0 3 -1 7l35 -53q8 3 34 23q20 15 37 15q8 0 17 -3 q-1 -3 -1 -7q0 -6 19 -28q15 7 17 23q1 1 1 30q-23 19 -29 19q-3 0 -7 -2v18h71q4 -21 4 -38q0 -75 -92 -86l-18 -17q15 -19 47 -19q66 0 59 1q-3 -18 -3 -42q0 -20 3 -62.5t3 -63.5q0 -88 -56 -115q54 -4 54 -64q0 -11 -2 -34.5t-2 -34.5q0 -15 3 -26zM291 50 q-10 -5 -18 -5q-17 0 -29 29t-23 29zM185 32h-124q-2 30 5 43.5t31 27.5q27 -39 69 -39q10 0 19 3v-35zM221 315q-19 22 -19 28q0 4 1 7h-18v-35h36z" />
<glyph unicode="i" horiz-adv-x="440" d="M367 757q-4 -27 -18 -38q-8 -8 -32.5 -15.5t-38.5 -16.5q2 3 2 6q0 6 -19 29q-14 -7 -17 -23q-1 -5 -1 -30q-51 8 -91 33q-47 31 -50 73q16 6 33 6q21 0 57.5 -12.5t54.5 -12.5q26 0 49 19q12 2 30 -9t28 -11q6 0 13 2zM349 598q-26 2 -36 -25l-17 -45q-29 10 -29 29 q0 9 8 32t8 38q0 13 -5 24q11 5 19 5q17 0 29 -29t23 -29zM243 634q-12 -33 -53 -106q-12 -2 -29 9t-28 11q-7 0 -14 -3q0 25 1 30q3 16 17 23q-6 13 -24 20q-14 7 -14 18q0 6 3 15zM367 15l-36 35q-19 -37 -84 -37q-16 0 -48 2t-47 2q-19 0 -33 -2l-17 18q14 6 17 23v30 q7 3 14 3q11 0 31 -9.5t27 -9.5q15 0 17 33q-37 -2 -63.5 21t-26.5 55q0 25 19 48q13 -3 26 -3q25 0 59 15q44 20 56 23l-35 36q-14 -16 -30 -16q-10 0 -33.5 10.5t-38.5 10.5q-11 0 -22 -5l71 35q-27 4 -39 18q-7 9 -14.5 33t-17.5 37q23 2 66 28.5t66 26.5t45 -19 q7 19 30 19q46 0 41 -1v-30q-3 -17 -18 -24q22 -25 22 -40q0 -18 -49 -30q-53 -13 -61 -36q14 -28 47 -33q29 -1 59 -2q-17 -19 -68 -33q-63 -18 -81 -28q-40 -22 -46 -63q13 -53 54 -53q20 0 71 19q48 18 70 17l-71 -53q37 -20 45 -27q16 -14 26 -44z" />
<glyph unicode="j" horiz-adv-x="732" d="M657 295l-106 -35l89 -36q4 -13 4 -26q0 -48 -57 -98l-36 36q-15 -14 -43.5 -54t-47.5 -56q-30 -24 -67 -24q-25 0 -54 10l-17 18q-15 -20 -23 -20q-5 0 -15 19.5t-25 19.5q-4 0 -8 -2q-50 1 -100 1q-57 4 -77 52q-5 12 -5 21q0 20 31 29q38 12 45 21q2 31 44 53t44 53 q-18 55 -97 55q-13 0 -27 -2v18l106 -18q-1 -3 -1 -6q0 -6 19 -29h36q-1 -1 -18.5 -19t-17.5 -30t18 -22l18 18l88 -89q19 8 19 31q0 45 -1 40q25 0 29 1q17 3 24 17q-13 24 -25 48q-13 28 -13 53q0 11 2 23l71 35l-71 53l53 35q-20 5 -36.5 25.5t-16.5 43.5q0 22 18 37 l-18 142l53 -106q33 2 60 57.5t50 55.5q20 0 49 -25q23 19 29 19q3 0 7 -1v-71q-9 -1 -26 8.5t-24 9.5q-13 0 -21 -18v-17q5 -2 -41 -2q-22 0 -30 19q-18 -22 -18 -28q0 -4 1 -7q25 -19 73 -19q97 0 86 1v-53h-30q-16 -3 -23 -18q30 -2 45 -34q13 -27 25 -54l-35 -35l35 -36 q-8 -17 -38 -17h-8h-7q-38 0 -35 -36zM127 224h-71l36 53q26 2 35 -53z" />
<glyph unicode="k" d="M902 748l-53 18h53v-18zM936 18q16 -1 -120 -1q-68 0 -106 19q-7 -19 -29 -19q-45 0 -40 1q-94 112 -87 192q-7 14 -23 17h-29q1 19 -19 38q-17 16 -33 32q-42 -22 -50 -69l-2 -88q-21 17 -53 17q-31 0 -52 -17l-17 -17q17 -19 55 -19q75 0 67 1v-52h-122q1 36 -35 36 h-15q-11 -1 -16 -1q-29 0 -38 17l-18 209q-7 -1 58 -1q32 0 47 18q-15 19 -47 19q-65 0 -58 -1v121q-4 -1 40 -1q23 0 30 19l-70 52q12 9 46 14q30 4 41 21q-9 8 -23 36q-13 23 -29 33h-35q-1 -5 -1 40q0 22 19 30l-18 17q24 18 56 18q21 0 70 -12t77 -12q21 0 41 6 q-2 -12 -38.5 -20t-36.5 -29q0 -9 5 -21l35 -34l17 17l35 -87q73 -5 102 52l38 106q29 56 103 51l191 -52q-9 -40 -62 -82q-45 -35 -90 -71q-47 -42 -47 -86q0 -19 8 -39q-5 -13 -41 -40q-31 -23 -31 -43q0 -17 20 -39q15 7 17 23v29q10 -3 48 -23q29 -15 51 -15q11 0 23 3 l70 -139q-18 19 -55 19q-75 0 -67 -1q-7 -16 -7 -27q0 -28 51 -28q9 0 32 1.5t34 1.5q47 0 64 -18l-35 -52zM762 661v53l-52 -53h52zM676 158h-87q52 -18 57 -18q19 0 30 18z" />
<glyph unicode="l" horiz-adv-x="704" d="M654 203q2 -15 2 -25q0 -46 -54 -62q-13 -4 -25 -4q-14 0 -36.5 6t-31.5 6q-25 0 -46 -25q17 -19 54 -19q76 0 67 1v-52h-521q-20 42 -20 68q0 39 46 47q44 4 87 7q47 4 47 32q0 9 -4 20l-52 -18q1 -4 1 40q0 23 -18 30h-29q-17 -3 -23 -17v-18q-27 9 -33 49q-2 12 -2 73 q12 -2 24 -2q75 0 80 54q-5 29 -42 44q-31 13 -62 25q-3 62 40 91q28 17 99 31q-23 23 -46 45q-32 31 -63 31q-15 0 -30 -6q5 22 50 45q40 21 37 59q-11 1 85 1q47 0 71 -19q-6 -34 -62 -37q-62 -3 -77 -32q16 -18 54 -18q5 0 16 1h16q37 0 53 -18v-69q-34 17 -62 17 q-31 0 -78 -29q-53 -33 -86 -40q28 -37 90 -37q14 0 44 2t44 2q17 0 31 -2l-35 -35q56 -9 56 -72q0 -14 -3.5 -44.5t-3.5 -45.5q0 -17 3 -29h-29q-16 -3 -23 -17q-3 -9 -3 -18q0 -16 15 -36q20 -26 23 -33q119 54 299 54q33 0 66 -2z" />
<glyph unicode="m" d="M966 586h-35q9 55 35 52v-52zM236 777q-7 -19 -52 -19q-46 0 -52 19h104zM966 82h-29q-17 -2 -23 -17q22 -19 28 -19q3 0 6 2v-18l-34 35q-16 -38 -65 -38q-40 0 -74 21q-36 35 -36 127v39q1 26 1 39q0 70 -17 107q-40 -67 -58 -141q-14 -77 -29 -154q-11 6 -23 6 q-18 0 -48 -21t-40 -21q-18 0 -28 36q-20 -7 -35 -7q-30 0 -42 32q-5 15 -11 69q-5 45 -17 62l-52 139l-17 -243q7 1 -58 1q-32 0 -46 -18q8 -18 52 -18q-18 -5 -58 -22q-27 -12 -48 -12q-27 0 -68 17l52 35q-7 14 -23 17h-29v87q3 -1 7 -1q6 0 28 18q-22 19 -28 19 q-4 0 -7 -1q-1 3 -1 6q0 6 18 29q-18 7 -18 29q0 45 1 40q-5 -1 40 -1q22 0 30 18q-72 -3 -72 91q0 15 2 31q-6 -1 50 -1q27 0 37 18q-10 19 -37 19q-56 0 -50 -1v35q28 0 29 -1q16 -2 23 -17q18 12 18 31q0 11 -7 29q-5 14 -11 27l52 17q-1 -3 -1 -6q0 -6 19 -28q9 8 23 36 q12 24 29 33q-22 19 -28 19q-4 0 -7 -1v17q3 1 7 1q6 0 28 -18q16 -2 46.5 7.5t45.5 9.5q25 0 47 -17l35 -35l-70 -35q122 -33 139 -243l17 -18q13 25 26 49q13 29 9 56q28 28 44 116q16 93 43 127q2 0 115 23q76 15 130 15q26 0 50 -3v-52q-14 4 -26 4q-24 0 -52.5 -29 t-60.5 -28q20 -48 75 -84q62 -41 82 -72q-27 -23 -18 -69q9 -40 18 -81q4 -48 -35 -76q37 -12 37 -67q0 -13 -2.5 -40t-2.5 -40q0 -15 3 -27zM827 239zM271 499q2 26 -25 36q-44 16 -45 17l35 -35l-17 -18h52zM271 360l-35 35l-69 18zM288 187v34q-13 -13 -28 -13 q-18 0 -47 21q-34 23 -46 27q18 -37 54 -47q58 -17 67 -22z" />
<glyph unicode="n" horiz-adv-x="901" d="M791 719q-16 17 -58 17h-10.5h-10.5q-53 0 -60 35q-10 1 76 1q43 0 63 -18v-35zM843 59q-28 -38 -102 -38q-47 0 -141 20l-174 226q16 17 16 29q0 10 -27 30.5t-24 45.5q-3 -1 -6 -1q-6 0 -28 18q-19 -7 -19 -30q0 -44 1 -39q5 1 -40 1q-22 0 -29 -19q6 -9 45 -33 q31 -18 31 -42q0 -13 -7 -29h-29q-16 -3 -23 -17q-1 -4 -1 -7q0 -6 19 -28l17 17q18 -5 18 -40q0 -71 -1 -64q-3 -1 -6 -1q-6 0 -28 18q-19 -22 -19 -28q0 -3 1 -7l-69 53q-13 -3 -15 -20t-10 -17q-4 0 -10 2q-14 -2 -25 -2q-44 0 -62 54v52q43 0 52 18q1 3 1 6q0 6 -18 28 h-35v52q-6 -1 50 -1q27 0 37 19q-24 36 -68 36q-9 0 -19 -1v52q-6 -1 50 -1q27 0 37 18q1 3 1 7q0 6 -18 28q-19 -8 -31 -8q-23 0 -27 37q-6 49 -12 58l35 34q-37 5 -37 51q0 10 2 33t2 33q0 13 -2 22q48 90 192 90q25 0 51 -3q34 -67 112 -172q66 -87 132 -175q4 12 4 33 q0 17 -4.5 60t-4.5 65q0 95 74 102q-7 15 -23 18h-29v17q16 -8 98 -13q62 -4 76 -39q6 15 22 17h30q10 -17 10 -36q0 -9 -3 -25.5t-3 -24.5q0 -19 13 -35q-36 -16 -36 -57q0 -29 19 -47l17 -18q-52 -11 -52 -57q0 -9 2 -26.5t2 -25.5q0 -44 -56 -47l-17 -18l-35 35l-35 -52 q31 -20 78 -20t78 20v17q4 2 7 2q6 0 28 -19h-29q-16 -3 -23 -17q5 -13 33 -23q23 -7 19 -29l-35 -35l18 -18l-191 -34q27 -18 81 -18h23q16 1 23 1q54 0 81 -18z" />
<glyph unicode="o" horiz-adv-x="972" d="M888 312q-16 -98 -86 -174q11 1 -85 1q-47 0 -72 -18q9 -18 52 -18q-1 -3 -1 -6q0 -6 19 -28h34v-18q-43 0 -52 18q-5 -25 -29 -32q-30 -8 -40 -21l-76 22q-47 13 -79 13q-40 0 -71 -17q-32 -37 -73 -37q-7 0 -14 2l-52 70q-5 -2 40 -2q31 0 31 26q0 5 -19 28 q-20 0 -53 35.5t-48 35.5q-20 0 -38 -37l-70 87l18 18q-19 17 -19 37q0 11 8 33t8 33q0 19 -15 36l53 34q-7 15 -23 18h-30v52q44 0 53 17q-18 17 -18 39q0 18 13 43l22 40q135 120 261 122q-1 -4 -1 -7q0 -6 18 -28l35 52q-1 -3 -1 -7q0 -6 18 -28l18 18q-3 -37 31 -48 q32 -7 65 -13q38 -11 43 -44l69 53q1 -4 1 -7q0 -6 -18 -28q10 -19 37 -19q56 0 50 1q-1 -15 -27 -21q-36 -9 -43 -13q-13 34 -36 34q-14 0 -43.5 -17t-42.5 -17q-3 1 -6 1q-6 0 -28 -19q45 -18 130 -18q144 0 130 1l35 -87q-6 -3 -13 -3q-11 0 -31 9.5t-26 9.5 q-15 0 -17 -33q14 -14 43 -18q34 -4 43 -8q18 -10 18 -44v-35q10 1 -76 1q-42 0 -63 -18q11 -18 38 -18q56 0 49 1q-1 -4 -1 -7q0 -6 19 -28h34zM645 555h-52q-18 22 -18 28q0 3 1 7q-28 -19 -81 -17q-43 4 -85 9q-40 4 -43 -10q19 -6 19 -19q0 -16 -25 -37v0q1 0 6 4 q1 10 1 -103q0 -70 -18 -105q5 -1 -40 -1q-23 0 -30 18q1 -3 1 -6q0 -6 -18 -29q-44 0 -52 18q-22 -19 -28 -19q-4 0 -7 1q28 -17 82 -17h21q14 1 21 1q72 0 102 -36v-29q-3 -16 -17 -23q11 -19 25 -19q9 0 26.5 10.5t26.5 10.5q14 0 26 -19l17 17h29q17 -3 23 -17 q3 2 21 22q13 14 24 14q4 0 7 -1q-22 16 -22 26q0 8 22.5 17t22.5 17q0 10 -23 26q18 32 18 69q0 31 -16 87q-17 60 -19 88q7 14 23 17h29z" />
<glyph unicode="p" horiz-adv-x="834" d="M767 448q4 1 -40 1q-23 0 -30 -19v-34q-16 18 -36 18q-10 0 -28 -6.5t-26 -6.5q-19 0 -32 29l-52 -52l35 -35q10 19 37 19q56 0 50 -1l17 -18q7 19 30 19q45 0 40 -1q-35 -45 -104 -65q-46 -14 -137 -22q-104 -10 -141 -17q-19 -15 -19 -47q0 -65 1 -58q-15 36 -83 36 q-11 0 -21 -1q-17 -9 -17 -52q3 -2 21 -22q12 -14 24 -14q3 0 7 1q4 -9 4 -17q0 -18 -23 -37q-29 -25 -33 -33q-41 0 -82 -1q-45 3 -40 53q1 4 1 7q0 6 -19 28q19 7 19 30q0 44 -1 40q43 0 52 17q-26 4 -38 18q-7 8 -14.5 32t-17.5 37q4 -1 7 -1q6 0 28 18q-1 17 -14 58 q-12 38 -12 57q0 45 61 59q1 3 1 7q0 6 -18 28h-35q-1 3 -1 6q0 6 18 29q-2 3 -22 21q-14 12 -14 24q0 3 1 7q7 14 23 17h30q-8 -1 86 -1q60 0 87 18q-22 19 -28 19q-3 0 -6 -1l34 35q-7 3 -33 22q-20 15 -36 15q-9 0 -17 -3q1 4 1 7q0 6 -19 28q-8 -3 -33 -23 q-20 -15 -37 -15q-8 0 -17 3l-17 52h486q2 -8 -7.5 -25t-9.5 -24q0 -12 17 -20q35 23 59 23q20 0 40 -17q20 -21 40 -41l35 -52q5 1 -40 1q-22 0 -29 -18q40 0 59 -36q14 -34 28 -69v-34zM645 482q-19 -6 -37 -6q-42 0 -103.5 53t-103.5 53q-24 0 -51 -13v-121h52 q18 -23 18 -28q0 -4 -1 -7h70l-18 17q16 40 72 49q4 1 102 3zM176 48v17h-52z" />
<glyph unicode="q" horiz-adv-x="906" d="M849 444q1 5 1 -40q0 -22 -18 -29q1 -11 1 -24q0 -89 -36 -150h-29q-16 -3 -23 -17q2 -21 34.5 -52.5t34.5 -52.5q-35 20 -87 20q-51 0 -86 -20q-6 -45 -31 -45q-7 0 -26 6t-29 6q-22 0 -36 -19q13 -1 -130 -1q-86 0 -131 19l-34 86l-53 -34q-45 43 -60 64q-28 37 -28 77 q0 7 1 15l18 17l-52 35l104 35l-104 52q43 0 52 18q-7 14 -23 17h-29q-3 19 -3 37q0 93 61 170q36 45 133 123q56 19 122 19q67 0 181 -25q122 -26 166 -29q1 -3 1 -6q0 -6 -18 -28q9 -14 53 -20q37 -6 37 -29q0 -9 -3 -21q-10 1 -19 1q-44 0 -68 -36q14 -8 16 -53 q1 -36 36 -34l35 35q-19 22 -19 28q0 3 1 7q18 8 31 8q23 0 28 -37q6 -51 11 -58l-18 -17q23 -19 28 -19q4 0 7 1zM571 357q10 41 10 73q0 52 -27 101q-56 70 -113 70q-29 0 -61 -18q-18 -29 -36 -59q-20 -36 -20 -60q0 -11 4 -20v-29q-3 -16 -18 -23q14 -21 29 -73.5 t30 -72.5q22 -31 65 -31q15 0 33 3l-70 70q0 18 31 18q-4 0 4 -1l-17 18q-1 19 18 38q17 16 34 31q17 20 31 20q13 0 34.5 -26.5t38.5 -28.5zM571 131v35q-10 3 -20 3q-17 0 -48 -9.5t-45 -9.5q-24 0 -43 16z" />
<glyph unicode="r" horiz-adv-x="840" d="M784 121q3 -45 -33 -68q-30 -19 -82 -19q-53 0 -94 18q-36 44 -36 111q0 13 1 28l18 17q-18 9 -18 52l18 18q-24 26 -71 26q-28 0 -71 -10q-33 -8 -67 -16v-105q5 1 -40 1q-22 0 -29 -18q7 -18 29 -18q45 0 40 1q-12 -37 -67 -37q-13 0 -40 2t-40 2q-15 0 -27 -2q2 3 2 6 q0 6 -19 29q-19 -23 -19 -29q0 -3 2 -6q-11 -5 -19 -5q-35 0 -35 57q0 9 1 17v70q11 -5 20 -5q17 0 29 23q17 31 21 34q4 11 4 19q0 21 -29 31q-39 14 -45 20v69q4 1 7 1q6 0 28 -18q19 10 19 37q0 56 -1 50q-3 2 -21 22q-13 13 -24 13q-4 0 -8 -1v52q14 -13 28 -13 q11 0 29 12q22 16 30 19v52l60 2q31 5 45 33q-13 17 -52.5 17.5t-52.5 16.5q8 19 34 19q15 0 60 -10t70 -10q38 0 62 19q24 31 46 31q18 0 61.5 -41t80.5 -41q26 0 56 16q3 -2 21 -22q12 -14 24 -14q3 0 7 1q1 -3 1 -6q0 -6 -19 -28q12 -18 31 -18q12 0 29 7q14 5 27 11 l-35 -35q44 -59 44 -95q0 -20 -9 -62q-7 -2 -14 -2q-19 0 -52.5 27.5t-52.5 27.5q-18 0 -37 -18q12 -14 33 -22q18 -7 36 -13v-69q7 1 -49 1q-27 0 -38 -18q-2 -36 35 -36h7h7q30 0 38 -17q60 19 73 19q7 0 14 -1q1 -19 -19 -38q-16 -16 -33 -32q36 -19 45 -26 q15 -14 25 -43l-87 -52l52 -53q18 23 18 29q0 3 -1 6h18zM488 677l-17 18q-4 -36 -52 -36q-6 0 -18 1h-17q-48 0 -52 -35zM540 521q-5 71 -131 71q-17 0 -42 -2q6 -36 -40 -36q-7 0 -13 2q38 -1 47 -45q10 -50 40 -60l74 24q42 17 65 46z" />
<glyph unicode="s" horiz-adv-x="872" d="M804 201q-20 -26 -53 -17q-26 8 -51 17q-27 3 -35 -35q14 -18 46 -18q65 0 58 1q3 -72 -69 -72q-10 0 -31 1t-32 1q-57 0 -77 -34q23 -19 29 -19q3 0 6 1q-13 -18 -51 -18q-42 0 -88 18q-1 4 -1 7q0 6 19 28q-7 15 -23 17h-30q-18 -22 -18 -28q0 -3 1 -6q6 -1 -50 -1 q-27 0 -37 18q-22 -19 -28 -19q-3 0 -7 2v34q-4 -1 40 -1q23 0 30 19q-18 14 -55 17q-46 4 -57 8q-31 11 -45 44q-10 12 -26 47l-26 57q-1 -3 -1 -6q0 -6 19 -28q22 38 93 38q57 0 115 -21q-1 -7 -1 -13q0 -29 24 -42q12 -7 49 -14.5t50 -17.5q8 20 45 39q32 16 32 37 q0 12 -8 28q-44 37 -111 37q-13 0 -28 -2q2 4 2 7q0 6 -19 28q-8 -17 -20 -17q-7 0 -24 9t-26 8q-4 35 -47 35h-16q-11 -1 -17 -1q-47 0 -59 36l87 52q-6 14 -22 17h-30v35q4 -1 7 -1q6 0 28 18q-7 15 -23 17q-1 1 -29 1q-18 -9 -18 -53q-3 6 -35 34q-21 19 -21 43 q0 12 4 28l70 34l-52 53q30 36 103 36q9 0 29 -1t30 -1q53 0 81 18q-1 -4 -1 -7q0 -6 18 -28q19 7 19 30q0 44 -1 39l-35 35q104 -2 151 -12q88 -19 127 -75h29q16 -3 23 -17v-52q5 1 -40 1q-31 0 -31 -25q0 -6 19 -28l87 17v-52q-4 -1 -7 -1q-6 0 -28 18q-21 -26 -58 -17 q-29 9 -58 17q-29 4 -40 -34l-52 34l104 35q-29 34 -72 34q-25 0 -77.5 -16.5t-76.5 -17.5q-18 -17 -18 -36q0 -15 19 -48.5t16 -54.5q15 2 28 2q47 0 110.5 -39.5t106.5 -39.5q24 0 51 8q-1 -4 -1 -7q0 -6 18 -28h35v-52q-28 0 -29 -1q-17 -2 -23 -17q10 -18 37 -18 q56 0 50 1q1 -4 1 -7q0 -6 -19 -28q15 -7 17 -23q1 -1 1 -29z" />
<glyph unicode="t" horiz-adv-x="976" d="M858 739q-5 -1 -13 -1q-6 0 -19 1t-19 1q-28 0 -39 -19l72 -90q-26 -12 -92.5 -18t-92.5 -18q-43 -20 -49 -72q-37 4 -55.5 -21t-34.5 -51q-4 -14 -4 -24q0 -31 38 -31q7 0 20 1t19 1q38 0 38 -32q0 -10 -3 -23q-8 -1 -17 -1t-26.5 1t-25.5 1q-39 0 -57 -19q0 -26 1 -31 q3 -17 17 -24h18l-54 -54l18 -18q-21 2 -46 -29.5t-49 -31.5q-14 0 -31 7v72q-6 -1 41 -1q32 0 32 27q0 5 -19 28h-54q1 7 1 16q0 7 -1.5 22t-1.5 22q0 34 20 49q-14 7 -18 23v31q25 0 30 1q17 3 24 17q-7 15 -24 18h-30q-1 14 3 41t4 38q0 49 -62 47q-36 -20 -90 -20 q-53 0 -90 20v180q24 3 52 3q34 0 99.5 -5t95.5 -5q45 0 78 7l36 -36q31 18 108 18.5t108 17.5q0 -25 1 -30q3 -17 17 -24q15 7 18 24v30h108v-36zM642 108q-2 -37 -44 -37h-18q-12 1 -19 1q-33 0 -45 -18q13 -18 54 -18.5t54 -17.5v-18q-43 19 -126 19q-18 0 -51.5 -1 t-47.5 -1q-16 0 -27 1q14 10 17 55q3 35 37 35q12 2 30 -9.5t28 -11.5q7 0 14 3q16 7 16 14q0 4 -9.5 14.5t-9.5 17.5q0 4 3 8q9 -2 22 -2q10 0 31.5 2.5t32.5 2.5q44 0 58 -39z" />
<glyph unicode="u" horiz-adv-x="853" d="M283 790q-7 -20 -54 -20t-54 20h108zM806 429q-4 2 -7 2q-6 0 -29 -20q3 -8 3 -15q0 -21 -30 -34q-40 -18 -45 -23l36 -36l-72 -36q24 -15 61 -23q32 -7 65 -13q-5 -6 -58 -26q-45 -17 -50 -46q11 -18 32 -18q12 0 30 7q14 5 28 11q-28 -126 -235 -162q-12 3 -33 3 q-16 0 -57 -3.5t-63 -3.5q-93 0 -117 58q7 15 45 20q31 4 27 34l-54 54q-15 -12 -47 -58q-19 -27 -61 -32q-9 13 -9 25q0 16 22.5 39t22.5 35q0 13 -18 27q-25 -31 -44 -31q-14 0 -39 24t-43 25v36q10 -3 21 -3q52 0 69 57q-26 14 -51 27q-30 13 -57 9q-3 27 54 36 q7 -14 18 -14t28 13l26 19q-25 13 -49 26q-29 13 -54 13q-11 0 -23 -3v217q3 -1 6 -1q7 0 30 19q-14 7 -17 23q-1 5 -1 31q23 -16 60 -16q26 0 75.5 9.5t68.5 9.5q55 0 55 -59q0 -22 -7 -52v-253h-30q-17 -3 -24 -18q34 -51 69 -101q46 -64 103 -64q13 0 26 3q27 26 53 51 q31 31 37 57l-18 18l36 36l-18 18q6 -1 11 -1q25 0 62.5 47t71.5 44l-40 34q-27 21 -48 21q-20 0 -39 -18h-18q-3 6 -3 13q0 12 10 32.5t10 26.5q0 16 -35 18l20 38t30 19q10 0 23 -3q8 -9 23 -9q29 0 67 27q-22 19 -65 19q-10 0 -30 -1t-29 -1q-12 0 -21 1q-1 3 -1 7 q0 6 19 29q-17 8 -17 21q0 7 9.5 24.5t7.5 26.5q13 -1 28 -1q13 0 40 1t40 1q59 0 91 -19q13 2 15 20t11 18q4 0 10 -2q-8 -25 -8 -49q0 -16 5.5 -47t5.5 -51q0 -16 -3 -33h-31q-16 -3 -23 -18q15 -7 18 -24v-30l-18 -18q3 -3 22 -23q13 -15 24 -15q4 0 8 2v-55zM229 592 q-7 3 -13 3q-11 0 -29 -11.5t-30 -9.5q4 1 10 1q5 0 15.5 -1t15.5 -1q23 0 31 19zM553 87q-6 1 -15 1q-7 0 -22 -1t-23 -1q-33 0 -48 19q8 -21 64 -21q20 0 44 3z" />
<glyph unicode="v" horiz-adv-x="861" d="M791 777q-10 -24 -18 -80.5t-18 -80.5q-17 -40 -54 -55l18 -18l-54 -72q8 -21 8 -44q0 -36 -31.5 -110.5t-30.5 -116.5q-33 -13 -45 -71q-14 -73 -28 -91q-23 2 -86 -17q-67 -19 -98 -19q-61 0 -86 54q-13 13 -26 27.5t-13 29.5q0 7 3 15l18 18q-23 19 -29 19q-4 0 -7 -1 l54 54q-25 38 -71 38q-9 0 -19 -2l36 36q-37 20 -46 28q-16 14 -26 45q20 -5 36.5 16.5t16.5 47.5q0 39 -35 44q31 1 61 1q33 6 47 35q-12 19 -27 19q-9 0 -27 -10.5t-28 -10.5q-14 0 -26 20q-9 -18 -21 -18q-7 0 -24.5 9.5t-26.5 8.5l-18 54q1 13 45.5 19t44.5 22 q0 11 -18 31h-36q-3 11 -3 21q0 53 57 69l72 -72q19 23 19 29q0 4 -1 7l54 -36q2 -72 35 -166q28 -79 55 -159l90 55q-23 19 -29 19q-3 0 -7 -1q14 69 27 139q23 83 81 83q17 0 37 -6q19 23 19 29q0 3 -1 7q-35 -2 -46 18q-5 8 -9 45q-3 31 -18 45h73q-2 -3 -2 -7 q0 -6 20 -29q19 23 19 29q0 4 -1 7q3 1 7 1q6 0 29 -19q12 20 26 20q9 0 27.5 -10.5t27.5 -10.5q15 0 27 19zM575 290l-91 18q10 2 27 -7.5t25 -9.5q12 0 20 17z" />
<glyph unicode="w" horiz-adv-x="1134" d="M1070 577l-54 -36q23 -19 29 -19q4 0 7 1q-10 -26 -18 -87t-18 -86q-16 -44 -54 -62q-3 -7 -3 -14q0 -13 11 -34.5t11 -30.5q0 -16 -19 -29q-3 -1 -7 -1q-6 0 -29 19q-6 -26 -31 -32q-31 -8 -41 -22q72 -18 90 -90q-10 -2 -31.5 -19.5t-33.5 -17.5q-13 0 -25 19 q-24 -36 -61 -36q-22 0 -68.5 18t-68.5 18q11 13 63 28q42 12 45 44q-20 -4 -35 -4q-45 0 -67 33q-11 18 -27 75q-14 53 -33 76v37q3 -2 6 -2q7 0 30 20l-54 36q-68 -173 -73 -343q-21 -30 -66 -30q-7 0 -20.5 1t-20.5 1q-23 0 -37 -8q-10 -6 -20 -6q-12 0 -32 12.5 t-29 12.5q-14 0 -27 -19q-58 28 -54 144q3 -1 7 -1q6 0 29 19q1 4 1 7q0 6 -19 29h-36q-3 11 -3 21q0 20 15 45q21 33 24 43q-8 19 -31 19q-5 0 -15.5 -1t-15.5 -1q-6 0 -10 1q6 11 6 22q0 15 -12.5 38.5t-12.5 34.5q0 16 19 31q-31 19 -46 80l-26 100l36 36q-57 11 -57 85 q0 12 3 23q21 3 43 3q43 0 106 -15q82 -21 103 -24l-54 -36q7 -14 24 -17q5 -1 30 -1q-10 -19 -10 -40q0 -28 25.5 -82.5t25.5 -84.5q0 -33 -23 -63l54 -54q3 13 24 65q15 39 15 68q0 14 -3 29q4 -1 7 -1q6 0 29 19q-19 12 -19 26q0 10 10.5 28t10.5 27q0 15 -20 27 q9 18 40 18h7.5h7.5q38 0 35 36q4 1 7 1q6 0 30 -19q19 8 19 31q0 5 -1 15.5t-1 15.5q0 6 1 10q40 19 67 19q39 0 51 -44q5 -19 8 -91q3 -60 18 -82l-18 -18q30 -16 46 -71q13 -46 26 -91q10 13 17.5 51t14.5 52q14 24 44 24q6 0 14 -1l-54 36l90 36q-7 19 -31 19 q-5 0 -15.5 -1t-15.5 -1q-6 0 -10 1l18 54q6 -1 23 -20.5t32 -19.5q8 0 17 4q29 14 29 32q0 10 -12 28q-14 22 -17 30h-72q13 3 29 33q15 27 36 27q11 0 25 -6q4 -88 108 -144l-18 -18q23 -19 29 -19q4 0 7 1zM511 505v36l-36 -36l-18 18v-18h54z" />
<glyph unicode="x" horiz-adv-x="956" d="M875 26h-72q1 3 1 6q0 7 -19 30q-41 -57 -144 -57q-18 0 -36 3l-56 96q-38 65 -71 102l-108 -180q-19 3 -39 3q-33 0 -93.5 -12.5t-94.5 -12.5q-22 0 -43 4q-3 12 -3 24q0 51 75 120q25 -4 49 18q15 13 40 47t37 43q-23 19 -29 19q-4 0 -7 -1q57 53 57 125q0 27 -9 78 q-10 58 -12 86q-12 16 -43 21q-36 5 -47 15v36q4 1 10 1q5 0 15.5 -1.5t15.5 -1.5q24 0 31 20q-11 19 -39 19q-6 0 -19 -1t-19 -1q-8 0 -13 1v18l126 -18q-1 -4 -1 -7q0 -6 19 -29l54 54q-23 16 -77 22q-63 8 -79 14q-38 14 -42 54q70 -4 141 -8q80 -12 93 -64l-18 -18 q7 -14 24 -17q5 -1 30 -1l-18 -54q29 0 87.5 -18t86.5 -18q47 0 79 36q-1 4 -1 10q0 5 1 15.5t1 15.5q0 23 -19 31q-20 -23 -20 -29q0 -4 2 -7q-11 -5 -19 -5q-18 0 -30 29.5t-24 29.5q20 23 20 29q0 3 -1 7h36q-2 -4 -2 -7q0 -6 20 -29q15 7 17 23q1 2 1 31h54 q-4 -12 -4 -21q0 -25 39 -31q45 -7 55 -20q1 -38 -36 -38q-5 0 -16 1t-17 1q-29 0 -39 -18l36 -54q-29 0 -31 -1q-16 -2 -23 -17q15 -7 17 -24q1 -2 1 -31q-10 -2 -22 -2q-11 0 -32.5 2.5t-31.5 2.5q-44 0 -59 -39q11 -19 39 -19q6 0 19 1t20 1t13 -1q-10 -30 -26 -45 q-9 -7 -47 -27l55 -36l-163 -36q22 -25 55 -25q5 0 15 1h15q25 0 42 -12q14 19 48 19q7 0 22 -1t23 -1t15 1l-36 -36l72 -54q-8 -1 -18 -1q-8 0 -25.5 1t-26.5 1q-38 0 -56 -19v-18q25 -19 74 -19q11 0 33 1t32 1q13 0 23 -1q-1 -4 -1 -7q0 -6 19 -29q6 1 11 1q23 0 37 -35 q21 -52 24 -56zM388 206q-3 1 -7 1q-6 0 -29 -19q3 18 -9.5 27.5t-31.5 9.5q-7 0 -13 -1z" />
<glyph unicode="y" horiz-adv-x="925" d="M831 750q3 -9 3 -16q0 -20 -30 -33q-40 -18 -46 -23q23 -20 30 -20q3 0 6 2q3 -9 3 -15q0 -23 -32 -23q-5 0 -17 1t-18 1q-34 0 -44 -18l-18 18q-18 -40 -49 -37q-28 10 -57 19q-34 9 -56 -18q30 -31 105 -34q83 -4 111 -21q7 -33 -40 -47q-22 -7 -92 -12q-51 -5 -51 -15 q0 -14 75 -52h36q6 -70 -42 -90q-3 -1 -103 -18q-67 -11 -89 -54q16 -73 125 -73q15 0 37 1q2 -27 -54 -36l-18 18q-19 -23 -19 -29q0 -26 31 -26q47 0 42 1q-3 -16 -54.5 -18.5t-51.5 -20.5q0 -12 16 -33h36l-180 -18q-12 29 -12 66q0 38 16 111t16 104q0 93 -110 115 l54 36q-8 19 -31 19q-5 0 -15.5 -1t-15.5 -1q-6 0 -10 1q0 11 29.5 22.5t29.5 29.5q0 9 -5 20q-15 20 -49 20q-7 0 -22 -1t-22 -1q-9 0 -16 1v36q8 1 18 1q8 0 25.5 -1.5t26.5 -1.5q39 0 57 20l-54 54q-14 -3 -16 -21t-10 -18q-4 0 -11 3h-72q14 13 17 39q1 6 2 43 q0 52 35 62q-1 -36 55 -60q63 -27 72 -48l54 36q36 -13 36 -61q0 -7 -1 -22.5t-1 -22.5q0 -54 56 -57q23 13 36 44q18 42 22 47q16 21 50 18q-14 7 -17 23q-1 5 -1 31q26 0 30 1q17 3 24 17v54l54 -54q15 7 18 23v31zM578 209h-72v36q12 2 30 -9.5t29 -11.5q6 0 13 3v-18z " />
<glyph unicode="z" horiz-adv-x="946" d="M243 767q2 -35 -19 -35q-14 0 -32 13.5t-21 21.5h72zM874 45l-72 -36q-17 29 -33 58q-24 41 -58 41q-16 0 -36 -9q-25 -72 -98 -72q-22 0 -69.5 8t-70.5 8q-55 0 -86 -34q-7 3 -20 3q-10 0 -36 -2.5t-41 -2.5q-62 0 -83 38q4 -1 9 -1q19 0 60 29.5t65 29.5q23 0 46 -22 q15 7 18 24v30q-29 20 -91 20q-14 0 -38 -1t-33 -1q-11 0 -18 1v-37q-28 18 -28 39q0 18 25 51q32 41 39 55q9 -4 18 -4q17 0 37 16q27 20 35 24q-4 5 -4 13q0 19 30 62q39 55 46 69q41 -5 57 21l22 58q14 36 47 47q-7 15 -23 18h-31q-8 41 -52 55l-74 20q-38 18 -36 69h-18 q-3 18 9.5 28t31.5 10q7 0 13 -1q19 -40 60 -37q39 9 78 19q49 9 78 -19q31 31 61 31q22 0 63 -23.5t64 -23.5t47 16q56 -9 54 -36l-18 -18q37 -25 37 -70q0 -9 -1 -20l-54 -36q1 4 1 8q0 11 -15 24q-20 19 -22 22l-72 -36q7 -19 30 -19q5 0 16 1t16 1t10 -1l-145 -36 q13 -40 38 -36l44 18q28 9 45 -18q-7 -26 -38 -57q-26 -25 -53 -51q-7 -1 -17 -1q-8 0 -25.5 1t-26.5 1q-39 0 -57 -19q8 -19 31 -19q5 0 15.5 1t15.5 1q6 0 10 -1q-25 -28 -51.5 -56.5t-74.5 -33.5q-3 -16 -54.5 -18.5t-51.5 -20.5q0 -12 16 -33q23 19 29 19q4 0 7 -1 l18 -18h253q-4 -30 27 -34q38 -5 45 -21zM243 676l-72 18h72v-18z" />
<glyph unicode="~" horiz-adv-x="449" d="M381 616q-12 -9 -43 -57q-7 29 -53 29q-30 0 -46 -15l-64 44q-38 26 -79 27v43q8 3 14 3q13 0 26.5 -23t30.5 -23q5 31 42 31q8 0 26.5 -2t27.5 -2q11 0 18 2q21 0 26 -12q2 -5 2.5 -28t14.5 -31q10 -1 24 7.5t22 8.5q6 0 11 -2zM82 602l-14 -43l-14 14q16 21 14 29h14z " />
<glyph unicode="&#xa9;" horiz-adv-x="713" d="M686 463l-14.5 14.5t-23.5 14.5q-11 0 -18 -15q-24 -4 -37 30q-10 28 -20 55l14 15l-106 76q-64 45 -122 52q-20 -17 -28 -15l-29 29q-42 -45 -65 -61q-39 -28 -77 -24h-15q1 0 15.5 14.5t14.5 23.5q0 11 -15 18q15 -4 31 21t27 25q12 0 27 -17q10 14 39 14q6 0 20 -1 t20 -1q36 0 36 30q0 7 -1 15h28q-1 -8 -1 -15q0 -30 36 -30q6 0 20 1t21 1q28 0 38 -14q12 5 21 5q16 0 28.5 -22.5t22.5 -25.5l-29 -28q54 -3 80 -38q16 -20 31.5 -73.5t30.5 -73.5zM658 363q7 -17 7 -31q0 -24 -32.5 -52.5t-31.5 -58.5q-23 0 -24 -1q-13 -2 -19 -14v-14 l-28 29q-17 -21 -14 -29h-29v43q36 0 43 14v29q8 -3 28 14v28q33 6 33 24q0 5 -3.5 19.5t-3.5 24.5q0 9 3 18q5 -12 30 -24q20 -9 41 -19zM530 377q-17 -20 -14 -28l-72 28h86zM516 520l-29 28l-14 -14l-29 43q-17 -17 -38 -17q-15 0 -45 13.5t-44 13.5q-16 0 -29 -10 q12 -6 14 -19v-24q-43 -43 -43 -60q0 -14 15 -26h-29q0 18 1 36q-1 22 -21 22q-4 0 -23 -15q13 -10 16 -43.5t27 -41.5q20 17 29 14q4 -40 47 -73q58 -44 66 -55l29 43q27 -16 43 -43q-36 0 -43 14l-43 -43l-28 29q-16 -6 -30 -6q-29 0 -61 26q-26 26 -52 51q-15 23 -15 68 q1 78 1 74l43 29q-16 12 -16 18q0 4 17 13.5t13 25.5q21 38 66 38q20 0 34 -10q13 14 30 14q10 0 33.5 -7.5t35.5 -6.5q33 -10 47 -47q17 -45 25 -52zM131 505q-7 -2 -13 -2q-11 0 -28.5 10t-28.5 10q-7 0 -15 -3l42 42q9 -2 21.5 -28t21.5 -29zM444 206q-20 -30 -41 -59 q-24 -29 -58 -26l-14 71q-3 0 60 -1q36 0 53 15zM160 292h-24q-14 -3 -19 -14v-29h-29q3 8 -14 29l43 57q-9 9 -55 16q-32 4 -30 40q8 -1 15 -1q36 0 56 30l-29 28q36 -9 56 -63q15 -47 30 -93zM302 192q-11 -51 -69 -51q-33 0 -59 23v14q18 -15 23 -15q19 0 20 22v36 l-15 14q-17 -20 -14 -29h-43q-3 10 -3 19q0 18 12 30t30 12q9 0 18 -4q9 -16 44 -46q26 -23 28 -53q17 20 14 28h14z" />
<glyph unicode="&#x2000;" horiz-adv-x="409" />
<glyph unicode="&#x2001;" horiz-adv-x="818" />
<glyph unicode="&#x2002;" horiz-adv-x="409" />
<glyph unicode="&#x2003;" horiz-adv-x="818" />
<glyph unicode="&#x2004;" horiz-adv-x="272" />
<glyph unicode="&#x2005;" horiz-adv-x="204" />
<glyph unicode="&#x2006;" horiz-adv-x="136" />
<glyph unicode="&#x2007;" horiz-adv-x="136" />
<glyph unicode="&#x2008;" horiz-adv-x="102" />
<glyph unicode="&#x2009;" horiz-adv-x="163" />
<glyph unicode="&#x200a;" horiz-adv-x="45" />
<glyph unicode="&#x202f;" horiz-adv-x="163" />
<glyph unicode="&#x205f;" horiz-adv-x="204" />
<glyph unicode="&#xe000;" horiz-adv-x="785" d="M0 785h785v-785h-785v785z" />
</font>
</defs>
</svg>
