<?xml version="1.0" standalone="no"?>
<!DOCTYPE svg PUBLIC "-//W3C//DTD SVG 1.1//EN" "http://www.w3.org/Graphics/SVG/1.1/DTD/svg11.dtd" >
<svg xmlns="http://www.w3.org/2000/svg">
<metadata></metadata>
<defs>
<font id="amerikaregular" horiz-adv-x="571" >
<font-face units-per-em="1000" ascent="800" descent="-200" />
<missing-glyph horiz-adv-x="350" />
<glyph horiz-adv-x="1000" />
<glyph horiz-adv-x="1000" />
<glyph unicode="&#xd;" horiz-adv-x="500" />
<glyph unicode=" "  horiz-adv-x="350" />
<glyph unicode="&#x09;" horiz-adv-x="350" />
<glyph unicode="&#xa0;" horiz-adv-x="350" />
<glyph unicode="!" horiz-adv-x="174" d="M150 750h-123l34 -600h51zM89 115q-32 0 -45.5 -17.5t-14.5 -40.5q1 -23 14.5 -40t45.5 -17q30 0 43 17t15 40q-2 23 -15 40.5t-43 17.5z" />
<glyph unicode="&#x22;" horiz-adv-x="270" d="M251 750h-90l30 -250h38zM111 750h-90l31 -250h37z" />
<glyph unicode="#" horiz-adv-x="549" d="M532 555v43h-112l26 151l-54 2l-29 -153h-135l29 151l-53 2l-32 -153h-105v-43h100l-25 -125h-119v-44h114l-24 -130l52 1l25 129h140l-21 -130l53 1l24 129h102v44h-99l22 125h121zM358 555l-23 -125h-137l22 125h138z" />
<glyph unicode="$" horiz-adv-x="462" d="M264 -3v78q36 2 67 13.5t54 31.5t36.5 47.5t15.5 62.5q1 21 -4.5 43.5t-18 43.5t-32.5 39.5t-49 30.5l-69 28v203q19 -3 37.5 -8.5t33.5 -13.5t24 -19t9 -26l-1 -67l38 -1q2 15 4.5 34t5 39t5.5 39t6 34q-43 17 -81.5 25.5t-80.5 11.5v87h-71v-85q-82 -8 -125 -42.5 t-45 -109.5q-2 -45 29 -85t94 -63l47 -17v-224q-22 3 -41 7t-33 11.5t-22 19t-8 27.5v68h-38q-2 -15 -4 -34t-4.5 -39.5t-5.5 -39.5t-6 -34q40 -13 80 -22.5t82 -14.5v-79h71zM272 323q21 -8 35 -21.5t22.5 -29.5t12.5 -31.5t4 -26.5q1 -45 -23 -64.5t-59 -24.5v201z M107 534q-2 36 23.5 56.5t62.5 28.5v-173q-36 18 -61 41t-25 47z" />
<glyph unicode="%" horiz-adv-x="858" d="M380 554q0 32 -12 66.5t-34 63.5t-54.5 47.5t-73.5 18.5q-43 0 -76.5 -18t-56 -46t-34.5 -63t-12 -69v-50q0 -33 12 -69.5t34.5 -67.5t56 -51.5t76.5 -20.5q41 0 73.5 20.5t55 51.5t34 67.5t11.5 69.5v50zM832 256q0 32 -12 66.5t-34 63.5t-54.5 47.5t-73.5 18.5 q-43 0 -76.5 -18t-56 -46t-34.5 -63t-12 -69v-50q0 -33 12 -69.5t34.5 -67.5t56 -51.5t76.5 -20.5q41 0 73.5 20.5t55 51.5t34 67.5t11.5 69.5v50zM106 495v66q0 27 8.5 53t22 46t31.5 32.5t36 12.5t35.5 -13t31 -33.5t22 -46t8.5 -51.5v-66q0 -25 -8.5 -52t-22 -49.5 t-31.5 -37.5t-37 -15q-18 0 -34 13.5t-29 35.5t-22 49.5t-11 55.5zM558 197v66q0 27 8.5 53t22 46t31.5 32.5t36 12.5t35.5 -13t31 -33.5t22 -46t8.5 -51.5v-66q0 -25 -8.5 -52t-22 -49.5t-31.5 -37.5t-37 -15q-18 0 -34 13.5t-29 35.5t-22 49.5t-11 55.5zM587 751 l-17 -32.5t-44 -85t-62 -120t-71.5 -138t-71.5 -138t-62 -120t-43.5 -85t-15.5 -32.5h51q1 0 19.5 32.5t48 85t67.5 120t77.5 138t77.5 138t67.5 120t47.5 85l18 32.5h-87z" />
<glyph unicode="&#x26;" horiz-adv-x="630" d="M630 -1l1 52q-27 0 -42 6.5t-22 23.5t-8 46.5t-1 74.5v177h72v46h-72v132h-115v-132h-237v111q0 41 1 70t7.5 47.5t20 28.5t37.5 13h199v55h-471v-46l10 1q30 0 46 -8t24 -26.5t9.5 -49t1.5 -76.5v-285q0 -65 11 -109.5t31 -73.5t49 -44.5t64.5 -23t77.5 -9t88 -1.5h218z M206 228v151h237v-176q0 -32 -1.5 -58.5t-8.5 -45.5t-20.5 -30.5t-38.5 -13.5q-38 -2 -70 0t-54.5 18t-34 52t-9.5 103z" />
<glyph unicode="'" horiz-adv-x="132" d="M111 750h-90l31 -250h37z" />
<glyph unicode="(" horiz-adv-x="310" d="M334 -59q-192 156 -192 428q0 270 192 426l-2 2q-131 -51 -213 -163q-87 -120 -87 -266q0 -147 87 -265q83 -113 213 -164z" />
<glyph unicode=")" horiz-adv-x="299" d="M-37 -49l2 -2q130 51 213 164q87 118 87 265q0 146 -87 266q-82 112 -213 163l-2 -2q192 -156 192 -426q0 -272 -192 -428z" />
<glyph unicode="*" horiz-adv-x="387" d="M352 616l-122 -22l61 110l-94 39l-24 -129l-89 93l-56 -86l113 -55l-115 -47l53 -90l94 89l18 -133l96 47l-59 106l124 -20v98z" />
<glyph unicode="+" horiz-adv-x="493" d="M215 380h-196v-65h196v-195h64v195h196v65h-196v195h-64v-195z" />
<glyph unicode="," horiz-adv-x="180" d="M104 2q3 -15 -5.5 -32t-21 -32t-25 -26.5t-15.5 -15.5q-8 -7 -4 -13l4 -6q36 29 58.5 52.5t35 45t17 41.5t4.5 42q0 10 -3.5 22t-12 22t-21 16.5t-30.5 6.5q-29 0 -43.5 -19t-14.5 -48q0 -10 4.5 -20t14 -18.5t24 -13.5t34.5 -4z" />
<glyph unicode="-" horiz-adv-x="350" d="M48 304v-75h250v75h-250z" />
<glyph unicode="." horiz-adv-x="166" d="M85 115q-32 0 -45.5 -17.5t-14.5 -40.5q1 -23 14.5 -40t45.5 -17q30 0 43 17t15 40q-2 23 -15 40.5t-43 17.5z" />
<glyph unicode="/" horiz-adv-x="452" d="M428 790l-20.5 -37t-54 -98t-76.5 -138.5t-87.5 -159t-87.5 -159t-76 -138.5t-53.5 -98t-19.5 -37h51q1 0 23 37t58 98t82 138.5t93.5 159t93.5 159t81.5 138.5t57.5 98l22 37h-87z" />
<glyph unicode="0" horiz-adv-x="657" d="M620 428q-1 52 -20 109.5t-55.5 104.5t-89.5 78t-120 31q-71 0 -125.5 -29.5t-92 -76t-57 -104t-19.5 -113.5v-86q0 -53 19.5 -113t57 -111t92 -84.5t125.5 -33.5q67 0 120 33.5t90 84.5t56 111t19 113v86zM156 330v110q0 47 15.5 92.5t40.5 81t56 57.5t62 21 q31 1 62.5 -21t56.5 -58.5t40.5 -82t15.5 -90.5v-110q0 -44 -15.5 -92.5t-40.5 -88.5t-56.5 -65.5t-62.5 -24.5q-31 -1 -60.5 23t-53 63t-40 87.5t-20.5 97.5z" />
<glyph unicode="1" horiz-adv-x="344" d="M235 205v545h-206v-45h10q30 0 46 -8t24 -26.5t9.5 -49t1.5 -76.5v-340q0 -46 -1.5 -76.5t-10 -49t-27 -26.5t-51.5 -8v-45h296v45h-10q-30 0 -46 8t-24 26.5t-9.5 49t-1.5 76.5z" />
<glyph unicode="2" horiz-adv-x="551" d="M498 183h-50l-1 -70q-3 -26 -23 -37t-69 -13l-193 -1l-1 100q2 55 26.5 85.5t60 48.5t74.5 29.5t71 29.5q10 6 32.5 23t44.5 42t38.5 56.5t15.5 66.5q-2 46 -17.5 84t-46 65t-75 42t-104.5 15q-69 -1 -135.5 -15t-133.5 -35q4 -19 7.5 -43t7 -49t6.5 -49t5 -43h48l-1 85 q0 25 14.5 40.5t40 25t58 14t68.5 7.5q30 0 56.5 -7t46 -21.5t30.5 -38t10 -57.5q0 -14 -5 -32.5t-15.5 -36.5t-28 -33.5t-44.5 -25.5l-158 -57q-26 -9 -47.5 -29.5t-37.5 -46.5t-24.5 -55t-8.5 -56v-192h458v184z" />
<glyph unicode="3" horiz-adv-x="520" d="M243 62q-29 0 -49 5t-35 16t-27.5 28t-25.5 40q-28 -24 -42.5 -33.5t-21 -12t-6 -2t2.5 -3.5q11 -23 40 -50t85 -45q72 -17 133 -4t106 47.5t70.5 87.5t25.5 117q0 40 -13.5 73.5t-38 58.5t-60.5 39t-81 14l188 198v114h-470v-159h45q0 24 0.5 41.5t6 29t17.5 16.5t36 5 h261l-205 -304q57 0 95.5 -7.5t62 -21t35 -32.5t14.5 -43q7 -56 -4 -95t-32.5 -63.5t-51.5 -37.5t-61 -17z" />
<glyph unicode="4" horiz-adv-x="589" d="M6 228l11 -32h327q0 -43 -2 -72t-11 -46.5t-27 -25t-50 -7.5v-45h296v45h-10q-29 0 -45 7.5t-24 25t-10 46.5t-2 72h110v150h-45q0 -24 -0.5 -41.5t-5.5 -29t-17 -17t-36 -5.5h-6v498h-115zM114 252l230 356v-356h-230z" />
<glyph unicode="5" horiz-adv-x="501" d="M445 566v184h-412v-402h121q20 54 46 78.5t63 23.5q11 1 27.5 -8.5t32.5 -32t27 -57.5t11 -85v-35q0 -50 -13.5 -85.5t-36 -58t-52 -32.5t-60.5 -9q-39 -1 -70.5 13t-53.5 40l-56 -40q18 -23 42.5 -37t50 -21.5t50 -10.5t42.5 -3q66 0 115.5 19.5t83.5 54t52.5 82.5 t20.5 106q0 75 -18.5 123.5t-45.5 77t-57.5 41t-53.5 14.5q-18 2 -39 0.5t-41.5 -8t-39.5 -18.5t-34 -31l1 238l154 -1q49 -2 69 -13t23 -37l1 -70h50z" />
<glyph unicode="6" horiz-adv-x="577" d="M289 0q69 0 118 21t80 55.5t46 79.5t16 94q-2 50 -17 95t-46 79.5t-79.5 54.5t-117.5 20q-35 0 -69 -15t-58 -26q6 61 23.5 105.5t45.5 76.5t67 53.5t88 35.5l-17 21q-65 0 -116 -23.5t-89.5 -63t-64.5 -90.5t-41 -106.5t-19.5 -111.5t0.5 -105q2 -49 17 -94t45 -79.5 t76 -55.5t112 -21zM434 267v-35q0 -50 -10 -83.5t-28.5 -53.5t-44.5 -28.5t-57 -7.5q-31 -1 -57 7t-44.5 28t-28.5 54t-10 84v35q0 50 10 84t28.5 54t44.5 28t57 7q31 1 57 -7.5t44.5 -28.5t28.5 -53.5t10 -83.5z" />
<glyph unicode="7" horiz-adv-x="512" d="M24 591h45q0 24 0.5 41.5t6 29t17.5 16.5t36 5l279 1l-372 -684h120l338 711v40l-470 -1v-159z" />
<glyph unicode="8" horiz-adv-x="577" d="M292 754q-56 0 -95.5 -14.5t-64.5 -39.5t-37 -57t-13 -67q2 -48 23 -89.5t68 -64.5q-37 -14 -63 -35t-43.5 -47.5t-25.5 -57t-9 -62.5q2 -44 17 -84t46 -70t79.5 -48t117.5 -18q66 0 112.5 17.5t76.5 47.5t44.5 70t16.5 85q-2 32 -10.5 62.5t-25 57t-41.5 47.5t-59 34 q45 23 65.5 64t22.5 91q-2 35 -13.5 67t-35.5 57t-62 39.5t-91 14.5zM147 215v5q0 44 10 74t28.5 47.5t44.5 25t57 6.5q31 1 57 -6t44.5 -25t28.5 -47.5t10 -74.5v-5q0 -44 -10 -74t-28.5 -47.5t-44.5 -25t-57 -6.5q-31 -1 -57 6.5t-44.5 25.5t-28.5 47.5t-10 73.5zM175 563 q0 66 31 101.5t82 33.5q25 1 46 -9.5t36 -27t23 -36t8 -37.5q0 -63 -27.5 -102t-81.5 -45q-58 5 -86.5 41t-30.5 81z" />
<glyph unicode="9" horiz-adv-x="577" d="M297 750q-69 0 -118 -21t-80 -55.5t-46 -79.5t-16 -94q2 -50 17 -95t46 -79.5t79.5 -54.5t117.5 -20q35 0 69 15t58 26q-6 -61 -23.5 -105.5t-45.5 -76.5t-67 -53.5t-88 -35.5l17 -21q65 0 116 23.5t89.5 63t64.5 90.5t41 106.5t19.5 111.5t-0.5 105q-2 49 -17 94 t-45 79.5t-76 55.5t-112 21zM152 483v35q0 50 10 83.5t28.5 53.5t44.5 28.5t57 7.5q31 1 57 -7t44.5 -28t28.5 -54t10 -84v-35q0 -50 -10 -84t-28.5 -54t-44.5 -28t-57 -7q-31 -1 -57 7.5t-44.5 28.5t-28.5 53.5t-10 83.5z" />
<glyph unicode=":" horiz-adv-x="166" d="M85 115q-32 0 -45.5 -17.5t-14.5 -40.5q1 -23 14.5 -40t45.5 -17q30 0 43 17t15 40q-2 23 -15 40.5t-43 17.5zM85 382q-32 0 -45.5 -17.5t-14.5 -40.5q1 -23 14.5 -40t45.5 -17q30 0 43 17t15 40q-2 23 -15 40.5t-43 17.5z" />
<glyph unicode=";" horiz-adv-x="180" d="M104 2q3 -15 -5.5 -32t-21 -32t-25 -26.5t-15.5 -15.5q-8 -7 -4 -13l4 -6q36 29 58.5 52.5t35 45t17 41.5t4.5 42q0 10 -3.5 22t-12 22t-21 16.5t-30.5 6.5q-29 0 -43.5 -19t-14.5 -48q0 -10 4.5 -20t14 -18.5t24 -13.5t34.5 -4zM88 376q-32 0 -45.5 -17.5t-14.5 -40.5 q1 -23 14.5 -40t45.5 -17q30 0 43 17t15 40q-2 23 -15 40.5t-43 17.5z" />
<glyph unicode="&#x3c;" horiz-adv-x="503" d="M483 58v76l-383 159l383 147v86l-463 -190v-86z" />
<glyph unicode="=" horiz-adv-x="399" d="M0 277v-75h401v75h-401zM0 455v-75h401v75h-401z" />
<glyph unicode="&#x3e;" horiz-adv-x="503" d="M403 293l-383 -159v-76l463 192v86l-463 190v-86z" />
<glyph unicode="?" horiz-adv-x="531" d="M381 359q10 6 32.5 23t44.5 42t38.5 56.5t15.5 66.5q-2 46 -17.5 84t-46 65t-75 42t-104.5 15q-69 -1 -135.5 -15t-133.5 -35q4 -19 7.5 -43t7 -49t6.5 -49t5 -43h48l-1 85q0 25 14.5 40.5t40 25t58 14t68.5 7.5q30 0 56.5 -7t46 -21.5t30.5 -38t10 -57.5q0 -14 -5 -32.5 t-15.5 -36.5t-28 -33.5t-44.5 -25.5l-45 -24q-26 -9 -47.5 -29.5t-37.5 -46.5t-24.5 -55t-8.5 -56v-77h121v48q4 39 11 62.5t20.5 39t34.5 28t53 30.5zM206 109q-32 0 -45.5 -17.5t-14.5 -40.5q1 -23 14.5 -40t45.5 -17q30 0 43 17t15 40q-2 23 -15 40.5t-43 17.5z" />
<glyph unicode="@" horiz-adv-x="933" d="M520 65q31 -3 66.5 -1.5t71.5 8.5t69 20t58 33q51 47 85 114.5t34 145.5q0 76 -28 142t-78.5 114.5t-120.5 76.5t-155 28q-90 0 -176.5 -31.5t-151.5 -85.5q-41 -33 -71 -74.5t-50.5 -87.5t-30.5 -95.5t-10 -98.5q0 -97 38 -175t112 -134q117 -90 301 -90q174 0 320 108 l-15 34q-139 -101 -299 -101q-171 0 -284 96q-61 52 -87 117.5t-29 129.5q-5 100 30 181t99 143q118 114 301 114q70 0 131 -21.5t105 -59.5q99 -87 99 -222q0 -86 -31.5 -141.5t-92.5 -95.5q-9 -6 -21 -9.5t-24.5 -6t-25.5 -2.5q-12 0 -22 2q48 175 48 177q8 52 2.5 94.5 t-28 71.5t-64 45t-104.5 16q-60 0 -105 -16t-77.5 -45t-54 -71.5t-33.5 -94.5q-8 -53 -4.5 -99t23 -80.5t56.5 -54.5t97 -20q40 0 81 33t80 79zM486 490q28 1 50 -6.5t35.5 -26t17 -49.5t-5.5 -77q-6 -35 -21 -72t-38 -67.5t-53 -51.5t-64 -23q-57 -2 -79 45t-5 139 q10 58 26.5 95t37 58.5t45.5 29t54 6.5z" />
<glyph unicode="A" horiz-adv-x="800" d="M21 0h296v45q-33 0 -51.5 8t-27 26.5t-10 49t-1.5 76.5v128h349v-128q0 -46 -1.5 -76.5t-10 -49t-27 -26.5t-51.5 -8v-45h296v45h-10q-30 0 -46 8t-24 26.5t-9.5 49t-1.5 76.5v282q0 61 -19 109.5t-56 82.5t-90 52.5t-120 18.5q-143 0 -218.5 -70.5t-75.5 -192.5v-282 q0 -46 -1.5 -76.5t-9.5 -49t-24 -26.5t-46 -8l-10 -3v-42zM227 518q0 50 15.5 83.5t40.5 53.5t56 28.5t62 7.5q31 1 62.5 -7t56.5 -28t40.5 -54t15.5 -84v-139h-349v139z" />
<glyph unicode="B" horiz-adv-x="639" d="M614 221q0 70 -35 114t-102 64q52 24 80.5 67t28.5 97q0 88 -65.5 137.5t-185.5 49.5h-297v-45h10q30 0 46 -8t24 -26.5t9.5 -49t1.5 -76.5v-340q0 -46 -1.5 -76.5t-10 -49t-27 -26.5t-51.5 -8v-45h329q53 0 98 13t78 40t51.5 69t18.5 99zM277 366q63 0 106.5 -9.5 t70 -29t38.5 -48t12 -65.5q-2 -42 -11.5 -72.5t-29.5 -50.5t-51.5 -31t-76.5 -15q-33 0 -51.5 8t-27.5 26.5t-10.5 49t-1.5 76.5v148q2 8 9 10.5t24 2.5zM244 545q0 49 1.5 80.5t12.5 49.5q14 11 53 11q91 0 130 -29t39 -99q0 -37 -11 -63.5t-35.5 -43.5t-64 -25t-96.5 -8 q-15 0 -21 2t-8 13v112z" />
<glyph unicode="C" horiz-adv-x="721" d="M678 137q-48 -32 -99.5 -49t-104.5 -17q-73 0 -132.5 24t-101.5 67.5t-64.5 103.5t-22.5 133q0 63 18.5 117.5t53 94t84.5 62t113 22.5q27 0 61 -4.5t64 -15t51 -27.5t21 -42l-1 -85h48q2 19 5 43t6.5 49t7 49t7.5 43q-69 24 -139 36.5t-133 12.5q-80 0 -151 -25.5 t-124.5 -74t-85 -118.5t-31.5 -159q0 -91 32.5 -161.5t88.5 -118.5t131 -72.5t160 -24.5q24 0 54.5 4.5t62 12.5t62 19t54.5 25z" />
<glyph unicode="D" horiz-adv-x="709" d="M679 383q0 85 -24.5 153t-71 115.5t-114.5 73t-156 25.5h-296v-45h10q30 0 46 -8t24 -26.5t9.5 -49t1.5 -76.5v-340q0 -46 -1.5 -76.5t-10 -49t-27 -26.5t-51.5 -8v-45q118 -1 185 -1h102t48 0.5t22 0.5q63 -2 118 27.5t96.5 81t65.5 122.5t24 152zM282 682 q138 0 208.5 -80t70.5 -232q0 -35 -2 -74.5t-12 -78t-30 -72.5t-55 -56.5t-88 -30.5t-130 5q-16 16 -18.5 50t-2.5 92v382q0 56 11 82q6 8 17.5 10.5t30.5 2.5z" />
<glyph unicode="E" horiz-adv-x="624" d="M592 55h-211q-31 0 -62 8t-55.5 28.5t-40 53.5t-15.5 83v151h273v46h-273v111q0 41 1 70t7.5 47.5t20 28.5t37.5 13h319v55h-591v-42l10 -3q30 0 46 -8t24 -26.5t9.5 -49t1.5 -76.5v-285q0 -121 74 -191t214 -71h211v57z" />
<glyph unicode="F" horiz-adv-x="522" d="M487 692v58h-94q-140 -1 -214 -71t-74 -191v-285q0 -46 -1.5 -76.5t-9.5 -49t-24 -26.5t-46 -8l-10 -3v-42h300v46h-28q-25 -1 -38.5 8t-19.5 29t-7 50.5t-1 71.5v129h273v46h-273v141q0 49 15.5 82.5t40 54t55.5 28.5t62 8h94z" />
<glyph unicode="G" horiz-adv-x="755" d="M431 -155v-45h296v45h-10q-29 0 -45.5 8t-24.5 26t-9.5 47.5t-0.5 73.5v189q0 46 1.5 74t9.5 43.5t26.5 21t51.5 5.5v45h-296v-45q33 0 52 -0.5t28 -10t11 -34t1 -72.5v-110q-33 -20 -68 -27.5t-77 -7.5q-50 0 -90.5 20.5t-69 59.5t-44.5 95t-16 127q0 150 61 231.5 t165 81.5q76 0 129.5 -43t81.5 -142h30q-9 41 -11.5 79.5t-3.5 68t-1.5 47t-6.5 17.5q-24 0 -53 6t-59.5 13.5t-61.5 13.5t-59 6q-75 0 -137.5 -28t-108.5 -78.5t-71.5 -121t-25.5 -155.5q0 -86 24 -155t68 -117.5t106 -75t139 -26.5q92 0 160 53v-48q0 -44 -2 -73.5 t-11 -47.5t-27 -26t-51 -8z" />
<glyph unicode="H" horiz-adv-x="691" d="M28 705h10q30 0 46 -8t24 -26.5t9.5 -49t1.5 -76.5v-546h115v326h231v-326h115v546q0 46 1.5 76.5t10 49t27 26.5t51.5 8v45h-296v-45h10q30 0 46 -8t24 -26.5t9.5 -49t1.5 -76.5v-174h-231v174q0 46 1.5 76.5t10 49t27 26.5t51.5 8v45h-296v-45z" />
<glyph unicode="I" horiz-adv-x="344" d="M235 545q0 46 1.5 76.5t10 49t27 26.5t51.5 8v45h-296v-45h10q30 0 46 -8t24 -26.5t9.5 -49t1.5 -76.5v-340q0 -46 -1.5 -76.5t-10 -49t-27 -26.5t-51.5 -8v-45h296v45h-10q-30 0 -46 8t-24 26.5t-9.5 49t-1.5 76.5v340z" />
<glyph unicode="J" horiz-adv-x="345" d="M324 705v45h-296v-45q33 0 51.5 -8t27 -26.5t10 -49t1.5 -76.5v-513q0 -49 -15 -82t-39 -53.5t-53 -29t-56 -8.5q-11 0 -21 1.5t-20 3.5v-62q8 -1 17 -1.5t19 -0.5q67 0 119.5 18.5t89 52.5t55.5 82.5t19 109.5v482q0 46 1.5 76.5t9.5 49t24 26.5t46 8h10z" />
<glyph unicode="K" horiz-adv-x="759" d="M526 199v-18q0 -46 -1.5 -73t-10 -41t-27 -18t-51.5 -4v-45h296v45h-10q-27 0 -43 4.5t-24.5 17.5t-11 35t-2.5 58q0 78 -31 133.5t-91 82.5q57 26 88 77.5t33 124.5q0 40 2 65t10 39t24 18.5t45 4.5h10v45h-296v-45q33 0 51.5 -4t27 -18t10 -41t1.5 -73v-15 q0 -42 -11 -69.5t-29.5 -44.5t-43 -24.5t-50.5 -9.5h-23h-42h-48t-43 1v138q0 46 1.5 76.5t10 49t27 26.5t51.5 8v45h-296v-45h10q30 0 46 -8t24 -26.5t9.5 -49t1.5 -76.5v-340q0 -46 -1.5 -76.5t-10 -49t-27 -26.5t-51.5 -8v-45h296v45h-10q-30 0 -46 8t-24 26.5t-9.5 49 t-1.5 76.5v140q24 2 50 2.5t48 0t38 -0.5h20q26 -2 50.5 -9.5t43 -24.5t30 -44.5t11.5 -69.5z" />
<glyph unicode="L" horiz-adv-x="604" d="M604 50h-211q-31 0 -62 8t-55.5 28.5t-40 53.5t-15.5 83v322q0 41 1 70t7.5 47.5t20 28.5t37.5 13h14v46h-286v-42l10 -3q30 0 46 -8t24 -26.5t9.5 -49t1.5 -76.5v-285q0 -121 74 -191t214 -71h211v52z" />
<glyph unicode="M" horiz-adv-x="952" d="M533 692q32 -4 67 -15.5t64 -32t48 -50.5t19 -72v-317q0 -46 -1.5 -76.5t-10 -49t-27 -26.5t-51.5 -8v-45h296v45h-10q-30 0 -46 8t-24 26.5t-9.5 49t-1.5 76.5v286q0 55 -25.5 100.5t-68.5 79.5t-98.5 54.5t-116.5 26.5q5 33 23.5 46.5t62.5 13.5v45h-296v-45h10 q39 0 55.5 -14.5t21.5 -49.5q-60 -9 -115 -30.5t-96.5 -54.5t-66 -76.5t-24.5 -95.5v-286q0 -46 -1.5 -76.5t-9.5 -49t-24 -26.5t-46 -8l-10 -3v-42h296v45q-33 0 -51.5 8t-27 26.5t-10 49t-1.5 76.5v317q0 39 17.5 67.5t45.5 48.5t61.5 32.5t66.5 18.5v-395 q0 -46 -1.5 -74.5t-10 -44.5t-27 -21.5t-51.5 -5.5v-45h296v45h-10q-30 0 -46 5.5t-24 21.5t-9.5 44.5t-1.5 74.5v398z" />
<glyph unicode="N" horiz-adv-x="800" d="M227 518q0 50 15.5 83.5t40.5 53.5t56 28.5t62 7.5q31 1 62.5 -7t56.5 -28t40.5 -54t15.5 -84v-313q0 -46 -1.5 -76.5t-10 -49t-27 -26.5t-51.5 -8v-45h296v45h-10q-30 0 -46 8t-24 26.5t-9.5 49t-1.5 76.5v282q0 61 -19 109.5t-56 82.5t-90 52.5t-120 18.5 q-143 0 -218.5 -70.5t-75.5 -192.5v-282q0 -46 -1.5 -76.5t-9.5 -49t-24 -26.5t-46 -8l-10 -3v-42h296v45q-33 0 -51.5 8t-27 26.5t-10 49t-1.5 76.5v313z" />
<glyph unicode="O" horiz-adv-x="657" d="M620 488q0 61 -19 109.5t-56 82.5t-90 52.5t-120 18.5q-143 0 -218.5 -70.5t-75.5 -192.5v-225q0 -122 75.5 -192.5t218.5 -70.5q67 0 120 18.5t90 52.5t56 82.5t19 109.5v225zM156 232v287q0 50 15.5 83.5t40.5 53.5t56 28.5t62 7.5q31 1 62.5 -7t56.5 -28t40.5 -54 t15.5 -84v-287q0 -50 -15.5 -84t-40.5 -54t-56.5 -28t-62.5 -7q-31 -1 -62 7.5t-56 28.5t-40.5 53.5t-15.5 83.5z" />
<glyph unicode="P" horiz-adv-x="700" d="M393 751q-139 0 -214.5 -67t-79.5 -183v-296q0 -46 -1.5 -76.5t-10 -49t-27 -26.5t-51.5 -8v-45h296v45h-10q-30 0 -46 8t-24 26.5t-9.5 49t-1.5 76.5v89q69 -42 179 -42q132 0 206 66.5t79 182.5q-5 116 -79 183t-206 67zM214 519q0 50 15.5 83.5t40.5 53.5t56 28.5 t62 7.5q31 1 62.5 -7t56.5 -28t40.5 -54t15.5 -84v-35q0 -50 -15.5 -84t-40.5 -54t-56.5 -28t-62.5 -7q-30 -1 -60 6.5t-54.5 26t-41 49t-18.5 76.5v50z" />
<glyph unicode="Q" horiz-adv-x="657" d="M620 488q0 61 -19 109.5t-56 82.5t-90 52.5t-120 18.5q-143 0 -218.5 -70.5t-75.5 -192.5v-225q0 -108 59.5 -176t171.5 -83q0 -46 -1.5 -76.5t-10 -49t-27 -26.5t-51.5 -8v-45h296v45h-10q-30 0 -46 8t-24 26.5t-9.5 49t-1.5 75.5q112 14 172.5 82t60.5 178v225zM387 94 q0 46 1.5 76.5t10 49t27 26.5t51.5 8v45h-296v-45h10q30 0 46 -8t24 -26.5t9.5 -49t1.5 -76.5v-29q-24 6 -45 18.5t-36.5 32.5t-25 49t-9.5 67v287q0 50 15.5 83.5t40.5 53.5t56 28.5t62 7.5q31 1 62.5 -7t56.5 -28t40.5 -54t15.5 -84v-287q0 -39 -9.5 -68t-26 -49 t-37.5 -32.5t-45 -18.5v30z" />
<glyph unicode="R" horiz-adv-x="700" d="M305 0v45h-10q-30 0 -46 8t-24 26.5t-9.5 49t-1.5 76.5v114q27 -26 61 -42t62 -23q35 -14 57.5 -25t36.5 -24.5t20.5 -34t9.5 -53.5q-2 -24 -6 -38t-14 -21.5t-26.5 -10t-42.5 -2.5v-45h288v45h-2q-27 0 -43.5 2t-25 7t-11 14.5t-1.5 24.5q0 34 -6.5 60t-18.5 45.5 t-30 34.5t-42 28q92 20 143 82t55 158q-5 116 -79 183t-206 67q-139 0 -214.5 -67t-79.5 -183v-296q0 -46 -1.5 -76.5t-10 -49t-27 -26.5t-51.5 -8v-45h296zM214 519q0 50 15.5 83.5t40.5 53.5t56 28.5t62 7.5q31 1 62.5 -7t56.5 -28t40.5 -54t15.5 -84v-35q0 -50 -15.5 -84 t-40.5 -54t-56.5 -28t-62.5 -7q-30 -1 -60 6.5t-54.5 26t-41 49t-18.5 76.5v50z" />
<glyph unicode="S" horiz-adv-x="582" d="M33 555q-2 -57 37 -106.5t119 -78.5l158 -57q27 -10 44.5 -27.5t28 -37t15.5 -39.5t5 -34q1 -34 -10 -56t-30.5 -34.5t-46 -18t-56.5 -5.5q-36 3 -68.5 7.5t-58 14t-40 25t-14.5 40.5l1 85h-48q-2 -19 -5 -43t-6.5 -49t-7 -49t-7.5 -43q67 -21 133.5 -35.5t135.5 -14.5 q50 0 93.5 13.5t76 39t52 61.5t21.5 82q1 27 -5.5 55.5t-22.5 55t-41.5 49.5t-61.5 38l-148 62q-27 11 -52 25t-43.5 30.5t-30 33.5t-11.5 34q-1 27 11 47.5t32.5 34.5t47.5 21t56 9q27 -2 59 -7.5t59 -16t45.5 -27t18.5 -39.5l-2 -85l48 -1q3 19 6 43t6.5 49t7 49t7.5 43 q-71 27 -135.5 38.5t-141.5 11.5q-111 -7 -170.5 -50.5t-60.5 -142.5z" />
<glyph unicode="T" horiz-adv-x="652" d="M527 675q25 0 38 -2t18.5 -10.5t6 -26.5t2.5 -51h45v165h-622v-166h45v31q1 25 6 37.5t21.5 17.5t47.5 5h85h49v-470q0 -46 -1.5 -76.5t-10 -49t-27 -26.5t-51.5 -8v-45h296v45h-10q-30 0 -46 8t-24 26.5t-9.5 49t-1.5 76.5v470h143z" />
<glyph unicode="U" horiz-adv-x="800" d="M227 232v313q0 46 1.5 76.5t10 49t27 26.5t51.5 8v45h-296v-42l10 -3q30 0 46 -8t24 -26.5t9.5 -49t1.5 -76.5v-282q0 -122 75.5 -192.5t218.5 -70.5q67 0 120 18.5t90 52.5t56 82.5t19 109.5v282q0 46 1.5 76.5t9.5 49t24 26.5t46 8h10v45h-296v-45q33 0 51.5 -8 t27 -26.5t10 -49t1.5 -76.5v-313q0 -50 -15.5 -84t-40.5 -54t-56.5 -28t-62.5 -7q-31 -1 -62 7.5t-56 28.5t-40.5 53.5t-15.5 83.5z" />
<glyph unicode="V" horiz-adv-x="849" d="M448 -2l194 462q30 75 54.5 122.5t47.5 75.5t48 39t57 14v40h-315v-41h34q36 0 54 -10.5t18 -36.5q0 -27 -14.5 -71.5t-43.5 -114.5l-132 -315l-129 315q-28 69 -49.5 116t-21.5 74t25.5 35t63.5 8h34v41h-373v-40q34 -2 60 -17t49 -45t46 -76.5t50 -112.5l195 -462h48z " />
<glyph unicode="W" horiz-adv-x="952" d="M538 60v398q0 46 1.5 74.5t9.5 44.5t24 21.5t46 5.5h10v45h-296v-45q33 0 51.5 -5.5t27 -21.5t10 -44.5t1.5 -74.5v-395q-33 6 -67.5 18.5t-63 32.5t-47 48.5t-18.5 67.5v317q0 46 1.5 76.5t10 49t27 26.5t51.5 8v45h-296v-42l10 -3q30 0 46 -8t24 -26.5t9.5 -49 t1.5 -76.5v-286q0 -53 25.5 -96t68 -76t98 -54.5t115.5 -30.5q23 -2 35.5 -2.5t23 -1t24.5 -0.5h40q61 6 116 26.5t97 54.5t66.5 79t24.5 101v286q0 46 1.5 76.5t9.5 49t24 26.5t46 8h10v45h-296v-45q33 0 51.5 -8t27 -26.5t10 -49t1.5 -76.5v-317q0 -42 -18 -72 t-46.5 -50.5t-62.5 -32t-66 -15.5z" />
<glyph unicode="X" horiz-adv-x="759" d="M240 199q0 41 10.5 68t28.5 44t41 25t49 10h27q25 -2 48.5 -10t41.5 -25t29 -44t11 -68v-18q0 -46 -1.5 -73t-10 -41t-27 -18t-51.5 -4v-45h296v45h-10q-27 0 -43 4.5t-24.5 17.5t-11 35t-2.5 58q0 78 -31 133.5t-91 82.5q57 26 88 77.5t33 124.5q0 40 2 65t10 39 t24 18.5t45 4.5h10v45h-296v-45q33 0 51.5 -4t27 -18t10 -41t1.5 -73v-15q0 -42 -11 -69.5t-29.5 -44.5t-43 -24.5t-50.5 -9.5h-16q-26 2 -50.5 9.5t-43 24.5t-29.5 44.5t-11 69.5v15q0 46 1.5 73t10 41t27 18t51.5 4v45h-296v-45h10q28 0 44.5 -4.5t24.5 -18.5t10 -39 t2 -65q2 -73 33 -124.5t88 -77.5q-60 -27 -91 -82.5t-31 -133.5q0 -36 -2.5 -58t-11 -35t-24.5 -17.5t-43 -4.5h-10v-45h296v45q-33 0 -51.5 4t-27 18t-10 41t-1.5 73v18z" />
<glyph unicode="Y" horiz-adv-x="797" d="M225 489v57q0 46 1.5 76.5t10 49t27 26.5t51.5 8v45h-296v-45h10q30 0 46 -8t24 -26.5t9.5 -49t1.5 -76.5v-26q0 -109 60 -177t174 -83v-55q0 -46 -1.5 -76.5t-10 -49t-27 -26.5t-51.5 -8v-45h296v45h-10q-30 0 -46 8t-24 26.5t-9.5 49t-1.5 76.5v55q110 14 170 82.5 t60 177.5v27q0 46 1.5 76.5t9.5 48.5t24 25.5t46 7.5h10v45l-296 1v-45q33 0 51.5 -8t27 -26.5t10 -49t1.5 -76.5v-57q0 -50 -15.5 -84t-40.5 -54t-56.5 -28t-62.5 -7q-31 -1 -62 7.5t-56 28.5t-40.5 53.5t-15.5 83.5z" />
<glyph unicode="Z" horiz-adv-x="748" d="M52 601h45q0 24 0.5 41.5t6 29t17.5 16.5t36 5l391 1q-28 -35 -65 -82.5t-79 -101t-86.5 -110.5t-87 -111t-79.5 -102t-65 -83t-43.5 -54.5t-13.5 -17.5l11 -32q150 0 255 0.5t175 0.5h113h65h33h19v150h-45q0 -24 -0.5 -41.5t-5.5 -29t-17 -17t-36 -5.5h-392 q45 58 97 125.5t104 135.5t102 133t91 117t69.5 88t39.5 47v46l-655 1v-150z" />
<glyph unicode="[" horiz-adv-x="315" d="M139 578q0 40 2 65t10 39t24 18.5t45 4.5h77v45h-259v-750h255v45h-72q-27 0 -43 4.5t-24.5 17.5t-11 35t-2.5 58v27q0 25 -0.5 62t-0.5 82v91v87v69z" />
<glyph unicode="\" horiz-adv-x="472" d="M35 813h-87l22 -37t57.5 -98t81 -138.5t93.5 -158.5t93.5 -158.5t81.5 -138.5t58 -98t23 -37h51q1 0 -19.5 37t-53.5 98t-75.5 138.5t-87 158.5t-87.5 158.5t-76.5 138.5t-54 98z" />
<glyph unicode="]" horiz-adv-x="315" d="M172 578v-69v-87v-91q0 -45 -0.5 -82t-0.5 -62v-27q0 -36 -2.5 -58t-11 -35t-24.5 -17.5t-43 -4.5h-72v-45h255v750h-259v-45h77q28 0 44.5 -4.5t24.5 -18.5t10 -39t2 -65z" />
<glyph unicode="^" horiz-adv-x="395" d="M385 470l-191 238l-187 -235l9 -22l183 132l177 -135z" />
<glyph unicode="_" horiz-adv-x="399" d="M-1 35v-75h401v75h-401z" />
<glyph unicode="`" horiz-adv-x="614" d="M216 999q-56 -86 -52 -89q2 -5 234 -83l15 31z" />
<glyph unicode="a" d="M535 3v136v72v30v8q-2 58 -17 104t-46 78.5t-79.5 50t-117.5 17.5q-66 0 -112 -17.5t-76 -50t-45 -78.5t-17 -104q2 -58 17 -104t45 -78.5t76 -49.5t112 -17q22 0 41.5 4.5t36.5 16t33.5 31.5t33.5 51l-1 -100v-3h116v3zM420 265q0 -100 -38.5 -154t-101.5 -52 q-31 -1 -57 7t-44.5 28t-28.5 54t-10 84v35q0 50 10 84t28.5 54t44.5 28t57 7q31 1 57 -7.5t44.5 -28.5t28.5 -53.5t10 -83.5v-2z" />
<glyph unicode="b" horiz-adv-x="634" d="M14 705q33 0 51.5 -8t27 -26.5t10 -49t1.5 -76.5q0 -88 -0.5 -144t-0.5 -89v-47v-15q2 -58 17 -104t46 -78.5t79.5 -50t117.5 -17.5q66 0 112 17.5t76 50t45 78.5t17 104q-2 58 -17 105t-45 80.5t-76 52t-112 18.5q-45 0 -79.5 -10.5t-63.5 -24.5l-1 74q0 46 1 76.5 t8.5 49t23 26.5t45.5 8h10v45h-293v-45zM218 267q0 50 10 84.5t28.5 56t44.5 31t57 8.5q31 1 57 -8t44.5 -30.5t28.5 -56.5t10 -85v-35q0 -50 -10 -84t-28.5 -54t-44.5 -28t-57 -7q-31 -1 -57 7.5t-44.5 28.5t-28.5 53.5t-10 83.5v35z" />
<glyph unicode="c" horiz-adv-x="513" d="M284 428q29 0 49 -5t35 -16t27 -28t26 -40q28 24 42.5 33.5t21 12t6 2t-2.5 3.5q-11 23 -40 50t-85 45q-72 17 -133 4t-106 -47.5t-70.5 -87.5t-25.5 -117q0 -54 18 -100t51 -79t78 -51.5t99 -17.5q47 1 79.5 5.5t56.5 11.5t43 15.5t40 17.5l-2 32q-80 -27 -144 -20.5 t-109.5 32t-72 62t-30.5 70.5q-7 56 3.5 95t32.5 63.5t51.5 37.5t61.5 17z" />
<glyph unicode="d" horiz-adv-x="643" d="M624 705v45h-293v-45h10q30 0 45.5 -8t22.5 -26.5t8 -49t1 -76.5v-74q-29 14 -63.5 24.5t-79.5 10.5q-66 0 -112 -18.5t-76 -52t-45 -80.5t-17 -105q2 -58 17 -104t45 -78.5t76 -50t112 -17.5q69 0 117.5 17.5t79 50t45.5 78.5t17 104v15v47v89v144q0 46 1.5 76.5t10 49 t27 26.5t51.5 8zM420 267v-35q0 -50 -10 -83.5t-28.5 -53.5t-44.5 -28.5t-57 -7.5q-31 -1 -57 7t-44.5 28t-28.5 54t-10 84v35q0 50 10 85t28.5 56.5t44.5 30.5t57 8q31 1 57 -8.5t44.5 -31t28.5 -56t10 -84.5z" />
<glyph unicode="e" horiz-adv-x="538" d="M516 218q0 6 0.5 15.5t0.5 14.5q2 49 -15 94t-49 79.5t-77 55t-100 21.5q-52 -2 -96 -23t-76.5 -55t-50.5 -79t-18 -95q2 -54 21.5 -99t52.5 -77.5t77.5 -50.5t97.5 -18q35 -2 67 10t63 26l-8 33q-63 -17 -100 -17q-45 0 -75 16t-48.5 40t-27 53t-11.5 56h372zM272 436h2 q55 0 90 -37t43 -119h-262q3 30 12 58t24.5 49.5t38 35t52.5 13.5z" />
<glyph unicode="f" horiz-adv-x="462" d="M427 692v58h-94q-140 -1 -214 -71t-74 -191v-483q0 -46 -1.5 -76.5t-9.5 -49t-24 -26.5t-46 -8l-10 -3v-42h300v46h-28q-25 -1 -38.5 8t-19.5 29t-7 50.5t-1 71.5v329h273v46h-273v139q0 49 15.5 82.5t40 54t55.5 28.5t62 8h94z" />
<glyph unicode="g" horiz-adv-x="645" d="M61 -199h288v45q-26 0 -43 1.5t-26.5 8t-14 19.5t-5.5 37q8 46 43 64.5t81 23.5q64 -2 109 19.5t73.5 56.5t42 80t13.5 91q-4 116 -79.5 183t-214.5 67q-132 0 -206 -67t-79 -183q4 -96 55 -158t143 -82q-24 -13 -41 -24.5t-29 -24.5t-18.5 -30t-8.5 -40 q1 -15 -1.5 -23.5t-11 -12.5t-25 -5t-43.5 -1h-2v-45zM507 265v-50q-2 -46 -18.5 -76.5t-41 -49t-54.5 -26t-60 -6.5q-31 -1 -62.5 7t-56.5 28t-40.5 54t-15.5 84v35q0 50 15.5 84t40.5 54t56.5 28t62.5 7q31 1 62 -7.5t56 -28.5t40.5 -53.5t15.5 -83.5z" />
<glyph unicode="h" horiz-adv-x="730" d="M322 705v45h-296v-45q33 0 51.5 -8t27 -26.5t10 -49t1.5 -76.5v-344q0 -46 -1.5 -76.5t-9.5 -49t-24 -26.5t-46 -8h-10v-45h296v45q-33 0 -51.5 8t-27 26.5t-10 49t-1.5 76.5v73q1 47 11.5 79t29 51t44 26.5t55.5 6.5q31 1 55 -7.5t40 -28.5t24 -53.5t8 -83.5v-63 q0 -46 -1.5 -76.5t-10 -49t-27 -26.5t-51.5 -8v-45h296v42l-10 3q-30 0 -46 8t-24 26.5t-9.5 49t-1.5 76.5v32q0 61 -13.5 109.5t-43 82.5t-76.5 52.5t-114 18.5q-79 0 -135 -32v81q0 46 1.5 76.5t9.5 49t24 26.5t46 8h10z" />
<glyph unicode="i" horiz-adv-x="344" d="M235 295q0 46 1.5 76.5t10 49t27 26.5t51.5 8v45h-296v-45h10q30 0 46 -8t24 -26.5t9.5 -49t1.5 -76.5v-90q0 -46 -1.5 -76.5t-10 -49t-27 -26.5t-51.5 -8v-45h296v45h-10q-30 0 -46 8t-24 26.5t-9.5 49t-1.5 76.5v90zM101 674q0 -31 21.5 -53t52.5 -22t53 22t22 53 t-22 53t-53 22t-52.5 -22t-21.5 -53z" />
<glyph unicode="j" horiz-adv-x="345" d="M324 456v45h-296v-45q33 0 51.5 -8t27 -26.5t10 -49t1.5 -76.5v-265q0 -49 -15 -82t-39 -53.5t-53 -29t-56 -8.5q-11 0 -21 1.5t-20 3.5v-62q8 -1 17 -1.5t19 -0.5q67 0 119.5 18.5t89 52.5t55.5 82.5t19 109.5v234q0 46 1.5 76.5t9.5 49t24 26.5t46 8h10zM97 674 q0 -31 21.5 -53t52.5 -22t53 22t22 53t-22 53t-53 22t-52.5 -22t-21.5 -53z" />
<glyph unicode="k" horiz-adv-x="715" d="M471 395q0 24 5.5 36t17 17t29 5.5t41.5 0.5v45h-187q0 -62 -0.5 -92t-13.5 -37q-29 -8 -63 -25.5t-66 -47.5v248q0 46 2 76.5t11 49t27.5 26.5t51.5 8v45h-297v-45q30 0 47.5 -8t27.5 -26.5t13 -49t3 -76.5v-340q0 -46 -1.5 -76.5t-10 -49t-27 -26.5t-51.5 -8v-45h296 v45h-10q-27 0 -43.5 6.5t-24.5 22.5t-10.5 42t-2.5 64q5 36 26.5 63.5t49.5 46t56.5 28t48.5 9.5q27 0 55 -11t51 -35t38 -61t15 -89q0 -72 -5 -121t-18 -84t-34 -61t-52 -51l15 -18q98 39 153 110.5t55 192.5q0 109 -57 181t-161 92q2 6 0 11.5t0 11.5z" />
<glyph unicode="l" horiz-adv-x="345" d="M324 45h-10q-30 0 -46 8t-24 26.5t-9.5 49t-1.5 76.5v546h-115v-546q0 -46 -1.5 -76.5t-10 -49t-27 -26.5t-51.5 -8v-45h296v45z" />
<glyph unicode="m" horiz-adv-x="1064" d="M854 268v-63q0 -46 -1.5 -76.5t-10 -49t-27 -26.5t-51.5 -8v-45h296v44l-10 1q-30 0 -46 8t-24 26.5t-9.5 49t-1.5 76.5v32q0 61 -13.5 109.5t-43 82.5t-76.5 52.5t-114 18.5q-63 0 -110.5 -19.5t-79.5 -56.5q-29 35 -76 53.5t-115 18.5q-121 0 -185.5 -70.5 t-64.5 -192.5v-32q0 -46 -1.5 -76.5t-9.5 -49t-24 -26.5t-46 -8h-10v-45h296v45q-33 0 -51.5 8t-27 26.5t-10 49t-1.5 76.5v63q0 50 10 84t28.5 54t44.5 28t57 7q31 1 54.5 -7.5t39.5 -28.5t24.5 -53t8.5 -82l-1 -86h1q0 -39 -2.5 -66t-11.5 -43t-27 -23t-49 -7v-45h296v42 l-10 3q-30 0 -46 8t-24 26.5t-9.5 49t-1.5 76.5v46t-1 21q0 50 10 84t28.5 54t44.5 28t57 7q31 1 55 -7.5t40 -28.5t24 -53.5t8 -83.5z" />
<glyph unicode="n" horiz-adv-x="730" d="M498 264v-63q0 -46 -1.5 -76.5t-10 -49t-27 -26.5t-51.5 -8v-45h296v42l-10 3q-30 0 -46 8t-24 26.5t-9.5 49t-1.5 76.5v32q0 61 -13.5 109.5t-43 82.5t-76.5 52.5t-114 18.5q-121 0 -185.5 -70.5t-64.5 -192.5v-32q0 -46 -1.5 -76.5t-9.5 -49t-24 -26.5t-46 -8h-10v-45 h296v45q-33 0 -51.5 8t-27 26.5t-10 49t-1.5 76.5v63q0 50 10 84t28.5 54t44.5 28t57 7q31 1 55 -7.5t40 -28.5t24 -53.5t8 -83.5z" />
<glyph unicode="o" horiz-adv-x="577" d="M292 499q-69 0 -118 -21t-80 -55.5t-46 -79.5t-16 -94q2 -50 17 -95t46 -79.5t79.5 -54.5t117.5 -20q66 0 112.5 20t76.5 53.5t44.5 79t16.5 96.5q-2 49 -17 94t-45 79.5t-76 55.5t-112 21zM147 232v35q0 50 10 83.5t28.5 53.5t44.5 28.5t57 7.5q31 1 57 -7t44.5 -28 t28.5 -54t10 -84v-35q0 -50 -10 -84t-28.5 -54t-44.5 -28t-57 -7q-31 -1 -57 7.5t-44.5 28.5t-28.5 53.5t-10 83.5z" />
<glyph unicode="p" horiz-adv-x="577" d="M-57 -157v-45h293v45h-10q-30 0 -45.5 8t-23 26.5t-8.5 49t-1 76.5l1 25q29 -14 63.5 -21t79.5 -7q66 0 112 17t76 49.5t45 78.5t17 104q-2 58 -17 104t-45 78.5t-76 50t-112 17.5q-69 0 -117.5 -17.5t-79 -50t-45.5 -78.5t-17 -104v-8v-30v-72v-136q0 -46 -1.5 -76.5 t-10 -49t-27 -26.5t-51.5 -8zM147 232v35q0 50 10 83.5t28.5 53.5t44.5 28.5t57 7.5q31 1 57 -7t44.5 -28t28.5 -54t10 -84v-35q0 -50 -10 -84t-28.5 -54t-44.5 -28t-57 -7q-31 -1 -57 7.5t-44.5 28.5t-28.5 53.5t-10 83.5z" />
<glyph unicode="q" horiz-adv-x="645" d="M605 -199v45h-2q-27 0 -43.5 1t-25 5t-11 12.5t-1.5 23.5q-2 23 -8.5 40t-18.5 30t-29 24.5t-41 24.5q92 20 143 82t55 158q-5 116 -79 183t-206 67q-139 0 -214.5 -67t-79.5 -183q0 -46 13.5 -91t42 -80t73.5 -56.5t109 -19.5q46 -5 81 -23.5t43 -64.5q-2 -24 -6 -37 t-14 -19.5t-26.5 -8t-42.5 -1.5v-45h288zM159 265q0 50 15.5 83.5t40.5 53.5t56 28.5t62 7.5q31 1 62.5 -7t56.5 -28t40.5 -54t15.5 -84v-35q0 -50 -15.5 -84t-40.5 -54t-56.5 -28t-62.5 -7q-30 -1 -60 6.5t-54.5 26t-41 49t-18.5 76.5v50z" />
<glyph unicode="r" horiz-adv-x="446" d="M396 500q-143 0 -218.5 -70.5t-75.5 -192.5v-32q0 -46 -1.5 -76.5t-9.5 -49t-24 -26.5t-46 -8l-10 -3v-42h296v45q-33 0 -51.5 8t-27 26.5t-10 49t-1.5 76.5v72q0 50 15.5 83.5t40.5 53.5t56 28.5t62 7.5q12 0 25 -0.5t25 -2.5v52q-11 1 -23 1h-22z" />
<glyph unicode="s" horiz-adv-x="420" d="M188 44q-29 0 -49.5 9t-34.5 22.5t-22.5 29.5t-14.5 31h-43l17 -135q44 0 82 -3.5t76 -4.5q34 0 69 8.5t63 26.5t45.5 46.5t17.5 67.5q0 35 -14 59.5t-36.5 42t-50.5 30t-56 23.5q-22 9 -42.5 17.5t-36.5 19.5t-25.5 24t-9.5 31q0 17 9 29.5t23 21t32.5 13t37.5 4.5 q37 1 57 -8t30 -23.5t13.5 -31.5t9.5 -32h49q-3 17 -3 29t0.5 23.5t0.5 22.5q0 12 -3 27q-20 12 -37 20.5t-36 13.5t-41 7t-50 2q-36 0 -69 -9t-58.5 -26.5t-40.5 -42.5t-15 -56q0 -37 14 -62.5t36.5 -43t50.5 -29.5t57 -22q22 -8 42 -16t35.5 -18.5t25 -24t9.5 -31.5 q0 -20 -9 -35t-25 -25.5t-36.5 -16t-43.5 -5.5z" />
<glyph unicode="t" horiz-adv-x="385" d="M367 500h-116v251h-115v-251h-119v-58h119v-237q0 -46 -1.5 -76.5t-10 -49t-27 -26.5t-51.5 -8v-45h296v45q-33 0 -51.5 8t-27.5 26.5t-10.5 49t-1.5 76.5v237h116v58z" />
<glyph unicode="u" horiz-adv-x="725" d="M227 232v63q0 46 1.5 76.5t10 49t27 26.5t51.5 8v45h-296v-42l10 -3q30 0 46 -8t24 -26.5t9.5 -49t1.5 -76.5v-32q0 -61 15 -109.5t46 -82.5t79 -52.5t115 -18.5q120 0 181 70.5t61 192.5v32q0 46 1.5 76.5t9.5 49t24 26.5t46 8h10v45h-296v-45q33 0 51.5 -8t27 -26.5 t10 -49t1.5 -76.5v-63q0 -50 -9 -84t-26 -54t-41.5 -28t-55.5 -7q-31 -1 -56 7.5t-42.5 28.5t-27 53.5t-9.5 83.5z" />
<glyph unicode="v" horiz-adv-x="570" d="M306 -1l127 300q19 47 34.5 76.5t30.5 47t31.5 25t38.5 9.5v41h-221v-42h39q14 0 19.5 -2.5t6.5 -6.5t1 -11l-115 -276q-38 92 -59.5 143t-32.5 77.5t-14 35.5t-3 17q0 23 40 23h30v42h-257v-41q23 -2 40 -11t32 -28t29.5 -48t31.5 -71l128 -300h43z" />
<glyph unicode="w" horiz-adv-x="1099" d="M231 228v66q0 46 1.5 76.5t10 49t27 26.5t51.5 8v45h-296v-44l10 -1q30 0 46 -8t24 -26.5t9.5 -49t1.5 -76.5v-35q0 -61 13.5 -109.5t43 -82.5t76.5 -52.5t114 -18.5q63 0 110.5 19.5t79.5 56.5q29 -35 76 -53.5t115 -18.5q121 0 185.5 70.5t64.5 192.5v32q0 46 1.5 76.5 t9.5 49t24 26.5t46 8h10v45h-296v-45q33 0 51.5 -8t27 -26.5t10 -49t1.5 -76.5v-63q0 -50 -10 -84t-28.5 -54t-44.5 -28t-57 -7q-62 -2 -94 35.5t-33 135.5v86h-1q0 39 3 66t12 43t27 23t49 7v45h-296v-45h10q30 0 46 -8t24 -26.5t9.5 -49t1.5 -76.5v-46t1 -21 q0 -50 -10 -84t-28.5 -54t-44.5 -28t-57 -7q-31 -1 -55 7.5t-40 28.5t-24 53.5t-8 83.5z" />
<glyph unicode="x" horiz-adv-x="602" d="M583 48h-21q-16 0 -25.5 2.5t-15 10t-7 20t-1.5 32.5q0 96 -80 139q74 40 79 130q0 23 1 37t6 22t14.5 10.5t27.5 2.5h19v48h-241v-48q24 0 37.5 -2.5t20 -10.5t7.5 -23.5t1 -41.5q0 -24 -9 -40.5t-23 -27t-30.5 -15t-31.5 -4.5q-18 1 -35.5 6t-32 15t-23.5 26t-9 40 q0 26 1 41.5t7.5 23.5t20 10.5t39.5 2.5v48h-245v-48h18q18 0 28 -2.5t15 -10.5t6 -22t1 -37q5 -90 79 -130q-80 -43 -80 -139q0 -20 -1.5 -32.5t-7 -20t-15 -10t-25.5 -2.5h-19v-48h248l1 48q-25 0 -39 2.5t-20.5 10.5t-7.5 23.5t-1 41.5q0 20 8.5 36.5t23 28.5t32 18.5 t35.5 8.5q17 -2 34 -7.5t31 -16.5t22.5 -27.5t8.5 -40.5q0 -26 -1 -41.5t-7.5 -23.5t-20 -10.5t-38.5 -2.5v-48h241v48z" />
<glyph unicode="y" horiz-adv-x="725" d="M621 -196v45h-2q-27 0 -43.5 1t-25 5t-11 12.5t-1.5 23.5q-2 23 -8.5 40t-18.5 30t-29 24.5t-40 23.5q13 5 25 7.5t24 10.5q58 31 87 91t29 145v32q0 46 1.5 76.5t9.5 49t24 26.5t46 8h10v45h-296v-45q33 0 51.5 -8t27 -26.5t10 -49t1.5 -76.5v-63q0 -50 -9 -84t-26 -54 t-41.5 -28t-55.5 -7q-31 -1 -56 7.5t-42.5 28.5t-27 53.5t-9.5 83.5v63q0 46 1.5 76.5t10 49t27 26.5t51.5 8v45h-296v-42l10 -3q30 0 46 -8t24 -26.5t9.5 -49t1.5 -76.5v-32q0 -102 41.5 -168.5t132.5 -86.5l46 -10t42.5 -15t32.5 -26t17 -42q-2 -24 -6 -37t-14 -19.5 t-26.5 -8t-42.5 -1.5v-45h288z" />
<glyph unicode="z" horiz-adv-x="547" d="M59 350l45 -1q0 24 0.5 41.5t6 29t17.5 17t36 5.5l209 1q-36 -45 -75.5 -93t-77.5 -94t-72.5 -87t-60.5 -71.5t-42 -48.5l-16 -18l11 -31q105 0 179.5 0.5t125.5 0.5h81h49h28h18v150h-45q0 -24 -0.5 -41.5t-5.5 -29t-17 -17t-36 -5.5h-227q135 174 215 268.5t112 126.5 v47h-458v-150z" />
<glyph unicode="{" horiz-adv-x="450" d="M194 199v-18q0 -46 -1.5 -73t-10 -41t-27 -18t-51.5 -4v-45h324v45h-38q-27 0 -43 4.5t-24.5 17.5t-11 35t-2.5 58q0 78 -31 133.5t-91 82.5q57 26 88 77.5t33 124.5q0 40 2 65t10 39t24 18.5t45 4.5h43v45h-329v-45q33 0 51.5 -4t27 -18t10 -41t1.5 -73v-15 q0 -42 -11 -69.5t-29.5 -44.5t-43 -24.5t-50.5 -9.5h-25v-59h15h6h2h2q26 -2 50.5 -9.5t43 -24.5t30 -44.5t11.5 -69.5z" />
<glyph unicode="|" horiz-adv-x="189" d="M139 -114v1000h-89v-1000h89z" />
<glyph unicode="}" horiz-adv-x="445" d="M262 199q0 42 11 69.5t30 44.5t43.5 24.5t50.5 9.5h2h1h6h16v59h-25q-26 2 -50.5 9.5t-43 24.5t-29.5 44.5t-11 69.5v15q0 46 1.5 73t10 41t27 18t51.5 4v45h-329v-45h43q28 0 44.5 -4.5t24.5 -18.5t10 -39t2 -65q2 -73 33 -124.5t88 -77.5q-60 -27 -91 -82.5t-31 -133.5 q0 -36 -2.5 -58t-11 -35t-24.5 -17.5t-43 -4.5h-39v-45h325v45q-33 0 -51.5 4t-27 18t-10 41t-1.5 73v18z" />
<glyph unicode="~" horiz-adv-x="443" d="M427 594l-18 15q-17 -14 -40.5 -26t-46.5 -12q-15 0 -33.5 5.5t-43.5 16.5q-48 24 -83 24q-99 0 -142 -102q7 -6 12.5 -4.5t11.5 -7.5q18 24 41 33.5t43 9.5q17 0 39 -6.5t51 -17.5q56 -25 90 -25q73 0 119 97z" />
<glyph unicode="&#xa1;" horiz-adv-x="174" d="M26 -202h123l-34 600h-51zM87 433q32 0 45.5 17.5t14.5 40.5q-1 23 -14.5 40t-45.5 17q-30 0 -43 -17t-15 -40q2 -23 15 -40.5t43 -17.5z" />
<glyph unicode="&#xa2;" horiz-adv-x="521" d="M320 0v115q34 3 58.5 8t44 11.5t36.5 14t35 15.5l-2 32q-80 -27 -144 -20.5t-109.5 32t-72 62t-30.5 70.5q-7 56 3.5 95t32.5 63.5t51.5 37.5t61.5 17q29 0 49 -5t35 -16t27 -28t26 -40q28 24 42.5 33.5t21 12t6 2t-2.5 3.5q-11 23 -40 50t-85 45l-22 4t-22 3v133h-89 v-136q-45 -9 -82.5 -31.5t-64 -55.5t-41 -75t-14.5 -90q0 -49 14.5 -91t41.5 -74t64 -53t82 -27v-117h89z" />
<glyph unicode="&#xa3;" horiz-adv-x="533" d="M494 256v42h-274v80h273v46h-273v95q0 49 15.5 82.5t40 54t55.5 28.5t62 8h102v58h-102q-140 -1 -214 -71t-74 -191v-66h-89v-42h89v-82h-91v-42h91v-53q0 -46 -1.5 -76.5t-9.5 -49t-24 -26.5t-46 -8l-10 -3v-42h486v46h-214q-24 3 -37.5 12.5t-20 28.5t-7.5 48t-1 70v53 h274z" />
<glyph unicode="&#xa4;" horiz-adv-x="647" d="M469 280v42h-310q-1 8 -1.5 15.5t-0.5 15.5v46v3h358v46l-354 -1q15 115 73 177t149 62q76 0 129.5 -43t81.5 -142h30q-9 41 -11.5 79.5t-3.5 68t-1.5 47t-6.5 17.5q-24 0 -53 6t-59.5 13.5t-61.5 13.5t-59 6q-75 0 -137.5 -28t-108.5 -78.5t-71.5 -121t-25.5 -155.5 q0 -66 16 -125.5t48 -108t79 -83t109 -48.5q44 -11 89 -11q28 0 59 6t61.5 13.5t59.5 13.5t53 6q6 0 6.5 17.5t1.5 47t3.5 68t11.5 79.5h-30q-28 -99 -81.5 -142t-129.5 -43q-5 -3 -19.5 -1t-31 5.5t-30.5 8.5t-18 10q-45 26 -75 77t-42 121h304z" />
<glyph unicode="&#xa5;" horiz-adv-x="797" d="M687 118v42h-228v79l227 -1v48h-134q66 31 101.5 90.5t35.5 143.5v27q0 46 1.5 76.5t9.5 48.5t24 25.5t46 7.5h10v45l-296 1v-45q33 0 51.5 -8t27 -26.5t10 -49t1.5 -76.5v-57q0 -50 -15.5 -84t-40.5 -54t-56.5 -28t-62.5 -7q-31 -1 -62 7.5t-56 28.5t-40.5 53.5 t-15.5 83.5v57q0 46 1.5 76.5t10 49t27 26.5t51.5 8v45h-296v-45h10q30 0 46 -8t24 -26.5t9.5 -49t1.5 -76.5v-26q0 -84 35.5 -143.5t103.5 -90.5h-136v-47h231v-79h-233v-42h230q-2 -20 -7 -34t-15 -22.5t-25.5 -12.5t-39.5 -4v-45h296v45h-10q-42 0 -58.5 16t-20.5 57h226 z" />
<glyph unicode="&#xa6;" horiz-adv-x="189" d="M139 -114v437h-89v-437h89zM139 886h-89v-413h89v413z" />
<glyph unicode="&#xa7;" horiz-adv-x="527" d="M188 -33q-29 0 -49.5 9t-34.5 22.5t-22.5 29.5t-14.5 31h-43l17 -135q44 0 82 -3.5t76 -4.5q34 0 69 8.5t63 26.5t45.5 46.5t17.5 67.5q0 28 -11 50q25 7 47 18.5t39 29t27 40.5t10 52q0 35 -14 59.5t-36.5 42t-50.5 30t-56 23.5q-22 9 -42.5 17.5t-36.5 19.5t-25.5 24 t-9.5 31q0 17 9 29.5t23 21t32.5 13t37.5 4.5q37 1 57 -8t30 -23.5t13.5 -31.5t9.5 -32h49q-3 17 -3 29t0.5 23.5t0.5 22.5q0 12 -3 27q-20 12 -37 20.5t-36 13.5t-41 7t-50 2q-36 0 -69 -9t-58.5 -26.5t-40.5 -42.5t-15 -56q0 -20 5.5 -35t14.5 -26q-28 -6 -52 -17 t-42 -27.5t-28 -37.5t-10 -47q0 -37 14 -62.5t36.5 -43t50.5 -29.5t57 -22q22 -8 42 -16t35.5 -18.5t25 -24t9.5 -31.5q0 -20 -9 -35t-25 -25.5t-36.5 -16t-43.5 -5.5zM237 220q-14 8 -29 14.5t-29 13.5v1h-1q-23 12 -39 27t-16 36q0 17 9 29.5t23 21t32.5 13t37.5 4.5h10 t10 -1q21 -7 43 -12.5t42 -12.5q44 -16 64 -47t20 -68q0 -30 -20 -49.5t-51 -27.5q-23 17 -51 30.5t-55 27.5z" />
<glyph unicode="&#xa8;" horiz-adv-x="595" d="M158 883q0 -27 18 -44.5t44 -17.5t44.5 17.5t18.5 44.5q0 25 -18.5 43t-44.5 18t-44 -18t-18 -43zM346 883q0 -27 18 -44.5t43 -17.5q27 0 45.5 17.5t18.5 44.5q0 25 -19 43t-45 18q-24 0 -42.5 -18t-18.5 -43z" />
<glyph unicode="&#xa9;" horiz-adv-x="829" d="M415 4q79 0 150.5 29.5t125.5 80.5t86 120.5t32 149.5q0 79 -32 148.5t-86 120.5t-125.5 80.5t-150.5 29.5q-80 0 -151.5 -29.5t-125.5 -80.5t-86 -120.5t-32 -148.5q0 -80 32 -149.5t86 -120.5t125.5 -80.5t151.5 -29.5zM79 384q0 67 27 125.5t73 102t107 68t129 24.5 t129 -24.5t106.5 -68t72.5 -102t27 -125.5t-27 -125.5t-72.5 -102t-106.5 -68.5t-129 -25t-129 25t-107 68.5t-73 102t-27 125.5zM415 570q29 0 49 -5t35 -16t27 -28t26 -40q28 24 42.5 33.5t21 12t6 2t-2.5 3.5q-11 23 -40 50t-85 45q-72 17 -133 4t-106 -47.5t-70.5 -87.5 t-25.5 -117q0 -54 18 -100t51 -79t78 -51.5t99 -17.5q47 1 79.5 5.5t56.5 11.5t43 15.5t40 17.5l-2 32q-80 -27 -144 -20.5t-109.5 32t-72 62t-30.5 70.5q-7 56 3.5 95t32.5 63.5t51.5 37.5t61.5 17z" />
<glyph unicode="&#xaa;" horiz-adv-x="414" d="M373 405v167q0 77 -42 122.5t-132 45.5q-87 0 -127.5 -45t-40.5 -123t40.5 -122.5t127.5 -44.5q25 0 44 8t36 31v-39h94zM280 582q0 -57 -21.5 -88.5t-59.5 -31.5q-34 0 -54.5 22t-20.5 78q0 36 5 59.5t15 37t23 19t30 5.5q39 0 61 -21.5t22 -77.5v-2zM53 326v-75h320v75 h-320z" />
<glyph unicode="&#xab;" horiz-adv-x="433" d="M62 194q63 -72 99.5 -116t41.5 -44t12.5 3t4.5 10q-7 15 -21 41t-27.5 54.5t-24 56.5t-10.5 48l8.5 24t21.5 57.5t27.5 68.5t25.5 56q2 5 -5 7.5t-12 2.5q-2 0 -18.5 -18.5t-39 -45.5t-47.5 -56.5t-44 -51.5q-17 -20 -21 -28t-4 -15t5.5 -18.5t27.5 -35.5zM247 193 q63 -72 99.5 -116t41.5 -44t12.5 3t4.5 10q-7 15 -21 41t-27.5 54.5t-24 56.5t-10.5 48l8.5 24t21.5 57.5t27.5 68.5t25.5 56q2 5 -5 7.5t-12 2.5q-2 0 -18.5 -18.5t-39 -45.5t-47.5 -56.5t-44 -51.5q-17 -20 -21 -28t-4 -15t5.5 -18.5t27.5 -35.5z" />
<glyph unicode="&#xac;" horiz-adv-x="1024" d="M41 -4h824q33 0 59 8.5t44 23.5t27.5 34.5t9.5 41.5q0 43 -22.5 68t-59.5 37q25 12 40.5 34.5t15.5 53.5q0 17 -4 31.5t-15 27.5h3v140h-47l-4 -93h-292v188h-231v125h53v48h-415l-9 -106h49l4 58h109v-313h-139v-407zM230 356v360h108v-173h232v-139h-53v-48h2l75 -186 h-192l-20 -47h230l32 -79h-554v312h140zM699 44h-3l-128 312h266q30 0 48 -6.5t28.5 -16t14 -20t3.5 -18.5q0 -28 -25 -46.5t-60 -18.5h-114v-48h103q8 0 28 -1.5t40.5 -8t36.5 -21t16 -40.5t-12.5 -39.5t-32 -20t-42 -7.5t-43.5 -1h-124v1zM914 623h46l-3 140h-294v-221 h153v-51h47v151h-47v-52h-103v125h193zM338 405l13 -178h48l12 178h-73z" />
<glyph unicode="&#xad;" horiz-adv-x="350" d="M48 304v-75h250v75h-250z" />
<glyph unicode="&#xae;" horiz-adv-x="829" d="M415 4q79 0 150.5 29.5t125.5 80.5t86 120.5t32 149.5q0 79 -32 148.5t-86 120.5t-125.5 80.5t-150.5 29.5q-80 0 -151.5 -29.5t-125.5 -80.5t-86 -120.5t-32 -148.5q0 -80 32 -149.5t86 -120.5t125.5 -80.5t151.5 -29.5zM79 384q0 67 27 125.5t73 102t107 68t129 24.5 q52 0 99.5 -15t89.5 -42q-134 -5 -204.5 -74.5t-70.5 -187.5v-32q0 -46 -1.5 -76.5t-9.5 -49t-24 -26.5t-46 -8l-10 -3v-42h296v45q-33 0 -51.5 8t-27 26.5t-10 49t-1.5 76.5v72q0 50 15.5 83.5t40.5 53.5t56 28.5t62 7.5q11 0 24 -0.5t24 -2.5q39 -42 61.5 -95.5 t22.5 -115.5q0 -67 -27 -125.5t-72.5 -102t-106.5 -68.5t-129 -25t-129 25t-107 68.5t-73 102t-27 125.5z" />
<glyph unicode="&#xaf;" horiz-adv-x="293" d="M22 924v-75h253v75h-253z" />
<glyph unicode="&#xb0;" horiz-adv-x="224" d="M213 601q0 20 -7.5 38t-21 31.5t-31.5 21.5t-39 8q-42 0 -70.5 -28.5t-28.5 -70.5q0 -20 7.5 -38t21 -31.5t31.5 -21.5t39 -8q20 0 38 7.5t31.5 21t21.5 31.5t8 39zM117 546q-24 0 -40.5 16.5t-16.5 39.5t16.5 40t40.5 17q23 0 39.5 -17t16.5 -40q0 -24 -16.5 -40 t-39.5 -16z" />
<glyph unicode="&#xb1;" horiz-adv-x="493" d="M215 409h-196v-65h196v-195h64v195h196v65h-196v195h-64v-195zM20 113v-65h456v65h-456z" />
<glyph unicode="&#xb2;" horiz-adv-x="363" d="M327 421h-50l-1 -52q-2 -11 -12 -15t-33 -5l-105 -1l-1 52q-1 30 15.5 47t39 27.5t45 16.5t34.5 14q7 3 21 14t28 26.5t24.5 36t10.5 43.5v1q-3 59 -41 96t-115 37q-42 0 -85.5 -9.5t-87.5 -23.5q3 -13 5.5 -30t5 -35t4.5 -34.5t4 -27.5h47v62q0 12 8.5 19t22 11.5 t31.5 6.5t37 4q30 -1 52.5 -15t22.5 -49q-1 -16 -11 -36.5t-38 -31.5l-96 -34q-16 -6 -29.5 -18.5t-24 -29t-16.5 -35t-6 -36.5v-127h294v131z" />
<glyph unicode="&#xb3;" horiz-adv-x="349" d="M88 417q-28 -25 -39.5 -29.5t-13.5 -4.5q1 -18 1 -20t0 3q8 -15 28 -32.5t59 -30.5q20 -5 40 -5q34 0 63 12t50 33t32.5 50t11.5 63q0 44 -25.5 75t-70.5 39l94 98v81h-290v-113h48v19q1 17 3.5 25t19.5 8h126l-116 -173q72 0 98.5 -13t28.5 -35q1 -6 1 -12v-10 q0 -23 -6.5 -38.5t-17 -25.5t-24 -15t-26.5 -7q-28 0 -42.5 14t-32.5 44z" />
<glyph unicode="&#xb4;" horiz-adv-x="614" d="M397 997l-198 -141l16 -31q229 77 235 83q3 2 -53 89z" />
<glyph unicode="&#xb6;" horiz-adv-x="565" d="M282 -266h114v741l62 -26v-718h78l1 611q-2 58 -17 104t-45.5 78.5t-79 50t-117.5 17.5q-66 0 -112 -17.5t-76 -50t-45 -78.5t-17 -104q2 -54 20.5 -97.5t51.5 -75.5t79 -51.5t102 -23.5z" />
<glyph unicode="&#xb7;" horiz-adv-x="166" d="M83 379q-32 0 -45.5 -17.5t-14.5 -40.5q1 -23 14.5 -40t45.5 -17q30 0 43 17t15 40q-2 23 -15 40.5t-43 17.5z" />
<glyph unicode="&#xb8;" horiz-adv-x="281" d="M137 32h-33q-4 -2 -9 -17.5t-10 -35t-10 -39.5t-9 -31q-2 -5 5.5 -6.5t17.5 -1t19 2l9 1.5q17 0 35 -10.5t23 -27.5q5 -19 -3.5 -27t-24.5 -8.5t-37 4t-41 11t-36 12t-22 6.5t-6.5 -10.5t0.5 -15.5q3 -14 31.5 -25t66 -16t76 -0.5t60.5 22.5q11 9 19 24.5t8 32.5 t-10.5 32.5t-36.5 23.5q-26 10 -48.5 12t-58.5 -10q7 24 12.5 51.5t12.5 45.5z" />
<glyph unicode="&#xb9;" horiz-adv-x="236" d="M163 421v329h-144v-47q14 0 24.5 -1t17 -9t10 -26t3.5 -51v-195q0 -24 -1 -40.5t-6 -26.5t-16 -14.5t-31 -4.5v-48h198v48h-16q-28 0 -33.5 18.5t-5.5 67.5z" />
<glyph unicode="&#xba;" horiz-adv-x="417" d="M215 730q-47 0 -79.5 -14t-53.5 -37.5t-31 -54t-11 -63.5q1 -34 11.5 -64.5t31 -54t53 -37t79.5 -13.5q45 0 76.5 13.5t51.5 36.5t30 53.5t10 65.5q-1 33 -10.5 63.5t-30 54t-51.5 37.5t-76 14zM131 550q0 37 6 61t16.5 38t24.5 20t31 6q40 0 62 -23t22 -80 q0 -37 -5.5 -61t-16.5 -38t-27 -19.5t-37 -5.5q-33 0 -54.5 22.5t-21.5 79.5zM53 325v-75h314v75h-314z" />
<glyph unicode="&#xbb;" horiz-adv-x="433" d="M374 202q22 24 27.5 35.5t5.5 18.5t-4 15t-21 28q-19 22 -44 51.5t-47.5 56.5t-39 45.5t-18.5 18.5q-5 0 -12 -2.5t-5 -7.5q11 -21 25.5 -56t27 -68.5t21.5 -57.5l9 -24q0 -20 -10.5 -48t-24 -56.5t-27.5 -54.5t-21 -41q-3 -7 4.5 -10t12.5 -3t41.5 44t99.5 116zM189 201 q22 24 27.5 35.5t5.5 18.5t-4 15t-21 28q-19 22 -44 51.5t-47.5 56.5t-39 45.5t-18.5 18.5q-5 0 -12 -2.5t-5 -7.5q11 -21 25.5 -56t27 -68.5t21.5 -57.5l9 -24q0 -20 -10.5 -48t-24 -56.5t-27.5 -54.5t-21 -41q-3 -7 4.5 -10t12.5 -3t41.5 44t99.5 116z" />
<glyph unicode="&#xbc;" horiz-adv-x="727" d="M332 148l12 -30h192q0 -20 -2 -33.5t-7 -22t-16 -12t-29 -3.5v-47h198v47h-16q-26 0 -32 15.5t-6 55.5h66v110h-47v-20q0 -17 -2.5 -25.5t-16.5 -10.5v300h-85zM538 750l-18 -32t-47 -85t-66 -120.5t-76 -137.5t-76 -137.5t-66 -120.5t-46.5 -85t-16.5 -32h51 q1 0 20.5 32t51 85t71.5 120.5t82 137.5t82 137.5t71.5 120.5t50.5 85l19 32h-87zM169 412v339h-144v-47q14 0 24.5 -1t17 -9t10 -26t3.5 -51v-205q0 -24 -1 -40.5t-6 -26.5t-16 -14.5t-31 -4.5v-48h198v48h-16q-28 0 -33.5 18.5t-5.5 67.5zM425 172l116 171v-171h-116z" />
<glyph unicode="&#xbd;" horiz-adv-x="846" d="M807 132h-50l-1 -52q-2 -11 -12 -15t-33 -5l-105 -1l-1 52q-1 30 15.5 47t39 27.5t45 16.5t34.5 14q7 3 21 14t28 26.5t24.5 36t10.5 43.5v1q-3 59 -41 96t-115 37q-42 0 -85.5 -9.5t-87.5 -23.5q3 -13 5.5 -30t5 -35t4.5 -34.5t4 -27.5h47v62q0 12 8.5 19t22 11.5 t31.5 6.5t37 4q30 -1 52.5 -15t22.5 -49q-1 -16 -11 -36.5t-38 -31.5l-96 -34q-16 -6 -29.5 -18.5t-24 -29t-16.5 -35t-6 -36.5v-127h294v131zM538 750l-18 -32t-47 -85t-66 -120.5t-76 -137.5t-76 -137.5t-66 -120.5t-46.5 -85t-16.5 -32h51q1 0 20.5 32t51 85t71.5 120.5 t82 137.5t82 137.5t71.5 120.5t50.5 85l19 32h-87zM169 412v339h-144v-47q14 0 24.5 -1t17 -9t10 -26t3.5 -51v-205q0 -24 -1 -40.5t-6 -26.5t-16 -14.5t-31 -4.5v-48h198v48h-16q-28 0 -33.5 18.5t-5.5 67.5z" />
<glyph unicode="&#xbe;" horiz-adv-x="739" d="M351 148l12 -30h192q0 -20 -2 -33.5t-7 -22t-16 -12t-29 -3.5v-47h198v47h-16q-26 0 -32 15.5t-6 55.5h66v110h-47v-20q0 -17 -2.5 -25.5t-16.5 -10.5v300h-85zM83 418q-28 -25 -39.5 -29.5t-13.5 -4.5q1 -18 1 -20t0 3q8 -15 28 -32.5t59 -30.5q20 -5 40 -5q34 0 63 12 t50 33t32.5 50t11.5 63q0 44 -25.5 75t-70.5 39l94 98v81h-290v-113h48v19q1 17 3.5 25t19.5 8h126l-116 -173q72 0 98.5 -13t28.5 -35q1 -6 1 -12v-10q0 -23 -6.5 -38.5t-17 -25.5t-24 -15t-26.5 -7q-28 0 -42.5 14t-32.5 44zM557 750l-18 -32t-47 -85t-66 -120.5 t-76 -137.5t-76 -137.5t-66 -120.5t-46.5 -85t-16.5 -32h51q1 0 20.5 32t51 85t71.5 120.5t82 137.5t82 137.5t71.5 120.5t50.5 85l19 32h-87zM444 172l116 171v-171h-116z" />
<glyph unicode="&#xbf;" horiz-adv-x="525" d="M153 184q-11 -6 -33 -23t-44 -42t-38.5 -56.5t-15.5 -66.5q1 -46 17 -84t46.5 -65t75 -42t104.5 -15q69 1 135.5 15t133.5 35q-4 19 -7.5 43t-7 49t-6.5 49t-5 43h-48l1 -85q0 -25 -14.5 -40.5t-40 -25t-58 -14t-68.5 -7.5q-30 0 -56.5 7t-46 21.5t-30.5 38t-10 57.5 q0 14 5 32t15.5 36t28 34t44.5 26l45 24q25 9 47 29.5t38 46.5t24.5 55t8.5 56v77h-121v-48q-4 -39 -11 -62.5t-20.5 -39t-35 -28t-52.5 -30.5zM328 434q32 0 45.5 17.5t14.5 40.5q-1 23 -14.5 40t-45.5 17q-30 0 -43 -17t-15 -40q2 -23 15 -40.5t43 -17.5z" />
<glyph unicode="&#xc0;" horiz-adv-x="797" d="M21 0h296v45q-33 0 -51.5 8t-27 26.5t-10 49t-1.5 76.5v128h349v-128q0 -46 -1.5 -76.5t-10 -49t-27 -26.5t-51.5 -8v-45h296v45h-10q-30 0 -46 8t-24 26.5t-9.5 49t-1.5 76.5v282q0 61 -19 109.5t-56 82.5t-90 52.5t-120 18.5q-143 0 -218.5 -70.5t-75.5 -192.5v-282 q0 -46 -1.5 -76.5t-9.5 -49t-24 -26.5t-46 -8l-10 -3v-42zM227 518q0 50 15.5 83.5t40.5 53.5t56 28.5t62 7.5q31 1 62.5 -7t56.5 -28t40.5 -54t15.5 -84v-139h-349v139zM311 997q-56 -87 -53 -89q6 -6 235 -83l16 31z" />
<glyph unicode="&#xc1;" horiz-adv-x="797" d="M21 0h296v45q-33 0 -51.5 8t-27 26.5t-10 49t-1.5 76.5v128h349v-128q0 -46 -1.5 -76.5t-10 -49t-27 -26.5t-51.5 -8v-45h296v45h-10q-30 0 -46 8t-24 26.5t-9.5 49t-1.5 76.5v282q0 61 -19 109.5t-56 82.5t-90 52.5t-120 18.5q-143 0 -218.5 -70.5t-75.5 -192.5v-282 q0 -46 -1.5 -76.5t-9.5 -49t-24 -26.5t-46 -8l-10 -3v-42zM227 518q0 50 15.5 83.5t40.5 53.5t56 28.5t62 7.5q31 1 62.5 -7t56.5 -28t40.5 -54t15.5 -84v-139h-349v139zM508 997l-198 -141l16 -31q229 77 235 83q3 2 -53 89z" />
<glyph unicode="&#xc2;" horiz-adv-x="800" d="M21 0h296v45q-33 0 -51.5 8t-27 26.5t-10 49t-1.5 76.5v128h349v-128q0 -46 -1.5 -76.5t-10 -49t-27 -26.5t-51.5 -8v-45h296v45h-10q-30 0 -46 8t-24 26.5t-9.5 49t-1.5 76.5v282q0 61 -19 109.5t-56 82.5t-90 52.5t-120 18.5q-143 0 -218.5 -70.5t-75.5 -192.5v-282 q0 -46 -1.5 -76.5t-9.5 -49t-24 -26.5t-46 -8l-10 -3v-42zM227 518q0 50 15.5 83.5t40.5 53.5t56 28.5t62 7.5q31 1 62.5 -7t56.5 -28t40.5 -54t15.5 -84v-139h-349v139zM544 815l-147 183l-144 -181l7 -17l139 84l138 -86z" />
<glyph unicode="&#xc3;" horiz-adv-x="800" d="M21 0h296v45q-33 0 -51.5 8t-27 26.5t-10 49t-1.5 76.5v128h349v-128q0 -46 -1.5 -76.5t-10 -49t-27 -26.5t-51.5 -8v-45h296v45h-10q-30 0 -46 8t-24 26.5t-9.5 49t-1.5 76.5v282q0 61 -19 109.5t-56 82.5t-90 52.5t-120 18.5q-143 0 -218.5 -70.5t-75.5 -192.5v-282 q0 -46 -1.5 -76.5t-9.5 -49t-24 -26.5t-46 -8l-10 -3v-42zM227 518q0 50 15.5 83.5t40.5 53.5t56 28.5t62 7.5q31 1 62.5 -7t56.5 -28t40.5 -54t15.5 -84v-139h-349v139zM565 923l-15 17q-13 -15 -32 -28.5t-38 -13.5q-12 0 -27 6.5t-35 18.5q-38 25 -67 25q-81 0 -115 -110 q3 -3 5.5 -3.5t4.5 -1t4.5 -2t4.5 -6.5q15 26 33.5 36.5t34.5 10.5q14 0 32 -7t41 -20q45 -26 73 -26q58 0 96 104z" />
<glyph unicode="&#xc4;" horiz-adv-x="797" d="M21 0h296v45q-33 0 -51.5 8t-27 26.5t-10 49t-1.5 76.5v128h349v-128q0 -46 -1.5 -76.5t-10 -49t-27 -26.5t-51.5 -8v-45h296v45h-10q-30 0 -46 8t-24 26.5t-9.5 49t-1.5 76.5v282q0 61 -19 109.5t-56 82.5t-90 52.5t-120 18.5q-143 0 -218.5 -70.5t-75.5 -192.5v-282 q0 -46 -1.5 -76.5t-9.5 -49t-24 -26.5t-46 -8l-10 -3v-42zM227 518q0 50 15.5 83.5t40.5 53.5t56 28.5t62 7.5q31 1 62.5 -7t56.5 -28t40.5 -54t15.5 -84v-139h-349v139zM246 883q0 -27 18 -44.5t44 -17.5t44.5 17.5t18.5 44.5q0 25 -18.5 43t-44.5 18t-44 -18t-18 -43z M434 883q0 -27 18 -44.5t43 -17.5q27 0 45.5 17.5t18.5 44.5q0 25 -19 43t-45 18q-24 0 -42.5 -18t-18.5 -43z" />
<glyph unicode="&#xc5;" horiz-adv-x="800" d="M21 0h296v45q-33 0 -51.5 8t-27 26.5t-10 49t-1.5 76.5v128h349v-128q0 -46 -1.5 -76.5t-10 -49t-27 -26.5t-51.5 -8v-45h296v45h-10q-30 0 -46 8t-24 26.5t-9.5 49t-1.5 76.5v282q0 61 -19 109.5t-56 82.5t-90 52.5t-120 18.5q-143 0 -218.5 -70.5t-75.5 -192.5v-282 q0 -46 -1.5 -76.5t-9.5 -49t-24 -26.5t-46 -8l-10 -3v-42zM227 518q0 50 15.5 83.5t40.5 53.5t56 28.5t62 7.5q31 1 62.5 -7t56.5 -28t40.5 -54t15.5 -84v-139h-349v139zM499 900q0 20 -7.5 38t-21 31.5t-31.5 21.5t-39 8q-42 0 -70.5 -28.5t-28.5 -70.5q0 -20 7.5 -38 t21 -31.5t31.5 -21.5t39 -8q20 0 38 7.5t31.5 21t21.5 31.5t8 39zM403 845q-24 0 -40.5 16.5t-16.5 39.5t16.5 40t40.5 17q23 0 39.5 -17t16.5 -40q0 -24 -16.5 -40t-39.5 -16z" />
<glyph unicode="&#xc6;" horiz-adv-x="1104" d="M1075 53h-211q-31 0 -62 8t-55.5 28.5t-40 53.5t-15.5 83v149h273v46h-273v121q0 41 1 70t7.5 47.5t20 28.5t37.5 13h319v48q-159 0 -269 0.5t-183 0.5h-115h-63h-28h-12q-143 0 -218.5 -70.5t-75.5 -192.5v-282q0 -46 -1.5 -76.5t-9.5 -49t-24 -26.5t-46 -8l-10 -3v-42 h296v45q-33 0 -51.5 8t-27 26.5t-10 49t-1.5 76.5v128h349v-135q17 -94 92 -148t196 -55h211v58zM227 518q0 50 15.5 83.5t40.5 53.5t56 28.5t62 7.5q30 1 60.5 -6.5t55.5 -26.5t41 -51t18 -79v-149h-349v139z" />
<glyph unicode="&#xc7;" horiz-adv-x="721" d="M678 137q-48 -32 -99.5 -49t-104.5 -17q-73 0 -132.5 24t-101.5 67.5t-64.5 103.5t-22.5 133q0 63 18.5 117.5t53 94t84.5 62t113 22.5q27 0 61 -4.5t64 -15t51 -27.5t21 -42l-1 -85h48q2 19 5 43t6.5 49t7 49t7.5 43q-69 24 -139 36.5t-133 12.5q-80 0 -151 -25.5 t-124.5 -74t-85 -118.5t-31.5 -159q0 -77 23.5 -139.5t65.5 -109t99 -76.5t124 -43q-7 -22 -13 -48.5t-11 -40.5q-2 -5 5.5 -6.5t17.5 -1t19 2l9 1.5q17 0 35 -10.5t23 -27.5q5 -19 -3.5 -27t-24.5 -8.5t-37 4t-41 11t-36 12t-22 6.5t-6.5 -10.5t0.5 -15.5q3 -14 31.5 -25 t66 -16t76 -0.5t60.5 22.5q11 9 19 24.5t8 32.5t-10.5 32.5t-36.5 23.5q-26 10 -48.5 12t-58.5 -10q4 14 7 29t7 29q16 -2 31.5 -3t32.5 -1q24 0 54.5 4.5t62 12.5t62 19t54.5 25z" />
<glyph unicode="&#xc8;" horiz-adv-x="636" d="M604 55h-211q-31 0 -62 8t-55.5 28.5t-40 53.5t-15.5 83v151h273v46h-273v111q0 41 1 70t7.5 47.5t20 28.5t37.5 13h319v55h-591v-42l10 -3q30 0 46 -8t24 -26.5t9.5 -49t1.5 -76.5v-285q0 -121 74 -191t214 -71h211v57zM270 999q-56 -86 -52 -89q2 -5 234 -83l15 31z " />
<glyph unicode="&#xc9;" horiz-adv-x="636" d="M604 55h-211q-31 0 -62 8t-55.5 28.5t-40 53.5t-15.5 83v151h273v46h-273v111q0 41 1 70t7.5 47.5t20 28.5t37.5 13h319v55h-591v-42l10 -3q30 0 46 -8t24 -26.5t9.5 -49t1.5 -76.5v-285q0 -121 74 -191t214 -71h211v57zM472 997l-198 -141l16 -31q229 77 235 83 q3 2 -53 89z" />
<glyph unicode="&#xca;" horiz-adv-x="636" d="M604 55h-211q-31 0 -62 8t-55.5 28.5t-40 53.5t-15.5 83v151h273v46h-273v111q0 41 1 70t7.5 47.5t20 28.5t37.5 13h319v55h-591v-42l10 -3q30 0 46 -8t24 -26.5t9.5 -49t1.5 -76.5v-285q0 -121 74 -191t214 -71h211v57zM507 815l-147 183l-144 -181l7 -17l139 84 l138 -86z" />
<glyph unicode="&#xcb;" horiz-adv-x="636" d="M604 55h-211q-31 0 -62 8t-55.5 28.5t-40 53.5t-15.5 83v151h273v46h-273v111q0 41 1 70t7.5 47.5t20 28.5t37.5 13h319v55h-591v-42l10 -3q30 0 46 -8t24 -26.5t9.5 -49t1.5 -76.5v-285q0 -121 74 -191t214 -71h211v57zM199 883q0 -27 18 -44.5t44 -17.5t44.5 17.5 t18.5 44.5q0 25 -18.5 43t-44.5 18t-44 -18t-18 -43zM387 883q0 -27 18 -44.5t43 -17.5q27 0 45.5 17.5t18.5 44.5q0 25 -19 43t-45 18q-24 0 -42.5 -18t-18.5 -43z" />
<glyph unicode="&#xcc;" horiz-adv-x="344" d="M235 545q0 46 1.5 76.5t10 49t27 26.5t51.5 8v45h-296v-45h10q30 0 46 -8t24 -26.5t9.5 -49t1.5 -76.5v-340q0 -46 -1.5 -76.5t-10 -49t-27 -26.5t-51.5 -8v-45h296v45h-10q-30 0 -46 8t-24 26.5t-9.5 49t-1.5 76.5v340zM77 999q-56 -86 -52 -89q2 -5 234 -83l15 31z" />
<glyph unicode="&#xcd;" horiz-adv-x="344" d="M235 545q0 46 1.5 76.5t10 49t27 26.5t51.5 8v45h-296v-45h10q30 0 46 -8t24 -26.5t9.5 -49t1.5 -76.5v-340q0 -46 -1.5 -76.5t-10 -49t-27 -26.5t-51.5 -8v-45h296v45h-10q-30 0 -46 8t-24 26.5t-9.5 49t-1.5 76.5v340zM276 997l-198 -141l16 -31q229 77 235 83 q3 2 -53 89z" />
<glyph unicode="&#xce;" horiz-adv-x="344" d="M235 545q0 46 1.5 76.5t10 49t27 26.5t51.5 8v45h-296v-45h10q30 0 46 -8t24 -26.5t9.5 -49t1.5 -76.5v-340q0 -46 -1.5 -76.5t-10 -49t-27 -26.5t-51.5 -8v-45h296v45h-10q-30 0 -46 8t-24 26.5t-9.5 49t-1.5 76.5v340zM323 815l-147 183l-144 -181l7 -17l139 84 l138 -86z" />
<glyph unicode="&#xcf;" horiz-adv-x="344" d="M235 545q0 46 1.5 76.5t10 49t27 26.5t51.5 8v45h-296v-45h10q30 0 46 -8t24 -26.5t9.5 -49t1.5 -76.5v-340q0 -46 -1.5 -76.5t-10 -49t-27 -26.5t-51.5 -8v-45h296v45h-10q-30 0 -46 8t-24 26.5t-9.5 49t-1.5 76.5v340zM21 883q0 -27 18 -44.5t44 -17.5t44.5 17.5 t18.5 44.5q0 25 -18.5 43t-44.5 18t-44 -18t-18 -43zM209 883q0 -27 18 -44.5t43 -17.5q27 0 45.5 17.5t18.5 44.5q0 25 -19 43t-45 18q-24 0 -42.5 -18t-18.5 -43z" />
<glyph unicode="&#xd0;" horiz-adv-x="709" d="M33 412v-75h75v-132q0 -46 -1.5 -76.5t-10 -49t-27 -26.5t-51.5 -8v-45q118 -1 185 -1h102t48 0.5t22 0.5q63 -2 118 27.5t96.5 81t65.5 122.5t24 152q0 85 -24.5 153t-71 115.5t-114.5 73t-156 25.5h-296v-45h10q30 0 46 -8t24 -26.5t9.5 -49t1.5 -76.5v-133h-75z M282 682q138 0 208.5 -80t70.5 -232q0 -35 -2 -74.5t-12 -78t-30 -72.5t-55 -56.5t-88 -30.5t-130 5q-16 16 -18.5 50t-2.5 92v132h60v75h-60v175q0 56 11 82q6 8 17.5 10.5t30.5 2.5z" />
<glyph unicode="&#xd1;" horiz-adv-x="800" d="M227 518q0 50 15.5 83.5t40.5 53.5t56 28.5t62 7.5q31 1 62.5 -7t56.5 -28t40.5 -54t15.5 -84v-313q0 -46 -1.5 -76.5t-10 -49t-27 -26.5t-51.5 -8v-45h296v45h-10q-30 0 -46 8t-24 26.5t-9.5 49t-1.5 76.5v282q0 61 -19 109.5t-56 82.5t-90 52.5t-120 18.5 q-143 0 -218.5 -70.5t-75.5 -192.5v-282q0 -46 -1.5 -76.5t-9.5 -49t-24 -26.5t-46 -8l-10 -3v-42h296v45q-33 0 -51.5 8t-27 26.5t-10 49t-1.5 76.5v313zM565 923l-15 17q-13 -15 -32 -28.5t-38 -13.5q-12 0 -27 6.5t-35 18.5q-38 25 -67 25q-81 0 -115 -110q3 -3 5.5 -3.5 t4.5 -1t4.5 -2t4.5 -6.5q15 26 33.5 36.5t34.5 10.5q14 0 32 -7t41 -20q45 -26 73 -26q58 0 96 104z" />
<glyph unicode="&#xd2;" horiz-adv-x="657" d="M620 488q0 61 -19 109.5t-56 82.5t-90 52.5t-120 18.5q-143 0 -218.5 -70.5t-75.5 -192.5v-225q0 -122 75.5 -192.5t218.5 -70.5q67 0 120 18.5t90 52.5t56 82.5t19 109.5v225zM156 232v287q0 50 15.5 83.5t40.5 53.5t56 28.5t62 7.5q31 1 62.5 -7t56.5 -28t40.5 -54 t15.5 -84v-287q0 -50 -15.5 -84t-40.5 -54t-56.5 -28t-62.5 -7q-31 -1 -62 7.5t-56 28.5t-40.5 53.5t-15.5 83.5zM249 999q-56 -86 -52 -89q2 -5 234 -83l15 31z" />
<glyph unicode="&#xd3;" horiz-adv-x="657" d="M620 488q0 61 -19 109.5t-56 82.5t-90 52.5t-120 18.5q-143 0 -218.5 -70.5t-75.5 -192.5v-225q0 -122 75.5 -192.5t218.5 -70.5q67 0 120 18.5t90 52.5t56 82.5t19 109.5v225zM156 232v287q0 50 15.5 83.5t40.5 53.5t56 28.5t62 7.5q31 1 62.5 -7t56.5 -28t40.5 -54 t15.5 -84v-287q0 -50 -15.5 -84t-40.5 -54t-56.5 -28t-62.5 -7q-31 -1 -62 7.5t-56 28.5t-40.5 53.5t-15.5 83.5zM422 997l-198 -141l16 -31q229 77 235 83q3 2 -53 89z" />
<glyph unicode="&#xd4;" horiz-adv-x="657" d="M620 488q0 61 -19 109.5t-56 82.5t-90 52.5t-120 18.5q-143 0 -218.5 -70.5t-75.5 -192.5v-225q0 -122 75.5 -192.5t218.5 -70.5q67 0 120 18.5t90 52.5t56 82.5t19 109.5v225zM156 232v287q0 50 15.5 83.5t40.5 53.5t56 28.5t62 7.5q31 1 62.5 -7t56.5 -28t40.5 -54 t15.5 -84v-287q0 -50 -15.5 -84t-40.5 -54t-56.5 -28t-62.5 -7q-31 -1 -62 7.5t-56 28.5t-40.5 53.5t-15.5 83.5zM480 815l-147 183l-144 -181l7 -17l139 84l138 -86z" />
<glyph unicode="&#xd5;" horiz-adv-x="657" d="M620 488q0 61 -19 109.5t-56 82.5t-90 52.5t-120 18.5q-143 0 -218.5 -70.5t-75.5 -192.5v-225q0 -122 75.5 -192.5t218.5 -70.5q67 0 120 18.5t90 52.5t56 82.5t19 109.5v225zM156 232v287q0 50 15.5 83.5t40.5 53.5t56 28.5t62 7.5q31 1 62.5 -7t56.5 -28t40.5 -54 t15.5 -84v-287q0 -50 -15.5 -84t-40.5 -54t-56.5 -28t-62.5 -7q-31 -1 -62 7.5t-56 28.5t-40.5 53.5t-15.5 83.5zM496 923l-15 17q-13 -15 -32 -28.5t-38 -13.5q-12 0 -27 6.5t-35 18.5q-38 25 -67 25q-81 0 -115 -110q3 -3 5.5 -3.5t4.5 -1t4.5 -2t4.5 -6.5 q15 26 33.5 36.5t34.5 10.5q14 0 32 -7t41 -20q45 -26 73 -26q58 0 96 104z" />
<glyph unicode="&#xd6;" horiz-adv-x="657" d="M620 488q0 61 -19 109.5t-56 82.5t-90 52.5t-120 18.5q-143 0 -218.5 -70.5t-75.5 -192.5v-225q0 -122 75.5 -192.5t218.5 -70.5q67 0 120 18.5t90 52.5t56 82.5t19 109.5v225zM156 232v287q0 50 15.5 83.5t40.5 53.5t56 28.5t62 7.5q31 1 62.5 -7t56.5 -28t40.5 -54 t15.5 -84v-287q0 -50 -15.5 -84t-40.5 -54t-56.5 -28t-62.5 -7q-31 -1 -62 7.5t-56 28.5t-40.5 53.5t-15.5 83.5zM176 883q0 -27 18 -44.5t44 -17.5t44.5 17.5t18.5 44.5q0 25 -18.5 43t-44.5 18t-44 -18t-18 -43zM364 883q0 -27 18 -44.5t43 -17.5q27 0 45.5 17.5 t18.5 44.5q0 25 -19 43t-45 18q-24 0 -42.5 -18t-18.5 -43z" />
<glyph unicode="&#xd7;" horiz-adv-x="398" d="M200 425l-139 139l-46 -46l139 -139l-138 -138l45 -45l138 138l139 -139l46 46l-139 139l138 138l-45 45z" />
<glyph unicode="&#xd8;" horiz-adv-x="657" d="M552 806l-14.5 -26t-37.5 -68q-33 19 -74.5 29t-90.5 10q-143 0 -218.5 -70.5t-75.5 -192.5v-225q0 -140 96 -209q-28 -51 -44.5 -82t-15.5 -31h51l13.5 24t36.5 65q64 -30 157 -30q67 0 120 18.5t90 52.5t56 82.5t19 109.5v225q0 63 -21 113t-60 84l48 88l18 33h-53z M156 232v287q0 50 15.5 83.5t40.5 53.5t56 28.5t62 7.5q35 1 70.5 -10t61.5 -38q-30 -55 -65.5 -120t-73 -132.5t-74.5 -134.5t-69 -126q-11 20 -17.5 44.5t-6.5 56.5zM505 519v-287q0 -50 -15.5 -84t-40.5 -54t-56.5 -28t-62.5 -7q-31 -1 -61.5 6.5t-55.5 27.5 q29 53 64 116.5t72 130.5t73.5 133t68.5 125q14 -34 14 -79z" />
<glyph unicode="&#xd9;" horiz-adv-x="797" d="M575 232q0 -50 -15.5 -83.5t-40.5 -53.5t-56 -28.5t-62 -7.5q-31 -1 -62.5 7t-56.5 28t-40.5 54t-15.5 84v313q0 46 1.5 76.5t10 49t27 26.5t51.5 8v45h-296v-45h10q30 0 46 -8t24 -26.5t9.5 -49t1.5 -76.5v-282q0 -61 19 -109.5t56 -82.5t89.5 -52.5t120.5 -18.5 q143 0 218.5 70.5t75.5 192.5v282q0 46 1.5 76.5t9.5 49t24 26.5t46 8l10 3v42h-296v-45q33 0 51.5 -8t27 -26.5t10 -49t1.5 -76.5v-313zM311 997q-56 -87 -53 -89q6 -6 235 -83l16 31z" />
<glyph unicode="&#xda;" horiz-adv-x="797" d="M227 232v313q0 46 1.5 76.5t10 49t27 26.5t51.5 8v45h-296v-42l10 -3q30 0 46 -8t24 -26.5t9.5 -49t1.5 -76.5v-282q0 -122 75.5 -192.5t218.5 -70.5q67 0 120 18.5t90 52.5t56 82.5t19 109.5v282q0 46 1.5 76.5t9.5 49t24 26.5t46 8h10v45h-296v-45q33 0 51.5 -8 t27 -26.5t10 -49t1.5 -76.5v-313q0 -50 -15.5 -84t-40.5 -54t-56.5 -28t-62.5 -7q-31 -1 -62 7.5t-56 28.5t-40.5 53.5t-15.5 83.5zM535 997l-198 -141l16 -31q229 77 235 83q3 2 -53 89z" />
<glyph unicode="&#xdb;" horiz-adv-x="800" d="M227 232v313q0 46 1.5 76.5t10 49t27 26.5t51.5 8v45h-296v-42l10 -3q30 0 46 -8t24 -26.5t9.5 -49t1.5 -76.5v-282q0 -122 75.5 -192.5t218.5 -70.5q67 0 120 18.5t90 52.5t56 82.5t19 109.5v282q0 46 1.5 76.5t9.5 49t24 26.5t46 8h10v45h-296v-45q33 0 51.5 -8 t27 -26.5t10 -49t1.5 -76.5v-313q0 -50 -15.5 -84t-40.5 -54t-56.5 -28t-62.5 -7q-31 -1 -62 7.5t-56 28.5t-40.5 53.5t-15.5 83.5zM544 815l-147 183l-144 -181l7 -17l139 84l138 -86z" />
<glyph unicode="&#xdc;" horiz-adv-x="797" d="M227 232v313q0 46 1.5 76.5t10 49t27 26.5t51.5 8v45h-296v-42l10 -3q30 0 46 -8t24 -26.5t9.5 -49t1.5 -76.5v-282q0 -122 75.5 -192.5t218.5 -70.5q67 0 120 18.5t90 52.5t56 82.5t19 109.5v282q0 46 1.5 76.5t9.5 49t24 26.5t46 8h10v45h-296v-45q33 0 51.5 -8 t27 -26.5t10 -49t1.5 -76.5v-313q0 -50 -15.5 -84t-40.5 -54t-56.5 -28t-62.5 -7q-31 -1 -62 7.5t-56 28.5t-40.5 53.5t-15.5 83.5zM246 883q0 -27 18 -44.5t44 -17.5t44.5 17.5t18.5 44.5q0 25 -18.5 43t-44.5 18t-44 -18t-18 -43zM434 883q0 -27 18 -44.5t43 -17.5 q27 0 45.5 17.5t18.5 44.5q0 25 -19 43t-45 18q-24 0 -42.5 -18t-18.5 -43z" />
<glyph unicode="&#xdd;" horiz-adv-x="797" d="M225 489v57q0 46 1.5 76.5t10 49t27 26.5t51.5 8v45h-296v-45h10q30 0 46 -8t24 -26.5t9.5 -49t1.5 -76.5v-26q0 -109 60 -177t174 -83v-55q0 -46 -1.5 -76.5t-10 -49t-27 -26.5t-51.5 -8v-45h296v45h-10q-30 0 -46 8t-24 26.5t-9.5 49t-1.5 76.5v55q110 14 170 82.5 t60 177.5v27q0 46 1.5 76.5t9.5 48.5t24 25.5t46 7.5h10v45l-296 1v-45q33 0 51.5 -8t27 -26.5t10 -49t1.5 -76.5v-57q0 -50 -15.5 -84t-40.5 -54t-56.5 -28t-62.5 -7q-31 -1 -62 7.5t-56 28.5t-40.5 53.5t-15.5 83.5zM555 997l-198 -141l16 -31q229 77 235 83q3 2 -53 89z " />
<glyph unicode="&#xde;" horiz-adv-x="652" d="M237 128l1 25q29 -14 63.5 -21t79.5 -7q66 0 112 17t76 49.5t45 78.5t17 104q-2 58 -17 104t-45 78.5t-76 50t-112 17.5q-90 0 -146 -29q1 28 5 49t13.5 34.5t27 20t44.5 6.5v45h-296v-45h10q30 0 46 -9t24 -29t9.5 -52t1.5 -78v-340q0 -46 -1.5 -75.5t-10 -46.5 t-27 -23.5t-51.5 -6.5v-45h296v45h-10q-44 0 -59.5 17t-19.5 60v6zM236 357v35q0 50 10 83.5t28.5 53.5t44.5 28.5t57 7.5q31 1 57 -7t44.5 -28t28.5 -54t10 -84v-35q0 -50 -10 -84t-28.5 -54t-44.5 -28t-57 -7q-31 -1 -57 7.5t-44.5 28.5t-28.5 53.5t-10 83.5z" />
<glyph unicode="&#xdf;" horiz-adv-x="595" d="M368 40q-17 0 -28 9.5t-18.5 23.5t-12.5 31t-11 32h-43l17 -135q22 0 34 -1.5t22 -4t21 -4.5t30 -2q34 0 69 8.5t63 26.5t45.5 46.5t17.5 67.5q0 35 -14 60t-36.5 43.5t-50.5 32t-56 24.5q-22 9 -34.5 18.5t-19 20.5t-8 25t-1.5 32q0 17 9 29.5t23 21t32.5 13t37.5 4.5 q24 -32 41 -32.5t27.5 12.5t15 31t3.5 24q-2 67 -19.5 115t-50.5 79t-82 45.5t-113 15.5q-44 -5 -80.5 -26t-63.5 -55.5t-42 -81t-15 -100.5v-34h-70v-75h70v-349q0 -50 -13 -83t-36 -53.5t-55 -28.5t-70 -8v-58h1q140 1 214 71t74 191v458q0 49 9.5 82t26.5 52.5t42 28 t56 8.5q66 0 101 -40.5t33 -133.5q-92 -4 -144.5 -42t-52.5 -97q0 -37 6 -63t19 -44t33 -31t49 -23q22 -8 42 -17t35.5 -20t25 -25.5t9.5 -32.5q0 -20 -9 -35t-25 -25.5t-36.5 -16t-43.5 -5.5z" />
<glyph unicode="&#xe0;" d="M535 3v136v72v30v8q-2 58 -17 104t-46 78.5t-79.5 50t-117.5 17.5q-66 0 -112 -17.5t-76 -50t-45 -78.5t-17 -104q2 -58 17 -104t45 -78.5t76 -49.5t112 -17q22 0 41.5 4.5t36.5 16t33.5 31.5t33.5 51l-1 -100v-3h116v3zM420 265q0 -100 -38.5 -154t-101.5 -52 q-31 -1 -57 7t-44.5 28t-28.5 54t-10 84v35q0 50 10 84t28.5 54t44.5 28t57 7q31 1 57 -7.5t44.5 -28.5t28.5 -53.5t10 -83.5v-2zM198 749q-56 -86 -52 -89q2 -5 234 -83l15 31z" />
<glyph unicode="&#xe1;" d="M535 3v136v72v30v8q-2 58 -17 104t-46 78.5t-79.5 50t-117.5 17.5q-66 0 -112 -17.5t-76 -50t-45 -78.5t-17 -104q2 -58 17 -104t45 -78.5t76 -49.5t112 -17q22 0 41.5 4.5t36.5 16t33.5 31.5t33.5 51l-1 -100v-3h116v3zM420 265q0 -100 -38.5 -154t-101.5 -52 q-31 -1 -57 7t-44.5 28t-28.5 54t-10 84v35q0 50 10 84t28.5 54t44.5 28t57 7q31 1 57 -7.5t44.5 -28.5t28.5 -53.5t10 -83.5v-2zM397 747l-198 -141l16 -31q229 77 235 83q3 2 -53 89z" />
<glyph unicode="&#xe2;" d="M535 3v136v72v30v8q-2 58 -17 104t-46 78.5t-79.5 50t-117.5 17.5q-66 0 -112 -17.5t-76 -50t-45 -78.5t-17 -104q2 -58 17 -104t45 -78.5t76 -49.5t112 -17q22 0 41.5 4.5t36.5 16t33.5 31.5t33.5 51l-1 -100v-3h116v3zM420 265q0 -100 -38.5 -154t-101.5 -52 q-31 -1 -57 7t-44.5 28t-28.5 54t-10 84v35q0 50 10 84t28.5 54t44.5 28t57 7q31 1 57 -7.5t44.5 -28.5t28.5 -53.5t10 -83.5v-2zM430 565l-147 183l-144 -181l7 -17l139 84l138 -86z" />
<glyph unicode="&#xe3;" d="M535 3v136v72v30v8q-2 58 -17 104t-46 78.5t-79.5 50t-117.5 17.5q-66 0 -112 -17.5t-76 -50t-45 -78.5t-17 -104q2 -58 17 -104t45 -78.5t76 -49.5t112 -17q22 0 41.5 4.5t36.5 16t33.5 31.5t33.5 51l-1 -100v-3h116v3zM420 265q0 -100 -38.5 -154t-101.5 -52 q-31 -1 -57 7t-44.5 28t-28.5 54t-10 84v35q0 50 10 84t28.5 54t44.5 28t57 7q31 1 57 -7.5t44.5 -28.5t28.5 -53.5t10 -83.5v-2zM450 673l-15 17q-13 -15 -32 -28.5t-38 -13.5q-12 0 -27 6.5t-35 18.5q-38 25 -67 25q-81 0 -115 -110q3 -3 5.5 -3.5t4.5 -1t4.5 -2t4.5 -6.5 q15 26 33.5 36.5t34.5 10.5q14 0 32 -7t41 -20q45 -26 73 -26q58 0 96 104z" />
<glyph unicode="&#xe4;" d="M535 3v136v72v30v8q-2 58 -17 104t-46 78.5t-79.5 50t-117.5 17.5q-66 0 -112 -17.5t-76 -50t-45 -78.5t-17 -104q2 -58 17 -104t45 -78.5t76 -49.5t112 -17q22 0 41.5 4.5t36.5 16t33.5 31.5t33.5 51l-1 -100v-3h116v3zM420 265q0 -100 -38.5 -154t-101.5 -52 q-31 -1 -57 7t-44.5 28t-28.5 54t-10 84v35q0 50 10 84t28.5 54t44.5 28t57 7q31 1 57 -7.5t44.5 -28.5t28.5 -53.5t10 -83.5v-2zM131 633q0 -27 18 -44.5t44 -17.5t44.5 17.5t18.5 44.5q0 25 -18.5 43t-44.5 18t-44 -18t-18 -43zM319 633q0 -27 18 -44.5t43 -17.5 q27 0 45.5 17.5t18.5 44.5q0 25 -19 43t-45 18q-24 0 -42.5 -18t-18.5 -43z" />
<glyph unicode="&#xe5;" d="M535 3v136v72v30v8q-2 58 -17 104t-46 78.5t-79.5 50t-117.5 17.5q-66 0 -112 -17.5t-76 -50t-45 -78.5t-17 -104q2 -58 17 -104t45 -78.5t76 -49.5t112 -17q22 0 41.5 4.5t36.5 16t33.5 31.5t33.5 51l-1 -100v-3h116v3zM420 265q0 -100 -38.5 -154t-101.5 -52 q-31 -1 -57 7t-44.5 28t-28.5 54t-10 84v35q0 50 10 84t28.5 54t44.5 28t57 7q31 1 57 -7.5t44.5 -28.5t28.5 -53.5t10 -83.5v-2zM378 650q0 20 -7.5 38t-21 31.5t-31.5 21.5t-39 8q-42 0 -70.5 -28.5t-28.5 -70.5q0 -20 7.5 -38t21 -31.5t31.5 -21.5t39 -8q20 0 38 7.5 t31.5 21t21.5 31.5t8 39zM282 595q-24 0 -40.5 16.5t-16.5 39.5t16.5 40t40.5 17q23 0 39.5 -17t16.5 -40q0 -24 -16.5 -40t-39.5 -16z" />
<glyph unicode="&#xe6;" horiz-adv-x="928" d="M535 0v43q29 -19 64 -29t74 -10q35 -2 67 10t63 26l-8 33q-63 -17 -100 -17q-42 0 -70.5 13t-47 34t-28.5 47t-14 51v20h370q0 6 0.5 15.5t0.5 14.5q2 49 -15 93.5t-49 78t-77 53t-100 20.5q-55 -2 -100.5 -24t-77.5 -58q-31 41 -82.5 63t-129.5 22q-66 0 -112 -17.5 t-76 -50t-45 -78.5t-17 -104q2 -58 17 -104t45 -78.5t76 -49.5t112 -17q22 0 41.5 4.5t36.5 16t33.5 31.5t33.5 51l-1 -100v-3h116zM420 265q0 -100 -38.5 -154t-101.5 -52q-31 -1 -57 7t-44.5 28t-28.5 54t-10 84v35q0 50 10 84t28.5 54t44.5 28t57 7q31 1 57 -7.5 t44.5 -28.5t28.5 -53.5t10 -83.5v-2zM661 439h2q55 0 90 -37t43 -119h-262q3 30 12 58t24.5 49.5t38 35t52.5 13.5z" />
<glyph unicode="&#xe7;" horiz-adv-x="513" d="M284 428q29 0 49 -5t35 -16t27 -28t26 -40q28 24 42.5 33.5t21 12t6 2t-2.5 3.5q-11 23 -40 50t-85 45q-72 17 -133 4t-106 -47.5t-70.5 -87.5t-25.5 -117q0 -47 13.5 -87.5t38 -72.5t59.5 -53.5t77 -29.5q-6 -21 -11.5 -44.5t-9.5 -35.5q-2 -5 5.5 -6.5t17.5 -1t19 2 l9 1.5q17 0 35 -10.5t23 -27.5q5 -19 -3.5 -27t-24.5 -8.5t-37 4t-41 11t-36 12t-22 6.5t-6.5 -10.5t0.5 -15.5q3 -14 31.5 -25t66 -16t76 -0.5t60.5 22.5q11 9 19 24.5t8 32.5t-10.5 32.5t-36.5 23.5q-26 10 -48.5 12t-58.5 -10q3 12 6 24.5t6 25.5q5 -1 10 -1h11 q47 1 79.5 5.5t56.5 11.5t43 15.5t40 17.5l-2 32q-80 -27 -144 -20.5t-109.5 32t-72 62t-30.5 70.5q-7 56 3.5 95t32.5 63.5t51.5 37.5t61.5 17z" />
<glyph unicode="&#xe8;" horiz-adv-x="538" d="M516 218q0 6 0.5 15.5t0.5 14.5q2 49 -15 93.5t-49 78t-77 53t-100 20.5q-52 -2 -96 -22t-76.5 -53.5t-50.5 -77.5t-18 -94q2 -54 21.5 -99t52.5 -77.5t77.5 -50.5t97.5 -18q35 -2 67 10t63 26l-8 33q-63 -17 -100 -17q-45 0 -75 16t-48.5 40t-27 53t-11.5 56h372z M272 436h2q55 0 90 -37t43 -119h-262q3 30 12 58t24.5 49.5t38 35t52.5 13.5zM189 749q-56 -86 -52 -89q2 -5 234 -83l15 31z" />
<glyph unicode="&#xe9;" horiz-adv-x="538" d="M516 218q0 6 0.5 15.5t0.5 14.5q2 49 -15 93.5t-49 78t-77 53t-100 20.5q-52 -2 -96 -22t-76.5 -53.5t-50.5 -77.5t-18 -94q2 -54 21.5 -99t52.5 -77.5t77.5 -50.5t97.5 -18q35 -2 67 10t63 26l-8 33q-63 -17 -100 -17q-45 0 -75 16t-48.5 40t-27 53t-11.5 56h372z M272 436h2q55 0 90 -37t43 -119h-262q3 30 12 58t24.5 49.5t38 35t52.5 13.5zM376 747l-198 -141l16 -31q229 77 235 83q3 2 -53 89z" />
<glyph unicode="&#xea;" horiz-adv-x="538" d="M516 218q0 6 0.5 15.5t0.5 14.5q2 49 -15 93.5t-49 78t-77 53t-100 20.5q-52 -2 -96 -22t-76.5 -53.5t-50.5 -77.5t-18 -94q2 -54 21.5 -99t52.5 -77.5t77.5 -50.5t97.5 -18q35 -2 67 10t63 26l-8 33q-63 -17 -100 -17q-45 0 -75 16t-48.5 40t-27 53t-11.5 56h372z M272 436h2q55 0 90 -37t43 -119h-262q3 30 12 58t24.5 49.5t38 35t52.5 13.5zM427 565l-147 183l-144 -181l7 -17l139 84l138 -86z" />
<glyph unicode="&#xeb;" horiz-adv-x="538" d="M516 218q0 6 0.5 15.5t0.5 14.5q2 49 -15 93.5t-49 78t-77 53t-100 20.5q-52 -2 -96 -22t-76.5 -53.5t-50.5 -77.5t-18 -94q2 -54 21.5 -99t52.5 -77.5t77.5 -50.5t97.5 -18q35 -2 67 10t63 26l-8 33q-63 -17 -100 -17q-45 0 -75 16t-48.5 40t-27 53t-11.5 56h372z M272 436h2q55 0 90 -37t43 -119h-262q3 30 12 58t24.5 49.5t38 35t52.5 13.5zM114 633q0 -27 18 -44.5t44 -17.5t44.5 17.5t18.5 44.5q0 25 -18.5 43t-44.5 18t-44 -18t-18 -43zM302 633q0 -27 18 -44.5t43 -17.5q27 0 45.5 17.5t18.5 44.5q0 25 -19 43t-45 18 q-24 0 -42.5 -18t-18.5 -43z" />
<glyph unicode="&#xec;" horiz-adv-x="344" d="M235 295q0 46 1.5 76.5t10 49t27 26.5t51.5 8v45h-296v-45h10q30 0 46 -8t24 -26.5t9.5 -49t1.5 -76.5v-90q0 -46 -1.5 -76.5t-10 -49t-27 -26.5t-51.5 -8v-45h296v45h-10q-30 0 -46 8t-24 26.5t-9.5 49t-1.5 76.5v90zM106 750q-56 -86 -52 -89q2 -5 234 -83l15 31z" />
<glyph unicode="&#xed;" horiz-adv-x="344" d="M235 295q0 46 1.5 76.5t10 49t27 26.5t51.5 8v45h-296v-45h10q30 0 46 -8t24 -26.5t9.5 -49t1.5 -76.5v-90q0 -46 -1.5 -76.5t-10 -49t-27 -26.5t-51.5 -8v-45h296v45h-10q-30 0 -46 8t-24 26.5t-9.5 49t-1.5 76.5v90zM253 750l-198 -141l16 -31q229 77 235 83 q3 2 -53 89z" />
<glyph unicode="&#xee;" horiz-adv-x="344" d="M235 295q0 46 1.5 76.5t10 49t27 26.5t51.5 8v45h-296v-45h10q30 0 46 -8t24 -26.5t9.5 -49t1.5 -76.5v-90q0 -46 -1.5 -76.5t-10 -49t-27 -26.5t-51.5 -8v-45h296v45h-10q-30 0 -46 8t-24 26.5t-9.5 49t-1.5 76.5v90zM321 565l-147 183l-144 -181l7 -17l139 84l138 -86z " />
<glyph unicode="&#xef;" horiz-adv-x="344" d="M235 295q0 46 1.5 76.5t10 49t27 26.5t51.5 8v45h-296v-45h10q30 0 46 -8t24 -26.5t9.5 -49t1.5 -76.5v-90q0 -46 -1.5 -76.5t-10 -49t-27 -26.5t-51.5 -8v-45h296v45h-10q-30 0 -46 8t-24 26.5t-9.5 49t-1.5 76.5v90zM22 633q0 -27 18 -44.5t44 -17.5t44.5 17.5 t18.5 44.5q0 25 -18.5 43t-44.5 18t-44 -18t-18 -43zM210 633q0 -27 18 -44.5t43 -17.5q27 0 45.5 17.5t18.5 44.5q0 25 -19 43t-45 18q-24 0 -42.5 -18t-18.5 -43z" />
<glyph unicode="&#xf0;" horiz-adv-x="577" d="M453 749l-72 -52q-34 25 -75 39t-91 14l-17 -21q41 -12 74 -28.5t59 -39.5l-81 -58l36 -37l80 57q23 -31 37 -71t19 -94q-24 11 -58 26t-69 15q-69 0 -117.5 -20t-79.5 -54.5t-46 -79.5t-17 -95q1 -49 16 -94t46 -79.5t80 -55.5t118 -21q66 0 112 21t76 55.5t45 79.5 t17 94q5 49 0.5 104.5t-19.5 111t-41 107t-64 90.5l68 49zM150 267q0 50 10 83.5t28.5 53.5t44.5 28.5t57 7.5q31 1 57 -7t44.5 -28t28.5 -54t10 -84v-35q0 -50 -10 -84t-28.5 -54t-44.5 -28t-57 -7q-31 -1 -57 7.5t-44.5 28.5t-28.5 53.5t-10 83.5v35z" />
<glyph unicode="&#xf1;" horiz-adv-x="730" d="M498 264v-63q0 -46 -1.5 -76.5t-10 -49t-27 -26.5t-51.5 -8v-45h296v42l-10 3q-30 0 -46 8t-24 26.5t-9.5 49t-1.5 76.5v32q0 61 -13.5 109.5t-43 82.5t-76.5 52.5t-114 18.5q-121 0 -185.5 -70.5t-64.5 -192.5v-32q0 -46 -1.5 -76.5t-9.5 -49t-24 -26.5t-46 -8h-10v-45 h296v45q-33 0 -51.5 8t-27 26.5t-10 49t-1.5 76.5v63q0 50 10 84t28.5 54t44.5 28t57 7q31 1 55 -7.5t40 -28.5t24 -53.5t8 -83.5zM528 673l-15 17q-13 -15 -32 -28.5t-38 -13.5q-12 0 -27 6.5t-35 18.5q-38 25 -67 25q-81 0 -115 -110q3 -3 5.5 -3.5t4.5 -1t4.5 -2 t4.5 -6.5q15 26 33.5 36.5t34.5 10.5q14 0 32 -7t41 -20q45 -26 73 -26q58 0 96 104z" />
<glyph unicode="&#xf2;" d="M292 499q-69 0 -118 -21t-80 -55.5t-46 -79.5t-16 -94q2 -50 17 -95t46 -79.5t79.5 -54.5t117.5 -20q66 0 112.5 20t76.5 53.5t44.5 79t16.5 96.5q-2 49 -17 94t-45 79.5t-76 55.5t-112 21zM147 232v35q0 50 10 83.5t28.5 53.5t44.5 28.5t57 7.5q31 1 57 -7t44.5 -28 t28.5 -54t10 -84v-35q0 -50 -10 -84t-28.5 -54t-44.5 -28t-57 -7q-31 -1 -57 7.5t-44.5 28.5t-28.5 53.5t-10 83.5zM198 749q-56 -86 -52 -89q2 -5 234 -83l15 31z" />
<glyph unicode="&#xf3;" d="M292 499q-69 0 -118 -21t-80 -55.5t-46 -79.5t-16 -94q2 -50 17 -95t46 -79.5t79.5 -54.5t117.5 -20q66 0 112.5 20t76.5 53.5t44.5 79t16.5 96.5q-2 49 -17 94t-45 79.5t-76 55.5t-112 21zM147 232v35q0 50 10 83.5t28.5 53.5t44.5 28.5t57 7.5q31 1 57 -7t44.5 -28 t28.5 -54t10 -84v-35q0 -50 -10 -84t-28.5 -54t-44.5 -28t-57 -7q-31 -1 -57 7.5t-44.5 28.5t-28.5 53.5t-10 83.5zM397 747l-198 -141l16 -31q229 77 235 83q3 2 -53 89z" />
<glyph unicode="&#xf4;" d="M292 499q-69 0 -118 -21t-80 -55.5t-46 -79.5t-16 -94q2 -50 17 -95t46 -79.5t79.5 -54.5t117.5 -20q66 0 112.5 20t76.5 53.5t44.5 79t16.5 96.5q-2 49 -17 94t-45 79.5t-76 55.5t-112 21zM147 232v35q0 50 10 83.5t28.5 53.5t44.5 28.5t57 7.5q31 1 57 -7t44.5 -28 t28.5 -54t10 -84v-35q0 -50 -10 -84t-28.5 -54t-44.5 -28t-57 -7q-31 -1 -57 7.5t-44.5 28.5t-28.5 53.5t-10 83.5zM430 565l-147 183l-144 -181l7 -17l139 84l138 -86z" />
<glyph unicode="&#xf5;" d="M292 499q-69 0 -118 -21t-80 -55.5t-46 -79.5t-16 -94q2 -50 17 -95t46 -79.5t79.5 -54.5t117.5 -20q66 0 112.5 20t76.5 53.5t44.5 79t16.5 96.5q-2 49 -17 94t-45 79.5t-76 55.5t-112 21zM147 232v35q0 50 10 83.5t28.5 53.5t44.5 28.5t57 7.5q31 1 57 -7t44.5 -28 t28.5 -54t10 -84v-35q0 -50 -10 -84t-28.5 -54t-44.5 -28t-57 -7q-31 -1 -57 7.5t-44.5 28.5t-28.5 53.5t-10 83.5zM450 673l-15 17q-13 -15 -32 -28.5t-38 -13.5q-12 0 -27 6.5t-35 18.5q-38 25 -67 25q-81 0 -115 -110q3 -3 5.5 -3.5t4.5 -1t4.5 -2t4.5 -6.5 q15 26 33.5 36.5t34.5 10.5q14 0 32 -7t41 -20q45 -26 73 -26q58 0 96 104z" />
<glyph unicode="&#xf6;" d="M292 499q-69 0 -118 -21t-80 -55.5t-46 -79.5t-16 -94q2 -50 17 -95t46 -79.5t79.5 -54.5t117.5 -20q66 0 112.5 20t76.5 53.5t44.5 79t16.5 96.5q-2 49 -17 94t-45 79.5t-76 55.5t-112 21zM147 232v35q0 50 10 83.5t28.5 53.5t44.5 28.5t57 7.5q31 1 57 -7t44.5 -28 t28.5 -54t10 -84v-35q0 -50 -10 -84t-28.5 -54t-44.5 -28t-57 -7q-31 -1 -57 7.5t-44.5 28.5t-28.5 53.5t-10 83.5zM131 633q0 -27 18 -44.5t44 -17.5t44.5 17.5t18.5 44.5q0 25 -18.5 43t-44.5 18t-44 -18t-18 -43zM319 633q0 -27 18 -44.5t43 -17.5q27 0 45.5 17.5 t18.5 44.5q0 25 -19 43t-45 18q-24 0 -42.5 -18t-18.5 -43z" />
<glyph unicode="&#xf7;" horiz-adv-x="493" d="M17 409v-65h456v65h-456zM254 573q-32 0 -45.5 -17.5t-14.5 -40.5q1 -23 14.5 -40t45.5 -17q30 0 43 17t15 40q-2 23 -15 40.5t-43 17.5zM255 295q-32 0 -45.5 -17.5t-14.5 -40.5q1 -23 14.5 -40t45.5 -17q30 0 43 17t15 40q-2 23 -15 40.5t-43 17.5z" />
<glyph unicode="&#xf8;" horiz-adv-x="577" d="M429 552l-11 -19t-28 -50q-21 8 -45.5 12t-52.5 4q-69 0 -118 -21t-80 -55.5t-46 -79.5t-16 -94q3 -66 28.5 -122.5t81.5 -90.5q-23 -40 -36 -64.5t-12 -24.5h51l11 19t29 50q23 -8 49.5 -12t57.5 -4q66 0 112.5 20t76.5 53.5t44.5 79t16.5 96.5q-3 65 -28.5 122.5 t-80.5 91.5q22 40 35.5 64.5l13.5 24.5h-53zM147 232v35q0 50 10 83.5t28.5 53.5t44.5 28.5t57 7.5q41 2 72 -13q-20 -35 -42.5 -76t-46 -83.5t-47 -84.5t-44.5 -80q-16 21 -24 52.5t-8 76.5zM427 267v-35q0 -50 -10 -84t-28.5 -54t-44.5 -28t-57 -7q-42 -2 -71 13 q19 35 42 76t46 83t46.5 84t44.5 80q15 -20 23.5 -51.5t8.5 -76.5z" />
<glyph unicode="&#xf9;" horiz-adv-x="725" d="M227 232v63q0 46 1.5 76.5t10 49t27 26.5t51.5 8v45h-296v-42l10 -3q30 0 46 -8t24 -26.5t9.5 -49t1.5 -76.5v-32q0 -61 15 -109.5t46 -82.5t79 -52.5t115 -18.5q120 0 181 70.5t61 192.5v32q0 46 1.5 76.5t9.5 49t24 26.5t46 8h10v45h-296v-45q33 0 51.5 -8t27 -26.5 t10 -49t1.5 -76.5v-63q0 -50 -9 -84t-26 -54t-41.5 -28t-55.5 -7q-31 -1 -56 7.5t-42.5 28.5t-27 53.5t-9.5 83.5zM246 749q-56 -86 -52 -89q2 -5 234 -83l15 31z" />
<glyph unicode="&#xfa;" horiz-adv-x="725" d="M227 232v63q0 46 1.5 76.5t10 49t27 26.5t51.5 8v45h-296v-42l10 -3q30 0 46 -8t24 -26.5t9.5 -49t1.5 -76.5v-32q0 -61 15 -109.5t46 -82.5t79 -52.5t115 -18.5q120 0 181 70.5t61 192.5v32q0 46 1.5 76.5t9.5 49t24 26.5t46 8h10v45h-296v-45q33 0 51.5 -8t27 -26.5 t10 -49t1.5 -76.5v-63q0 -50 -9 -84t-26 -54t-41.5 -28t-55.5 -7q-31 -1 -56 7.5t-42.5 28.5t-27 53.5t-9.5 83.5zM471 747l-198 -141l16 -31q229 77 235 83q3 2 -53 89z" />
<glyph unicode="&#xfb;" horiz-adv-x="725" d="M227 232v63q0 46 1.5 76.5t10 49t27 26.5t51.5 8v45h-296v-42l10 -3q30 0 46 -8t24 -26.5t9.5 -49t1.5 -76.5v-32q0 -61 15 -109.5t46 -82.5t79 -52.5t115 -18.5q120 0 181 70.5t61 192.5v32q0 46 1.5 76.5t9.5 49t24 26.5t46 8h10v45h-296v-45q33 0 51.5 -8t27 -26.5 t10 -49t1.5 -76.5v-63q0 -50 -9 -84t-26 -54t-41.5 -28t-55.5 -7q-31 -1 -56 7.5t-42.5 28.5t-27 53.5t-9.5 83.5zM505 567l-147 183l-144 -181l7 -17l139 84l138 -86z" />
<glyph unicode="&#xfc;" horiz-adv-x="725" d="M227 232v63q0 46 1.5 76.5t10 49t27 26.5t51.5 8v45h-296v-42l10 -3q30 0 46 -8t24 -26.5t9.5 -49t1.5 -76.5v-32q0 -61 15 -109.5t46 -82.5t79 -52.5t115 -18.5q120 0 181 70.5t61 192.5v32q0 46 1.5 76.5t9.5 49t24 26.5t46 8h10v45h-296v-45q33 0 51.5 -8t27 -26.5 t10 -49t1.5 -76.5v-63q0 -50 -9 -84t-26 -54t-41.5 -28t-55.5 -7q-31 -1 -56 7.5t-42.5 28.5t-27 53.5t-9.5 83.5zM207 633q0 -27 18 -44.5t44 -17.5t44.5 17.5t18.5 44.5q0 25 -18.5 43t-44.5 18t-44 -18t-18 -43zM395 633q0 -27 18 -44.5t43 -17.5q27 0 45.5 17.5 t18.5 44.5q0 25 -19 43t-45 18q-24 0 -42.5 -18t-18.5 -43z" />
<glyph unicode="&#xfd;" horiz-adv-x="725" d="M621 -196v45h-2q-27 0 -43.5 1t-25 5t-11 12.5t-1.5 23.5q-2 23 -8.5 40t-18.5 30t-29 24.5t-40 23.5q13 5 25 7.5t24 10.5q58 31 87 91t29 145v32q0 46 1.5 76.5t9.5 49t24 26.5t46 8h10v45h-296v-45q33 0 51.5 -8t27 -26.5t10 -49t1.5 -76.5v-63q0 -50 -9 -84t-26 -54 t-41.5 -28t-55.5 -7q-31 -1 -56 7.5t-42.5 28.5t-27 53.5t-9.5 83.5v63q0 46 1.5 76.5t10 49t27 26.5t51.5 8v45h-296v-42l10 -3q30 0 46 -8t24 -26.5t9.5 -49t1.5 -76.5v-32q0 -102 41.5 -168.5t132.5 -86.5l46 -10t42.5 -15t32.5 -26t17 -42q-2 -24 -6 -37t-14 -19.5 t-26.5 -8t-42.5 -1.5v-45h288zM471 747l-198 -141l16 -31q229 77 235 83q3 2 -53 89z" />
<glyph unicode="&#xfe;" horiz-adv-x="626" d="M6 705h10q30 0 46 -8t24 -26.5t9.5 -49t1.5 -76.5q0 -81 -0.5 -134.5t-0.5 -91.5v-67v-63v-76v-110q0 -46 -1.5 -76.5t-10 -49t-27 -26.5t-51.5 -8v-45h286v45h-10q-29 0 -45 8t-23 26t-8 48t-1 74v29q29 -14 63.5 -21t79.5 -7q66 0 112 17t76 49.5t45 78.5t17 104 q-2 58 -17 104t-45 78.5t-76 50t-112 17.5q-45 0 -80 -7t-63 -21v74q0 46 1.5 76.5t10 49t27 26.5t51.5 8v45h-289v-45zM343 440q31 1 57 -7t44.5 -28t28.5 -54t10 -84v-35q0 -50 -10 -84t-28.5 -54t-44.5 -28t-57 -7q-56 -2 -92.5 42.5t-44.5 119.5v29q0 61 11 99 t29.5 58.5t43.5 27t53 5.5z" />
<glyph unicode="&#xff;" horiz-adv-x="725" d="M621 -196v45h-2q-27 0 -43.5 1t-25 5t-11 12.5t-1.5 23.5q-2 23 -8.5 40t-18.5 30t-29 24.5t-40 23.5q13 5 25 7.5t24 10.5q58 31 87 91t29 145v32q0 46 1.5 76.5t9.5 49t24 26.5t46 8h10v45h-296v-45q33 0 51.5 -8t27 -26.5t10 -49t1.5 -76.5v-63q0 -50 -9 -84t-26 -54 t-41.5 -28t-55.5 -7q-31 -1 -56 7.5t-42.5 28.5t-27 53.5t-9.5 83.5v63q0 46 1.5 76.5t10 49t27 26.5t51.5 8v45h-296v-42l10 -3q30 0 46 -8t24 -26.5t9.5 -49t1.5 -76.5v-32q0 -102 41.5 -168.5t132.5 -86.5l46 -10t42.5 -15t32.5 -26t17 -42q-2 -24 -6 -37t-14 -19.5 t-26.5 -8t-42.5 -1.5v-45h288zM207 633q0 -27 18 -44.5t44 -17.5t44.5 17.5t18.5 44.5q0 25 -18.5 43t-44.5 18t-44 -18t-18 -43zM395 633q0 -27 18 -44.5t43 -17.5q27 0 45.5 17.5t18.5 44.5q0 25 -19 43t-45 18q-24 0 -42.5 -18t-18.5 -43z" />
<glyph unicode="&#x152;" horiz-adv-x="935" d="M912 56h-211q-31 0 -62 8t-55.5 28.5t-40 53.5t-15.5 83v149h273v46h-273v121q0 41 1 70t7.5 47.5t20 28.5t37.5 13h319v46q-139 0 -235.5 0.5t-159.5 0.5h-99h-53h-23h-8q-143 0 -218.5 -70.5t-75.5 -192.5v-225q0 -122 75.5 -192.5t218.5 -70.5q110 0 180 47 q72 -48 186 -49h211v58zM330 59q-31 -1 -62 7.5t-56 28.5t-40.5 53.5t-15.5 83.5v287q0 50 15.5 83.5t40.5 53.5t56 28.5t62 7.5q16 0 32 -1.5t32 -6.5q8 0 12 -11.5t5.5 -30.5t1.5 -45v-52v-285q0 -95 45 -158q-26 -25 -60 -35t-68 -8z" />
<glyph unicode="&#x153;" horiz-adv-x="935" d="M912 218q0 6 0.5 15.5t0.5 14.5q2 49 -15 93.5t-49 78t-77 53t-100 20.5q-56 -2 -102.5 -24.5t-78.5 -60.5q-29 42 -78 66.5t-121 24.5q-69 0 -118 -21t-80 -55.5t-46 -79.5t-16 -94q2 -50 17 -95t46 -79.5t79.5 -54.5t117.5 -20q71 0 120 23t78 62q34 -40 82 -62 t108 -22q35 -2 67 10t63 26l-8 33q-63 -17 -100 -17q-45 0 -75 16t-48.5 40t-27 53t-11.5 56h372zM147 232v35q0 50 10 83.5t28.5 53.5t44.5 28.5t57 7.5q31 1 57 -7t44.5 -28t28.5 -54t10 -84v-35q0 -50 -10 -84t-28.5 -54t-44.5 -28t-57 -7q-31 -1 -57 7.5t-44.5 28.5 t-28.5 53.5t-10 83.5zM668 436h2q55 0 90 -37t43 -119h-262q3 30 12 58t24.5 49.5t38 35t52.5 13.5z" />
<glyph unicode="&#x178;" horiz-adv-x="797" d="M225 489v57q0 46 1.5 76.5t10 49t27 26.5t51.5 8v45h-296v-45h10q30 0 46 -8t24 -26.5t9.5 -49t1.5 -76.5v-26q0 -109 60 -177t174 -83v-55q0 -46 -1.5 -76.5t-10 -49t-27 -26.5t-51.5 -8v-45h296v45h-10q-30 0 -46 8t-24 26.5t-9.5 49t-1.5 76.5v55q110 14 170 82.5 t60 177.5v27q0 46 1.5 76.5t9.5 48.5t24 25.5t46 7.5h10v45l-296 1v-45q33 0 51.5 -8t27 -26.5t10 -49t1.5 -76.5v-57q0 -50 -15.5 -84t-40.5 -54t-56.5 -28t-62.5 -7q-31 -1 -62 7.5t-56 28.5t-40.5 53.5t-15.5 83.5zM246 883q0 -27 18 -44.5t44 -17.5t44.5 17.5t18.5 44.5 q0 25 -18.5 43t-44.5 18t-44 -18t-18 -43zM434 883q0 -27 18 -44.5t43 -17.5q27 0 45.5 17.5t18.5 44.5q0 25 -19 43t-45 18q-24 0 -42.5 -18t-18.5 -43z" />
<glyph unicode="&#x2c6;" horiz-adv-x="501" d="M396 815l-147 183l-144 -181l7 -17l139 84l138 -86z" />
<glyph unicode="&#x2dc;" horiz-adv-x="585" d="M470 923l-15 17q-13 -15 -32 -28.5t-38 -13.5q-12 0 -27 6.5t-35 18.5q-38 25 -67 25q-81 0 -115 -110q3 -3 5.5 -3.5t4.5 -1t4.5 -2t4.5 -6.5q15 26 33.5 36.5t34.5 10.5q14 0 32 -7t41 -20q45 -26 73 -26q58 0 96 104z" />
<glyph unicode="&#x2000;" horiz-adv-x="499" />
<glyph unicode="&#x2001;" horiz-adv-x="999" />
<glyph unicode="&#x2002;" horiz-adv-x="499" />
<glyph unicode="&#x2003;" horiz-adv-x="999" />
<glyph unicode="&#x2004;" horiz-adv-x="333" />
<glyph unicode="&#x2005;" horiz-adv-x="249" />
<glyph unicode="&#x2006;" horiz-adv-x="166" />
<glyph unicode="&#x2007;" horiz-adv-x="166" />
<glyph unicode="&#x2008;" horiz-adv-x="124" />
<glyph unicode="&#x2009;" horiz-adv-x="199" />
<glyph unicode="&#x200a;" horiz-adv-x="55" />
<glyph unicode="&#x2010;" horiz-adv-x="350" d="M48 304v-75h250v75h-250z" />
<glyph unicode="&#x2011;" horiz-adv-x="350" d="M48 304v-75h250v75h-250z" />
<glyph unicode="&#x2012;" horiz-adv-x="350" d="M48 304v-75h250v75h-250z" />
<glyph unicode="&#x2013;" horiz-adv-x="399" d="M-1 350v-75h401v75h-401z" />
<glyph unicode="&#x2014;" horiz-adv-x="552" d="M-1 350v-75h553v75h-553z" />
<glyph unicode="&#x2018;" horiz-adv-x="152" d="M0 750l127 -201h28l-67 201h-88z" />
<glyph unicode="&#x2019;" horiz-adv-x="152" d="M154 750h-88l-67 -201h28z" />
<glyph unicode="&#x201a;" horiz-adv-x="137" d="M139 101h-88l-67 -201h28z" />
<glyph unicode="&#x201c;" horiz-adv-x="301" d="M14 750l139 -201h28l-79 201h-88zM149 750l127 -201h28l-67 201h-88z" />
<glyph unicode="&#x201d;" horiz-adv-x="301" d="M304 750h-88l-79 -201h28zM169 750h-88l-67 -201h28z" />
<glyph unicode="&#x201e;" horiz-adv-x="274" d="M277 100h-88l-79 -201h28zM142 100h-88l-67 -201h28z" />
<glyph unicode="&#x2022;" horiz-adv-x="362" d="M27 347q0 -32 12 -60t33 -49t49 -33t60 -12t60.5 12t49.5 33t33 49t12 60t-12 60t-33 49t-49.5 33t-60.5 12t-60 -12t-49 -33t-33 -49t-12 -60z" />
<glyph unicode="&#x2026;" horiz-adv-x="537" d="M85 115q-32 0 -45.5 -17.5t-14.5 -40.5q1 -23 14.5 -40t45.5 -17q30 0 43 17t15 40q-2 23 -15 40.5t-43 17.5zM275 115q-32 0 -45.5 -17.5t-14.5 -40.5q1 -23 14.5 -40t45.5 -17q30 0 43 17t15 40q-2 23 -15 40.5t-43 17.5zM458 117q-32 0 -45.5 -17.5t-14.5 -40.5 q1 -23 14.5 -40t45.5 -17q30 0 43 17t15 40q-2 23 -15 40.5t-43 17.5z" />
<glyph unicode="&#x202f;" horiz-adv-x="199" />
<glyph unicode="&#x2039;" horiz-adv-x="253" d="M67 193q63 -72 99.5 -116t41.5 -44t12.5 3t4.5 10q-7 15 -21 41t-27.5 54.5t-24 56.5t-10.5 48l8.5 24t21.5 57.5t27.5 68.5t25.5 56q2 5 -5 7.5t-12 2.5q-2 0 -18.5 -18.5t-39 -45.5t-47.5 -56.5t-44 -51.5q-17 -20 -21 -28t-4 -15t5.5 -18.5t27.5 -35.5z" />
<glyph unicode="&#x203a;" horiz-adv-x="244" d="M189 201q22 24 27.5 35.5t5.5 18.5t-4 15t-21 28q-19 22 -44 51.5t-47.5 56.5t-39 45.5t-18.5 18.5q-5 0 -12 -2.5t-5 -7.5q11 -21 25.5 -56t27 -68.5t21.5 -57.5l9 -24q0 -20 -10.5 -48t-24 -56.5t-27.5 -54.5t-21 -41q-3 -7 4.5 -10t12.5 -3t41.5 44t99.5 116z" />
<glyph unicode="&#x205f;" horiz-adv-x="249" />
<glyph unicode="&#x20ac;" horiz-adv-x="647" d="M469 280v42h-310q-1 8 -1.5 15.5t-0.5 15.5v46v3h358v46l-354 -1q15 115 73 177t149 62q76 0 129.5 -43t81.5 -142h30q-9 41 -11.5 79.5t-3.5 68t-1.5 47t-6.5 17.5q-24 0 -53 6t-59.5 13.5t-61.5 13.5t-59 6q-75 0 -137.5 -28t-108.5 -78.5t-71.5 -121t-25.5 -155.5 q0 -66 16 -125.5t48 -108t79 -83t109 -48.5q44 -11 89 -11q28 0 59 6t61.5 13.5t59.5 13.5t53 6q6 0 6.5 17.5t1.5 47t3.5 68t11.5 79.5h-30q-28 -99 -81.5 -142t-129.5 -43q-5 -3 -19.5 -1t-31 5.5t-30.5 8.5t-18 10q-45 26 -75 77t-42 121h304z" />
<glyph unicode="&#x2122;" horiz-adv-x="861" d="M706 459v-48q0 -24 -1 -40.5t-6 -26.5t-15.5 -14t-30.5 -4v-42h197v39q-19 -2 -30 2.5t-16.5 15.5t-7 28.5t-1.5 41.5v30q0 77 -36 122t-122 45q-35 0 -64 -10.5t-49 -30.5q-20 18 -48.5 28.5t-66.5 10.5q-77 0 -118 -45t-41 -123v-19q0 -49 -5.5 -67.5t-33.5 -18.5 q-16 0 -25 4.5t-13 14.5t-5 26.5t-1 40.5v132h70v55h-70v142h-89v-142h-71v-55h71v-132q0 -24 -1 -40.5t-6 -26.5t-16 -14.5t-31 -4.5v-47h368v47q-20 0 -31 4.5t-16 14.5t-6 26.5t-1 40.5v38q0 52 20.5 72.5t58.5 20.5q30 0 45.5 -20.5t15.5 -71.5v-52q0 -20 -1.5 -34 t-7 -22.5t-16 -12.5t-29.5 -4v-47h198v43q-22 -1 -33.5 3.5t-16 16t-5 29t-0.5 41.5v40q0 52 20 73t56 21q32 0 47.5 -20.5t15.5 -73.5z" />
<glyph unicode="&#xe000;" horiz-adv-x="500" d="M0 500h500v-500h-500v500z" />
<glyph unicode="&#xfb01;" horiz-adv-x="708" d="M591 216q0 46 1.5 76.5t10 49t27 26.5t51.5 8v45l-521 1v97q0 49 15.5 82.5t40 54t55.5 28.5t62 8h115v58h-115q-140 -1 -214 -71t-74 -191v-483q0 -46 -1.5 -76.5t-9.5 -49t-24 -26.5t-46 -8l-10 -3v-42h300v46h-28q-25 -1 -38.5 8t-19.5 29t-7 50.5t-1 71.5v371h235 q30 0 46 -8t24 -26.5t9.5 -49t1.5 -76.5v-10q0 -46 -1.5 -76.5t-10 -49t-27 -26.5t-51.5 -8v-45h296v45h-10q-30 0 -46 8t-24 26.5t-9.5 49t-1.5 76.5v10zM457 581q0 -31 21.5 -53t52.5 -22t53 22t22 53t-22 53t-53 22t-52.5 -22t-21.5 -53z" />
<glyph unicode="&#xfb02;" horiz-adv-x="658" d="M646 46h-10q-30 0 -46 8t-24 26.5t-9.5 49t-1.5 76.5v545l-226 -1q-140 -1 -214 -71t-74 -191v-484q0 -46 -1.5 -76.5t-9.5 -49t-24 -26.5t-46 -8l-10 -3v-42h300v46h-28q-25 -1 -38.5 8t-19.5 29t-7 50.5t-1 71.5v328h221v46h-221v141q0 49 15.5 82.5t40 54t55.5 28.5 t62 8h111v-486q0 -46 -1.5 -76.5t-10 -49t-27 -26.5t-51.5 -8v-45h296v45z" />
<glyph unicode="&#xfb03;" horiz-adv-x="1057" d="M424 691v58h-94q-140 -1 -214 -71t-74 -191v-483q0 -46 -1.5 -76.5t-9.5 -49t-24 -26.5t-46 -8l-10 -3v-42h300v46h-28q-25 -1 -38.5 8t-19.5 29t-7 50.5t-1 71.5v371h237v-370q0 -46 -1.5 -76.5t-9.5 -49t-24 -26.5t-46 -8l-10 -3v-42h300v46h-28q-25 -1 -38.5 8 t-19.5 29t-7 50.5t-1 71.5v371h235q30 0 46 -8t24 -26.5t9.5 -49t1.5 -76.5v-10q0 -46 -1.5 -76.5t-10 -49t-27 -26.5t-51.5 -8v-45h296v45h-10q-30 0 -46 8t-24 26.5t-9.5 49t-1.5 76.5v10q0 46 1.5 76.5t10 49t27 26.5t51.5 8v45l-521 1v97q0 49 15.5 82.5t40 54 t55.5 28.5t62 8h115v58h-115q-140 -1 -214 -71t-74 -191v-67h-237v97q0 49 15.5 82.5t40 54t55.5 28.5t62 8h94zM806 581q0 -31 21.5 -53t52.5 -22t53 22t22 53t-22 53t-53 22t-52.5 -22t-21.5 -53z" />
<glyph unicode="&#xfb04;" horiz-adv-x="997" d="M420 690v58h-94q-140 -1 -214 -71t-74 -191v-483q0 -46 -1.5 -76.5t-9.5 -49t-24 -26.5t-46 -8l-10 -3v-42h300v46h-28q-25 -1 -38.5 8t-19.5 29t-7 50.5t-1 71.5v329h227v-328q0 -46 -1.5 -76.5t-9.5 -49t-24 -26.5t-46 -8l-10 -3v-42h300v46h-28q-25 -1 -38.5 8 t-19.5 29t-7 50.5t-1 71.5v328h221v46h-221v141q0 49 15.5 82.5t40 54t55.5 28.5t62 8h111v-486q0 -46 -1.5 -76.5t-10 -49t-27 -26.5t-51.5 -8v-45h296v45h-10q-30 0 -46 8t-24 26.5t-9.5 49t-1.5 76.5v545l-226 -1q-140 -1 -214 -71t-74 -191v-110h-227v139 q0 49 15.5 82.5t40 54t55.5 28.5t62 8h94z" />
</font>
</defs>
</svg>
