<?xml version="1.0" standalone="no"?>
<!DOCTYPE svg PUBLIC "-//W3C//DTD SVG 1.1//EN" "http://www.w3.org/Graphics/SVG/1.1/DTD/svg11.dtd" >
<svg xmlns="http://www.w3.org/2000/svg">
<metadata></metadata>
<defs>
<font id="anagramregular" horiz-adv-x="500" >
<font-face units-per-em="1000" ascent="800" descent="-200" />
<missing-glyph horiz-adv-x="333" />
<glyph horiz-adv-x="1000" />
<glyph horiz-adv-x="1000" />
<glyph unicode="&#xd;" horiz-adv-x="1000" />
<glyph unicode=" "  horiz-adv-x="333" />
<glyph unicode="&#x09;" horiz-adv-x="333" />
<glyph unicode="&#xa0;" horiz-adv-x="333" />
<glyph unicode="!" horiz-adv-x="240" d="M229 97q0 -45 -32 -76.5t-77 -31.5t-77 31.5t-32 76.5t32 77t77 32t77 -32t32 -77v0zM228 685l-14 -451h-189l-13 451h216v0z" />
<glyph unicode="&#x22;" horiz-adv-x="348" d="M199 699l-85 -154l-104 38l85 153l104 -37v0zM349 699l-85 -154l-104 38l85 153l104 -37v0z" />
<glyph unicode="#" />
<glyph unicode="$" horiz-adv-x="456" d="M435 566l-125 -125q-10 10 -22 15t-25 4q-13 0 -24.5 -4.5t-21.5 -14.5q-8 -8 -13 -18.5t-6 -20.5v-5v-4q0 -13 4.5 -24.5t14.5 -21.5q8 -7 15.5 -14.5t14.5 -15.5q20 -20 31.5 -46t13.5 -52v-5.5v-5.5q0 -32 -12.5 -60.5t-33.5 -50.5v-96h-95v52h-6.5h-7.5 q-30 0 -58.5 11.5t-51.5 33.5l95 94q-2 2 -5 4.5t-5 5.5l-4 4l-4 4q-3 4 -6 7l-6 6q-36 35 -53.5 80t-17.5 91v5.5v5.5q2 44 19.5 86t51.5 75q14 14 28.5 25t30.5 19v85h95v-59q5 0 10 0.5t9 0.5q47 -1 91 -18.5t79 -52.5v0z" />
<glyph unicode="%" />
<glyph unicode="&#x26;" horiz-adv-x="605" d="M578 1h-95q-30 0 -57.5 8.5t-50.5 23.5q-27 -18 -59 -28t-67 -10q-91 0 -156.5 65t-65.5 156q0 47 17 88.5t51 74.5q-10 21 -15 43.5t-5 46.5q0 89 63.5 152.5t151.5 63.5q62 0 113.5 -32.5t79.5 -85.5l-169 -86q-3 7 -9 11t-12 5h-2h-2h-3t-3 -1q-3 -1 -6 -2.5t-6 -4.5 q-4 -4 -6 -9.5t-2 -10.5q0 -9 6 -17t16 -10h281v-189h-95v-25.5v-25.5q0 -4 4 -8t8 -4h95v-189v0zM282 216v18v19h-16.5h-16.5q-13 0 -23 -8.5t-10 -22.5q0 -9 1.5 -16t8.5 -14q5 -4 11 -6.5t12 -2.5q13 0 23 9t10 24v0z" />
<glyph unicode="'" horiz-adv-x="208" d="M199 699l-85 -154l-104 38l85 153l104 -37v0z" />
<glyph unicode="(" />
<glyph unicode=")" />
<glyph unicode="*" horiz-adv-x="391" d="M373 492l-123 28l86 -92l-103 -60l-37 120l-37 -121l-104 60l86 91l-123 -27v119l123 -29l-87 94l104 60l36 -122l37 122l104 -60l-87 -93l125 29v-119v0z" />
<glyph unicode="+" />
<glyph unicode="," horiz-adv-x="245" d="M197 180q20 -16 28.5 -36.5t8.5 -43.5q0 -10 -1.5 -19.5t-4.5 -19.5q-15 -52 -59.5 -96.5t-94.5 -57.5l-12 23l8 9q6 8 8.5 15.5t2.5 15.5q0 12 -6 22t-13 18q-2 1 -3.5 2.5l-2.5 2.5q-17 14 -26.5 33.5t-11.5 40.5v4v4q0 19 6.5 37t19.5 34q16 19 38 28.5t45 9.5 q5 0 9.5 -0.5t8.5 -1.5q14 -2 27.5 -8t24.5 -16v0z" />
<glyph unicode="-" horiz-adv-x="234" d="M223 280h-212v145h212v-145v0z" />
<glyph unicode="." horiz-adv-x="240" d="M229 97q0 -45 -32 -76.5t-77 -31.5t-77 31.5t-32 76.5t32 77t77 32t77 -32t32 -77v0z" />
<glyph unicode="/" horiz-adv-x="300" d="M349 785l-330 -980h-78l330 980h78v0z" />
<glyph unicode="0" horiz-adv-x="806" d="M769 343q0 -151 -107.5 -258.5t-258.5 -107.5t-258.5 107.5t-107.5 258.5t107.5 258.5t258.5 107.5t258.5 -107.5t107.5 -258.5v0zM557 343q0 63 -45.5 108t-108.5 45q-64 0 -109 -45t-45 -108q0 -64 45 -109t109 -45q63 0 108.5 45t45.5 109v0z" />
<glyph unicode="1" horiz-adv-x="340" d="M324 0h-212v472h-97v212h309v-684v0z" />
<glyph unicode="2" horiz-adv-x="614" d="M586 0h-519q69 103 138 206.5t137 206.5q2 3 3 6t1 7q1 3 1 5.5v4.5q0 22 -15.5 37.5t-38.5 15.5q-22 0 -37.5 -15.5t-15.5 -37.5h-212q0 110 78 187.5t187 77.5q115 0 191 -81.5t75 -186.5q0 -17 -2 -34.5t-7 -34.5q-9 -32 -26.5 -61.5t-37.5 -57.5q-6 -8 -11.5 -16.5 t-11.5 -16.5h123v-212v0z" />
<glyph unicode="3" horiz-adv-x="431" d="M413 225q0 -92 -66 -158.5t-160 -66.5h-40h-40h-41h-40v212h161q7 0 10.5 4.5t2.5 9.5q0 5 -3 9t-10 4h-113l-1 213h107q5 0 6.5 2.5t1.5 6.5t-2 7t-7 3h-158v212h39.5h39.5h39.5h39.5q92 0 157 -65t65 -156q0 -29 -7.5 -56.5t-21.5 -51.5q20 -28 30.5 -60.5t10.5 -68.5 v0z" />
<glyph unicode="4" horiz-adv-x="668" d="M637 105h-20v-105h-213v105h-374l240 517l134 -61v124h213v-368h20v-212v0zM404 317v91l-42 -91h42v0z" />
<glyph unicode="5" horiz-adv-x="480" d="M458 473h-106h-102v-23q91 -25 148.5 -101t57.5 -171q0 -124 -91.5 -208t-214.5 -74q-2 0 -8 1t-15 3q-26 4 -52.5 8t-52.5 9l35 208q13 -2 26 -4.5t26 -4.5l26 -4l26 -4q3 -1 6 -1h6q31 0 51 22t20 50q0 13 -5 25.5t-16 22.5q-10 10 -23 15.5t-27 5.5h-67.5h-67.5v437 h420v-212v0z" />
<glyph unicode="6" horiz-adv-x="571" d="M545 251q0 -106 -76 -182.5t-183 -76.5t-183.5 76t-76.5 183q0 36 9.5 69.5t26.5 61.5l42 72.5t93 158.5q10 18 21 36.5t21 35.5h245l-110 -190q74 -27 122.5 -93.5t48.5 -150.5v0zM319 284q-5 5 -10.5 8t-11.5 5q-3 0 -5.5 0.5t-5.5 0.5q-12 0 -22.5 -5.5t-17.5 -15.5 l-1 -2q-3 -5 -5 -11t-2 -13q0 -19 14.5 -33t33.5 -14q21 0 33.5 15t12.5 33v4t-1 4q-1 7 -4 13t-8 11v0z" />
<glyph unicode="7" horiz-adv-x="591" d="M564 685l-339 -729l-192 89l199 428h-205v212h537v0z" />
<glyph unicode="8" horiz-adv-x="571" d="M545 251q0 -106 -76 -182.5t-183 -76.5t-183.5 76t-76.5 183q0 52 19 98t52 80q-5 15 -8 31.5t-3 32.5q0 83 59 141.5t141 58.5t140.5 -58.5t58.5 -141.5q0 -16 -3 -32.5t-8 -31.5q33 -34 52 -80t19 -98v0zM319 284q-7 8 -16 11t-18 3q-18 0 -32.5 -13t-14.5 -34 q0 -19 14.5 -33t33.5 -14q21 0 33.5 15t12.5 33v4t-1 4q-1 7 -4 13t-8 11v0zM309 517q-5 5 -11 7.5t-13 2.5q-13 0 -23 -9.5t-10 -24.5q0 -13 10 -23.5t24 -10.5q15 0 24 11t9 24q0 6 -2.5 12t-7.5 11v0z" />
<glyph unicode="9" horiz-adv-x="571" d="M545 448q0 -36 -9.5 -69.5t-26.5 -62.5l-42 -71.5t-92 -158.5q-26 -45 -51.5 -87.5t-44.5 -75.5l-194 88l113 192q-75 28 -123.5 94.5t-48.5 150.5q0 107 76 183t184 76q107 0 183 -76t76 -183v0zM333 448q0 20 -14 33.5t-33 13.5q-22 0 -35 -15t-12 -34v-4t1 -4 q1 -7 4 -13t8 -11q5 -4 10.5 -7.5t11.5 -4.5q3 -1 5.5 -1h5.5q12 0 22.5 5t17.5 15l1 2q3 5 5 11.5t2 13.5v0z" />
<glyph unicode=":" horiz-adv-x="240" d="M229 97q0 -45 -32 -76.5t-77 -31.5t-77 31.5t-32 76.5t32 77t77 32t77 -32t32 -77v0zM229 347q0 -45 -32 -77t-77 -32t-77 32t-32 77t32 77t77 32t77 -32t32 -77v0z" />
<glyph unicode=";" horiz-adv-x="240" d="M197 180q20 -16 28.5 -36.5t8.5 -43.5q0 -10 -1.5 -19.5t-4.5 -19.5q-15 -52 -59.5 -96.5t-94.5 -57.5l-12 23l8 9q6 8 8.5 15.5t2.5 15.5q0 12 -6 22t-13 18q-2 1 -3.5 2.5l-2.5 2.5q-17 14 -26.5 33.5t-11.5 40.5v4v4q0 19 6.5 37t19.5 34q16 19 38 28.5t45 9.5 q5 0 9.5 -0.5t8.5 -1.5q14 -2 27.5 -8t24.5 -16v0zM229 347q0 -45 -32 -77t-77 -32t-77 32t-32 77t32 77t77 32t77 -32t32 -77v0z" />
<glyph unicode="&#x3c;" horiz-adv-x="400" d="M379 111l-375 217v57l375 217v-92l-250 -154l250 -154v-91v0z" />
<glyph unicode="=" horiz-adv-x="400" d="M400 257h-405v76h405v-76v0zM400 407h-405v76h405v-76v0z" />
<glyph unicode="&#x3e;" horiz-adv-x="400" d="M381 328l-375 -217v91l251 154l-251 154v92l375 -217v-57v0z" />
<glyph unicode="?" horiz-adv-x="464" d="M407 591q18 -27 27 -57t9 -61q0 -37 -13 -73.5t-39 -66.5q-19 -22 -38.5 -44.5t-39.5 -44.5l-4 -4l-4 -4q-2 -3 -4 -6.5t-2 -8.5v-11v-7v-7v-11h-38q20 -15 32.5 -38t12.5 -50q0 -45 -32 -76.5t-77 -31.5t-77 31.5t-32 76.5q0 27 12 50t32 38h-45v27.5v26.5q0 53 21.5 86 t46.5 61q13 14 25.5 28.5t24.5 28.5q6 7 12.5 14.5t12.5 14.5l-202 -55q-4 14 -5.5 27.5t-1.5 26.5q0 52 24.5 99t68.5 77q27 19 57 27.5t61 8.5q51 0 98 -23.5t77 -68.5v0zM233 471q0 1 -0.5 0.5l-0.5 -0.5h-0.5h-0.5v0v1l2 1v-1v0v0v-1v0v0z" />
<glyph unicode="@" horiz-adv-x="938" d="M630 695l-243 -718q-14 -42 -51 -67.5t-80 -25.5q-4 0 -8.5 0.5t-8.5 0.5q-5 1 -9 2t-9 2l8 35q6 -1 12 -1.5t12 -0.5q33 0 60.5 20.5t37.5 50.5l218 642q-13 -5 -27 -7.5t-28 -2.5q-34 0 -70 11t-72 25q-3 2 -6.5 3t-6.5 3q-39 15 -77.5 27.5t-74.5 13.5q-9 0 -25.5 -1 t-35.5 -7t-36 -19.5t-25 -37.5q-2 -7 -3.5 -14.5t-1.5 -14.5q1 -26 15.5 -48t43.5 -30l-8 -37q-43 11 -65.5 45t-22.5 74q0 5 0.5 10t1.5 10q0 5 1.5 10t2.5 10q17 50 54.5 69t82.5 19q12 0 24 -1t24 -3q32 -5 62.5 -14.5t57.5 -19.5q9 -4 21.5 -8.5t26.5 -9.5 q15 -5 31.5 -10t33.5 -9q13 -3 26.5 -4.5t25.5 -1.5q26 0 46.5 9.5t28.5 34.5l36 -14v0zM896 179l-154 -81q6 -2 12 -3.5t13 -1.5h4.5t4.5 1q24 2 45 16.5t32 32.5l33 -21q-17 -28 -49.5 -47.5t-67.5 -19.5q-4 0 -8.5 0.5t-8.5 1.5q-4 0 -8.5 1.5t-8.5 2.5q-27 9 -39 25.5 t-12 35.5q0 5 1 10l2 10q10 36 46 65.5t80 29.5q5 0 9 -0.5t9 -0.5q4 -1 8.5 -2t8.5 -3t11 -6.5t15 -12.5q6 -6 12 -14.5t10 -18.5v0zM841 194l-0.5 0.5l-0.5 0.5q-1 0 -1.5 0.5l-0.5 0.5q-5 2 -10.5 2.5t-10.5 0.5q-4 0 -7.5 -0.5t-6.5 -0.5q-27 -5 -50.5 -23.5 t-28.5 -41.5l117 61v0zM755 678q-3 0 -6.5 -0.5t-6.5 -1.5q-14 -4 -26.5 -15.5t-17.5 -25.5l-147 -436q2 2 5 4t5 4q11 8 23.5 15t24.5 10q5 2 9.5 2.5t8.5 0.5q13 0 22.5 -5t16.5 -15q8 -10 10.5 -23t2.5 -27v-7.5t-1 -7.5q-1 -15 -4 -29t-7 -26q-2 -9 -4.5 -16t-4.5 -12 l-36 15q2 4 4 10l4 12q3 8 5 17t4 19q2 7 2.5 15t0.5 15q0 8 -1.5 14.5t-4.5 10.5q-1 1 -2 1.5t-4 0.5q-6 0 -12 -1.5t-12 -4.5q-21 -9 -40.5 -30t-34.5 -45q-9 -13 -15 -25.5t-10 -23.5l-37 15l193 568q10 26 35.5 45.5t54.5 19.5l3 -37v0z" />
<glyph unicode="A" horiz-adv-x="949" d="M923 0h-246l-34 59h-309l-35 -59h-245l186 322q15 26 26.5 59.5t16.5 68.5q1 10 1.5 19t0.5 18q0 53 -25 96t-89 54q-5 1 -10.5 1.5t-10.5 0.5h-4.5h-5.5q-9 -2 -18.5 -5t-17.5 -9q-11 -9 -18.5 -24t-8.5 -32q-1 -2 -1 -4.5v-4.5q0 -20 10.5 -36t34.5 -18q11 -1 17 5.5 t6 15.5q0 2 -0.5 4.5t-1.5 5.5q0 2 -1.5 4.5t-3.5 4.5q-4 5 -6 10.5t-2 10.5q0 12 9 20.5t21 8.5q2 0 4 -0.5t4 -0.5q4 -2 8.5 -4.5t7.5 -6.5q8 -10 13 -20.5t6 -21.5q1 -3 1 -6.5v-7.5q0 -33 -23 -57.5t-62 -23.5q-51 3 -76.5 38.5t-25.5 78.5v6t1 6q2 28 14.5 54t35.5 43 q21 16 44 23.5t47 7.5q6 0 12 -0.5t12 -1.5q5 -1 11 -2t12 -3q69 -18 104.5 -65.5t45.5 -109.5l133 232l435 -754v0zM520 272l-32 56l-32 -56h64v0z" />
<glyph unicode="B" horiz-adv-x="588" d="M568 228q0 -94 -67 -161t-161 -67h-340v684h331q45 0 85 -17.5t70 -47.5t47.5 -70t17.5 -85q0 -28 -6.5 -54.5t-19.5 -49.5q20 -28 31.5 -61.5t11.5 -70.5v0zM355 228q0 6 -4.5 10.5t-10.5 4.5h-58h-48v213h97q3 0 5.5 2t2.5 6q0 2 -0.5 3t-1.5 2t-2.5 1.5t-3.5 0.5h-118 v-259h127q6 0 10.5 4.5t4.5 11.5v0z" />
<glyph unicode="C" horiz-adv-x="480" d="M461 -13q-21 -4 -42.5 -7t-43.5 -3q-151 0 -258.5 107.5t-107.5 258.5t107.5 258.5t258.5 107.5q22 0 43.5 -3t42.5 -8l-50 -206q-9 2 -18 3t-17 1q-61 0 -108 -44t-47 -109q0 -66 47 -110.5t108 -43.5h9t9 1q4 0 8.5 1t8.5 2l50 -206v0z" />
<glyph unicode="D" horiz-adv-x="650" d="M630 342q0 -141 -100.5 -241.5t-241.5 -100.5h-279v684h139.5h139.5q141 0 241.5 -100.5t100.5 -241.5v0zM380 250q20 20 29 43.5t9 47.5q0 50 -35.5 90t-94.5 40h-67v-259h10h11q37 -1 72.5 3.5t65.5 34.5v0z" />
<glyph unicode="E" horiz-adv-x="533" d="M508 235h-292v-23h211v-212h-424v684h424v-213h-211v-23h292v-213v0z" />
<glyph unicode="F" horiz-adv-x="537" d="M508 236h-292v-236h-213v685h424v-213h-211v-23h292v-213v0z" />
<glyph unicode="G" horiz-adv-x="679" d="M665 530l-184 -106q-19 33 -51.5 52t-71.5 19q-58 0 -100 -41t-42 -100q0 -58 42 -100t100 -42h11.5h11.5h11.5h11.5v153h212v-365h-128.5h-129.5q-146 0 -250 104t-104 250t104 250t250 104q95 0 177.5 -48t129.5 -130v0z" />
<glyph unicode="H" horiz-adv-x="608" d="M576 0h-213v236h-144v-236h-213v685h213v-236h144v236h213v-685v0z" />
<glyph unicode="I" horiz-adv-x="263" d="M223 0h-212v685h212v-685v0z" />
<glyph unicode="J" horiz-adv-x="389" d="M355 295q0 -145 -102.5 -249t-248.5 -104v212q59 0 98.5 41.5t39.5 99.5v390h213v-194.5v-195.5v0z" />
<glyph unicode="K" horiz-adv-x="629" d="M617 136l-150 -150l-249 249v-235h-212v685h212v-227l249 249l150 -150l-210 -210l210 -211v0z" />
<glyph unicode="L" horiz-adv-x="397" d="M362 0h-358v684h212v-472h146v-212v0z" />
<glyph unicode="M" horiz-adv-x="1138" d="M1130 0h-242l-152 273q-21 -40 -42.5 -79.5t-43.5 -79.5t-43.5 -79t-42.5 -78l-173 316l-151 -273h-242l395 713l171 -314l170 314l396 -713v0z" />
<glyph unicode="N" horiz-adv-x="734" d="M694 -83l-476 377v-294h-213v732l476 -376v329h213v-768v0z" />
<glyph unicode="O" horiz-adv-x="755" d="M737 343q0 -151 -107.5 -258.5t-258.5 -107.5t-258.5 107.5t-107.5 258.5t107.5 258.5t258.5 107.5t258.5 -107.5t107.5 -258.5v0zM525 343q0 63 -45.5 108t-108.5 45q-64 0 -109 -45t-45 -108q0 -64 45 -109t109 -45q63 0 108.5 45t45.5 109v0z" />
<glyph unicode="P" horiz-adv-x="668" d="M640 391q0 -121 -86 -207t-208 -86h-124v-98h-213v685h337q122 0 208 -86t86 -208v0zM427 391q0 34 -23.5 57.5t-57.5 23.5h-124v-162h124q34 0 57.5 24t23.5 57v0z" />
<glyph unicode="Q" horiz-adv-x="772" d="M744 343q0 -47 -11.5 -91t-32.5 -83q21 -37 32 -80t11 -89h-141q0 13 -1.5 25t-4.5 24q-46 -34 -101.5 -53t-116.5 -19q-151 0 -258.5 107.5t-107.5 258.5t107.5 258.5t258.5 107.5t258.5 -107.5t107.5 -258.5v0zM532 343q0 63 -45.5 108t-108.5 45q-64 0 -109 -45 t-45 -108q0 -64 45 -109t109 -45q18 0 35 4t33 12q-13 4 -27.5 5.5t-28.5 1.5v142q38 0 73 -8t67 -22q1 5 1.5 9.5t0.5 9.5v0z" />
<glyph unicode="R" horiz-adv-x="661" d="M654 218l-117 -245q-10 1 -20.5 1.5t-20.5 1.5q-21 1 -41.5 4.5t-40.5 9.5q-54 13 -104 40.5t-92 67.5h-2v-98h-212v687l336 -2q122 -1 208 -86.5t86 -207.5q0 -60 -23 -112.5t-62 -92.5q27 2 53.5 10t51.5 22v0zM421 391q0 34 -23.5 57.5t-57.5 23.5h-124v-162h124 q34 0 57.5 24t23.5 57v0z" />
<glyph unicode="S" horiz-adv-x="455" d="M456 685l-189 -189q-6 -6 -10 -14.5t-6 -17.5v-3.5v-3.5q0 -11 4 -21.5t12 -18.5l34 -34q37 -37 57 -83t22 -95v-5v-6q0 -52 -19.5 -101.5t-59.5 -88.5l-3 -3h-300l153 153q8 8 12 18.5t4 21.5v3.5v3.5q-1 9 -5 17.5t-11 14.5l-33 34q-40 39 -59.5 88.5t-19.5 101.5v6v6 q2 48 21.5 94.5t56.5 83.5l38 38h301v0z" />
<glyph unicode="T" horiz-adv-x="550" d="M520 473h-149v-473h-212v473h-149v212h510v-212v0z" />
<glyph unicode="U" horiz-adv-x="610" d="M571 267q0 -115 -82 -196.5t-198 -81.5q-57 0 -108.5 21.5t-89.5 59.5t-60.5 88.5t-22.5 108.5v418h212v-418q0 -13 5.5 -25.5t14.5 -21.5q10 -9 22.5 -14.5t26.5 -5.5q28 0 47.5 19.5t19.5 47.5v418h213v-418v0z" />
<glyph unicode="V" horiz-adv-x="838" d="M836 685l-419 -727l-419 727h245l174 -302l173 302h246v0z" />
<glyph unicode="W" horiz-adv-x="1135" d="M1140 685l-401 -723l-170 315l-171 -315l-400 723h242l156 -283l173 318l172 -318l157 283h242v0z" />
<glyph unicode="X" horiz-adv-x="585" d="M591 -1h-237l-58 116l-58 -116h-237l176 351l-168 334h237l50 -98l50 98h237l-168 -334l176 -351v0z" />
<glyph unicode="Y" horiz-adv-x="708" d="M702 685l-244 -424v-261h-212v261l-244 424h245l105 -182l105 182h245v0z" />
<glyph unicode="Z" horiz-adv-x="656" d="M643 684l-272 -472h142l-102 -212h-408l272 471h-245v213h613v0z" />
<glyph unicode="[" />
<glyph unicode="\" horiz-adv-x="362" d="M4 785h78l330 -980h-78l-330 980v0z" />
<glyph unicode="]" />
<glyph unicode="^" />
<glyph unicode="_" horiz-adv-x="578" d="M604 -90h-608v65h608v-65v0z" />
<glyph unicode="`" horiz-adv-x="294" d="M261 656l-12 -39l-219 69l38 123l193 -153v0z" />
<glyph unicode="a" horiz-adv-x="916" d="M870 0h-245l-35 59h-309l-34 -59h-246l343 594l92 160l92 -160l41 -72q10 62 45.5 109.5t104.5 65.5q12 3 24 5t23 2q24 0 46.5 -7.5t44.5 -23.5q24 -18 37 -45.5t14 -57.5v-3.5v-3.5q0 -43 -25.5 -78.5t-76.5 -37.5q-39 -1 -62.5 24t-23.5 57q0 4 0.5 7.5t0.5 6.5 q2 11 7 21.5t13 20.5q5 7 11.5 9.5t13.5 2.5q11 0 20 -8.5t9 -20.5q0 -5 -2 -10.5t-7 -10.5q-4 -4 -5.5 -9.5t-1.5 -10.5q1 -8 7 -14.5t17 -5.5q24 2 34.5 18t10.5 37v2.5v2.5q-1 18 -8.5 34t-19.5 25q-10 8 -22 11t-25 3q-5 0 -10 -0.5t-10 -1.5q-60 -10 -85.5 -51 t-25.5 -97q0 -20 3 -41t8 -43q5 -21 13 -42t18 -41l186 -322v0zM468 272l-32 56l-33 -56h65v0z" />
<glyph unicode="b" horiz-adv-x="588" d="M568 228q0 -94 -67 -161t-161 -67h-340v684h331q45 0 85 -17.5t70 -47.5t47.5 -70t17.5 -85q0 -28 -6.5 -54.5t-19.5 -49.5q20 -28 31.5 -61.5t11.5 -70.5v0zM355 228q0 6 -4.5 10.5t-10.5 4.5h-58h-48v213h97q3 0 5.5 2t2.5 6q0 2 -0.5 3t-1.5 2t-2.5 1.5t-3.5 0.5h-118 v-259h127q6 0 10.5 4.5t4.5 11.5v0z" />
<glyph unicode="c" horiz-adv-x="480" d="M461 -13q-21 -4 -42.5 -7t-43.5 -3q-151 0 -258.5 107.5t-107.5 258.5t107.5 258.5t258.5 107.5q22 0 43.5 -3t42.5 -8l-50 -206q-9 2 -18 3t-17 1q-61 0 -108 -44t-47 -109q0 -66 47 -110.5t108 -43.5h9t9 1q4 0 8.5 1t8.5 2l50 -206v0z" />
<glyph unicode="d" horiz-adv-x="650" d="M630 342q0 -141 -100.5 -241.5t-241.5 -100.5h-279v684h139.5h139.5q141 0 241.5 -100.5t100.5 -241.5v0zM380 250q20 20 29 43.5t9 47.5q0 50 -35.5 90t-94.5 40h-67v-259h10h11q37 -1 72.5 3.5t65.5 34.5v0z" />
<glyph unicode="e" horiz-adv-x="533" d="M508 235h-292v-23h211v-212h-424v684h424v-213h-211v-23h292v-213v0z" />
<glyph unicode="f" horiz-adv-x="537" d="M508 236h-292v-236h-213v685h424v-213h-211v-23h292v-213v0z" />
<glyph unicode="g" horiz-adv-x="696" d="M685 535l-158 -166q-4 26 -18 49.5t-34 40.5t-45.5 27t-54.5 10q-64 0 -109 -45t-45 -109q0 -43 21.5 -78t55.5 -55v125h274v-212h-61v-133l-94 -10q-5 0 -9.5 -0.5t-7.5 -0.5q-1 0 -2 -0.5t-2 -0.5h-9h-12q-151 0 -258.5 107t-107.5 258q0 152 107.5 259t258.5 107 q68 0 128.5 -23.5t109.5 -64.5q21 -18 39.5 -39.5t32.5 -45.5v0z" />
<glyph unicode="h" horiz-adv-x="608" d="M576 0h-213v236h-144v-236h-213v685h213v-236h144v236h213v-685v0z" />
<glyph unicode="i" horiz-adv-x="263" d="M223 0h-212v685h212v-685v0z" />
<glyph unicode="j" horiz-adv-x="389" d="M355 295q0 -145 -102.5 -249t-248.5 -104v212q59 0 98.5 41.5t39.5 99.5v390h213v-194.5v-195.5v0z" />
<glyph unicode="k" horiz-adv-x="629" d="M617 136l-150 -150l-249 249v-235h-212v685h212v-227l249 249l150 -150l-210 -210l210 -211v0z" />
<glyph unicode="l" horiz-adv-x="397" d="M362 0h-358v684h212v-472h146v-212v0z" />
<glyph unicode="m" horiz-adv-x="771" d="M741 0h-212v194l-159 -213l-154 211v-192h-212v729l367 -421l370 419v-727v0z" />
<glyph unicode="n" horiz-adv-x="734" d="M694 -83l-476 377v-294h-213v732l476 -376v329h213v-768v0z" />
<glyph unicode="o" horiz-adv-x="663" d="M650 382q0 -133 -94.5 -227t-227.5 -94t-227 94t-94 227t94 227t227 94t227.5 -94t94.5 -227v0zM437 382q0 45 -32 77t-77 32t-76.5 -32t-31.5 -77t31.5 -77t76.5 -32t77 32t32 77v0z" />
<glyph unicode="p" horiz-adv-x="668" d="M640 391q0 -121 -86 -207t-208 -86h-124v-98h-213v685h337q122 0 208 -86t86 -208v0zM427 391q0 34 -23.5 57.5t-57.5 23.5h-124v-162h124q34 0 57.5 24t23.5 57v0z" />
<glyph unicode="q" horiz-adv-x="1051" d="M1055 -2q-42 -97 -122.5 -147t-174.5 -50q-19 0 -38 2t-38 6t-38 10.5t-38 14.5q-32 14 -43 19t-17 9t-17 9t-43 19q-19 8 -38.5 12.5t-38.5 4.5q-37 0 -68 -19t-48 -59l-180 74q17 39 39.5 70t50.5 54q-85 47 -138 132.5t-53 188.5q0 152 107.5 259t258.5 107 q152 0 259 -107t107 -259q0 -90 -40.5 -167t-108.5 -127q13 -6 19 -9l10 -5q7 -4 17.5 -9.5t42.5 -19.5q19 -8 37.5 -11.5t36.5 -3.5q38 0 69 18.5t48 59.5l180 -76v0zM532 348q0 64 -45 109t-109 45q-63 0 -108 -45t-45 -109q0 -63 45 -108t108 -45q64 0 109 45t45 108v0z " />
<glyph unicode="r" horiz-adv-x="833" d="M796 35q-42 -24 -86.5 -38.5t-89.5 -19.5q-13 -2 -26 -2.5t-26 -0.5q-30 0 -60 4t-59 12l-1 -1q-54 14 -104 41.5t-92 67.5h-2v-98h-212v685h337q121 0 207 -86t86 -208q0 -60 -22.5 -112.5t-61.5 -92.5q27 2 53.5 10t51.5 22l107 -183v0zM456 391q0 34 -24 57.5 t-57 23.5h-125v-162h125q33 0 57 24t24 57v0z" />
<glyph unicode="s" horiz-adv-x="524" d="M517 610l-150 -151q-10 11 -23 17t-27 8h-4.5h-4.5q-16 0 -32 -6t-28 -19q-12 -12 -18 -27t-6 -32q0 -16 6 -32t18 -28l37 -37q28 -28 41.5 -62.5t13.5 -70.5t-14 -70.5t-41 -62.5q-28 -28 -62.5 -41t-70.5 -13h-5.5h-5.5q-33 2 -65 15t-58 39l117 116q-4 3 -7.5 6.5 l-7.5 7.5l-4 4l-4 4q-3 4 -7 8t-7 8q-43 44 -65 98t-22 111t22 112t65 98q44 43 98.5 64.5t111.5 21.5t111.5 -21.5t97.5 -64.5v0z" />
<glyph unicode="t" horiz-adv-x="550" d="M520 473h-149v-473h-212v473h-149v212h510v-212v0z" />
<glyph unicode="u" horiz-adv-x="595" d="M567 339q0 -115 -82 -197.5t-198 -82.5q-115 0 -198 82.5t-83 197.5v346h212v-346q0 -33 22 -49.5t48 -16.5q25 0 45.5 16t20.5 50v346h213v-346v0z" />
<glyph unicode="v" horiz-adv-x="838" d="M836 685l-419 -727l-419 727h245l174 -302l173 302h246v0z" />
<glyph unicode="w" horiz-adv-x="1135" d="M1140 685l-401 -723l-170 315l-171 -315l-400 723h242l156 -283l173 318l172 -318l157 283h242v0z" />
<glyph unicode="x" horiz-adv-x="776" d="M770 0h-262l-124 171l-123 -171h-262l254 351l-242 334h262l111 -153l112 153h262l-242 -334l254 -351v0z" />
<glyph unicode="y" horiz-adv-x="708" d="M702 685l-244 -424v-261h-212v261l-244 424h245l105 -182l105 182h245v0z" />
<glyph unicode="z" horiz-adv-x="656" d="M643 684l-272 -472h142l-102 -212h-408l272 471h-245v213h613v0z" />
<glyph unicode="{" />
<glyph unicode="|" horiz-adv-x="132" d="M102 -200h-76v1003h76v-1003v0z" />
<glyph unicode="}" />
<glyph unicode="~" />
<glyph unicode="&#xa1;" horiz-adv-x="240" d="M226 -199h-216l14 451h189l13 -451v0zM227 389q0 -45 -32 -77t-77 -32t-77 32t-32 77t32 77t77 32t77 -32t32 -77v0z" />
<glyph unicode="&#xa2;" horiz-adv-x="379" d="M362 79q-10 -2 -21.5 -4t-22.5 -3q-5 -1 -10.5 -1h-11.5h-8t-8 1q-4 0 -8 0.5t-8 0.5v-73h-94v102q-19 10 -36.5 22.5t-33.5 28.5q-41 41 -61.5 92.5t-20.5 105.5q0 53 21 104.5t61 91.5q16 16 33.5 28.5t36.5 22.5v87h94v-59q8 1 16.5 1.5t16.5 0.5q17 0 33 -2t32 -6 l-41 -171q-6 2 -12 2.5t-12 0.5q-40 0 -71 -29t-31 -73q0 -43 31 -72.5t71 -29.5q6 0 12 1l12 2l41 -172v0z" />
<glyph unicode="&#xa3;" horiz-adv-x="636" d="M607 124q-24 -45 -62.5 -74.5t-83.5 -42.5q-16 -4 -33.5 -6.5t-35.5 -2.5q-30 1 -59.5 7.5t-57.5 22.5q-7 5 -15.5 6.5t-16.5 1.5h-2.5h-2.5q-16 -1 -31 -10t-23 -24l-155 85q16 29 37.5 51t46.5 38v30.5v30.5v30.5v30.5h-80v47h80v58.5v58.5q0 94 66.5 160.5t160.5 66.5 q44 0 86 -17.5t74 -49.5l-126 -124q-7 8 -16 11t-19 3q-19 0 -34 -13.5t-15 -36.5v-58.5v-58.5h98v-47h-98v-44.5v-44.5q18 -4 36 -10.5t35 -16.5q5 -2 10.5 -4t11.5 -3q3 -1 5.5 -1h5.5h2.5h2.5q16 2 31 11t23 24l154 -85v0z" />
<glyph unicode="&#xa4;" horiz-adv-x="525" d="M501 671l-41 -171q-9 2 -18 3t-19 1q-47 0 -88.5 -27t-59.5 -72h202l-27 -47h-186q-1 -9 -0.5 -18t1.5 -18h164l-27 -48h-122q20 -40 59 -64t84 -24q8 0 15.5 1t14.5 2l-43 -179q-115 4 -203.5 78t-112.5 186h-70l27 48h36q-1 9 -1 18v18h-62l27 47h41 q22 123 117.5 199.5t213.5 75.5q20 0 39.5 -2t38.5 -7v0z" />
<glyph unicode="&#xa5;" horiz-adv-x="693" d="M662 634l-152 -265h73v-47h-101l-21 -36h122v-47h-148v-239h-177v239h-147v47h121l-21 36h-100v47h73l-152 265l153 88l162 -280l161 280l154 -88v0z" />
<glyph unicode="&#xa6;" />
<glyph unicode="&#xa7;" />
<glyph unicode="&#xa8;" horiz-adv-x="294" d="M139 735q0 -19 -13.5 -33t-33.5 -14q-19 0 -33 14t-14 33t14 33t33 14q20 0 33.5 -14t13.5 -33v0zM261 735q0 -19 -13.5 -33t-32.5 -14t-33 14t-14 33t14 33t33 14t32.5 -14t13.5 -33v0z" />
<glyph unicode="&#xa9;" horiz-adv-x="725" d="M706 344q0 -138 -100 -237.5t-238 -99.5q-139 0 -238 99t-99 238t99 238.5t238 99.5q138 0 238 -100t100 -238v0zM642 344q0 113 -80.5 194t-193.5 81t-193.5 -81t-80.5 -194q0 -114 80.5 -194t193.5 -80t193.5 81t80.5 193v0zM533 269q-13 -54 -57 -87.5t-100 -33.5 q-88 0 -136 51.5t-48 137.5q0 89 46 141t137 52q53 0 94 -27t57 -78l-54 -14q-16 33 -39.5 51t-64.5 18q-61 0 -88.5 -42.5t-27.5 -98.5q0 -59 27 -99t91 -40q38 0 69.5 24.5t38.5 61.5l55 -17v0z" />
<glyph unicode="&#xaa;" horiz-adv-x="499" d="M456 318h-123l-17 30h-155l-17 -30h-123l93 161q8 14 14 32t8 37q1 4 1 7.5v7.5q-1 26 -13 47t-44 27q-1 0 -2.5 0.5t-2.5 0.5h-2.5h-2.5q-7 0 -13 -1.5t-11 -5.5t-9 -11.5t-5 -15.5v-2.5v-2.5q0 -10 5.5 -18.5t17.5 -9.5q6 0 9 4t2 8v2t-1 2q0 1 -0.5 2t-1.5 2 q-2 3 -3.5 6t-0.5 5q0 6 4.5 10t10.5 4q3 0 6 -1.5t6 -4.5q5 -7 7.5 -13.5t2.5 -14.5q0 -16 -11.5 -28.5t-31.5 -11.5q-25 2 -38 19.5t-13 39.5v3.5v3.5q2 13 8.5 25.5t17.5 21.5q7 6 14.5 9t15.5 5q4 0 7.5 0.5t7.5 0.5q6 0 12 -0.5t12 -2.5q35 -9 52.5 -32.5t22.5 -55.5 l66 116l218 -377v0zM254 454l-16 28l-16 -28h32v0z" />
<glyph unicode="&#xab;" horiz-adv-x="371" d="M194 138l-173 177l173 170v-101l-72 -71l72 -73v-102v0zM354 138l-172 177l172 170v-101l-72 -71l72 -73v-102v0z" />
<glyph unicode="&#xac;" />
<glyph unicode="&#xad;" />
<glyph unicode="&#xae;" horiz-adv-x="348" d="M332 543q0 -65 -46.5 -111.5t-111.5 -46.5t-111.5 46t-46.5 112q0 65 47 111.5t111 46.5t111 -47.5t47 -110.5v0zM309 543q0 54 -40 94.5t-95 40.5t-95 -39.5t-40 -95.5q0 -57 39.5 -96t95.5 -39t95.5 40t39.5 95v0zM251 459h-34l-37 73h-33v-73h-32v176h61q6 0 12 -0.5 t12 -1.5q19 -4 35 -15t16 -31q0 -19 -11 -31.5t-28 -17.5l39 -79v0zM212 583q0 11 -9 18t-20 9q-3 1 -6.5 1.5t-6.5 0.5h-23v-56h34q13 0 22 7t9 20v0z" />
<glyph unicode="&#xaf;" horiz-adv-x="333" />
<glyph unicode="&#xb0;" />
<glyph unicode="&#xb1;" />
<glyph unicode="&#xb2;" horiz-adv-x="307" d="M293 340h-259q35 52 69 103.5t68 103.5q1 1 1.5 2.5t0.5 3.5q1 1 1 2.5v2.5q0 11 -8 19t-19 8t-19 -8t-8 -19h-106q0 55 39 94t94 39q57 0 95 -40.5t38 -93.5q0 -4 -0.5 -8.5t-0.5 -8.5q-1 -5 -2 -9t-2 -9q-5 -16 -14 -31l-18 -30q-3 -3 -5.5 -7t-5.5 -8h61v-106v0z" />
<glyph unicode="&#xb3;" horiz-adv-x="216" d="M207 453q0 -46 -33 -79.5t-80 -33.5h-40.5h-40.5v106h81q4 0 5.5 2.5t1.5 5.5q-1 2 -2.5 4t-4.5 2h-57v106h53q2 0 3 1.5t1 3.5v0.5v1.5q-1 1 -1.5 2t-2.5 1h-79v106h39.5h39.5q46 0 78.5 -32.5t32.5 -78.5q0 -14 -3.5 -28t-11.5 -26q10 -13 15.5 -29.5t5.5 -34.5v0z" />
<glyph unicode="&#xb4;" horiz-adv-x="294" d="M274 686l-219 -69l-12 39l193 153l38 -123v0z" />
<glyph unicode="&#xb5;" />
<glyph unicode="&#xb6;" />
<glyph unicode="&#xb7;" horiz-adv-x="333" />
<glyph unicode="&#xb8;" horiz-adv-x="294" d="M236 -97q0 -31 -38.5 -48.5t-93.5 -17.5q-8 0 -15.5 0.5t-15.5 1.5l18 37q2 1 3 1t3 -1h2.5h2.5q21 0 35 8.5t14 20.5q-3 14 -11.5 19.5t-21.5 8.5q-7 3 -15.5 5t-17.5 6l34 86l49 -15l-19 -47q38 -5 62.5 -22t24.5 -42v-1z" />
<glyph unicode="&#xb9;" horiz-adv-x="170" d="M162 340h-106v236h-48v106h154v-342v0z" />
<glyph unicode="&#xba;" horiz-adv-x="403" d="M365 506q0 -76 -54 -130t-129 -54q-76 0 -129 54t-53 130q0 75 53 129t129 54q75 0 129 -54t54 -129v0zM259 506q0 32 -22.5 54t-54.5 22t-54.5 -22t-22.5 -54t22.5 -54.5t54.5 -22.5t54.5 22.5t22.5 54.5v0z" />
<glyph unicode="&#xbb;" horiz-adv-x="371" d="M198 315l-174 -175v100l72 73l-72 71v101l174 -170v0zM358 315l-174 -175v100l72 73l-72 71v101l174 -170v0z" />
<glyph unicode="&#xbc;" />
<glyph unicode="&#xbd;" />
<glyph unicode="&#xbe;" />
<glyph unicode="&#xbf;" horiz-adv-x="464" d="M436 65q4 -13 5.5 -26.5t1.5 -27.5q0 -51 -24.5 -98t-68.5 -77q-27 -19 -57 -27.5t-61 -8.5q-51 0 -98 23.5t-77 68.5q-18 27 -27 57t-9 60q0 38 13.5 74t38.5 66q20 23 39.5 45t38.5 44l4 4l4 4q2 3 4 6.5t2 8.5v11v7v7v11h38q-20 15 -32.5 38t-12.5 50q0 45 32 77 t77 32t77 -32t32 -77q0 -27 -12 -50t-32 -38h45v-26.5v-27.5q0 -53 -21 -85.5t-47 -61.5q-13 -14 -25.5 -28.5t-24.5 -28.5q-6 -7 -12.5 -14.5t-12.5 -14.5l202 55v0zM233 10q-1 -1 -1.5 -1t-0.5 1v0v1h0.5h0.5h0.5h0.5v0v0v-1v0v0z" />
<glyph unicode="&#xc0;" horiz-adv-x="916" d="M870 0h-245l-35 59h-309l-34 -59h-246l343 594l92 160l92 -160l41 -72q10 62 45.5 109.5t104.5 65.5q12 3 24 5t23 2q24 0 46.5 -7.5t44.5 -23.5q24 -18 37 -45.5t14 -57.5v-3.5v-3.5q0 -43 -25.5 -78.5t-76.5 -37.5q-39 -1 -62.5 24t-23.5 57q0 4 0.5 7.5t0.5 6.5 q2 11 7 21.5t13 20.5q5 7 11.5 9.5t13.5 2.5q11 0 20 -8.5t9 -20.5q0 -5 -2 -10.5t-7 -10.5q-4 -4 -5.5 -9.5t-1.5 -10.5q1 -8 7 -14.5t17 -5.5q24 2 34.5 18t10.5 37v2.5v2.5q-1 18 -8.5 34t-19.5 25q-10 8 -22 11t-25 3q-5 0 -10 -0.5t-10 -1.5q-60 -10 -85.5 -51 t-25.5 -97q0 -20 3 -41t8 -43q5 -21 13 -42t18 -41l186 -322v0zM468 272l-32 56l-33 -56h65v0zM522 800l-12 -39l-219 69l38 123l193 -153v0z" />
<glyph unicode="&#xc1;" horiz-adv-x="916" d="M870 0h-245l-35 59h-309l-34 -59h-246l343 594l92 160l92 -160l41 -72q10 62 45.5 109.5t104.5 65.5q12 3 24 5t23 2q24 0 46.5 -7.5t44.5 -23.5q24 -18 37 -45.5t14 -57.5v-3.5v-3.5q0 -43 -25.5 -78.5t-76.5 -37.5q-39 -1 -62.5 24t-23.5 57q0 4 0.5 7.5t0.5 6.5 q2 11 7 21.5t13 20.5q5 7 11.5 9.5t13.5 2.5q11 0 20 -8.5t9 -20.5q0 -5 -2 -10.5t-7 -10.5q-4 -4 -5.5 -9.5t-1.5 -10.5q1 -8 7 -14.5t17 -5.5q24 2 34.5 18t10.5 37v2.5v2.5q-1 18 -8.5 34t-19.5 25q-10 8 -22 11t-25 3q-5 0 -10 -0.5t-10 -1.5q-60 -10 -85.5 -51 t-25.5 -97q0 -20 3 -41t8 -43q5 -21 13 -42t18 -41l186 -322v0zM468 272l-32 56l-33 -56h65v0zM619 836l-219 -69l-12 39l193 153l38 -123v0z" />
<glyph unicode="&#xc2;" horiz-adv-x="916" d="M870 0h-245l-35 59h-309l-34 -59h-246l343 594l92 160l92 -160l41 -72q10 62 45.5 109.5t104.5 65.5q12 3 24 5t23 2q24 0 46.5 -7.5t44.5 -23.5q24 -18 37 -45.5t14 -57.5v-3.5v-3.5q0 -43 -25.5 -78.5t-76.5 -37.5q-39 -1 -62.5 24t-23.5 57q0 4 0.5 7.5t0.5 6.5 q2 11 7 21.5t13 20.5q5 7 11.5 9.5t13.5 2.5q11 0 20 -8.5t9 -20.5q0 -5 -2 -10.5t-7 -10.5q-4 -4 -5.5 -9.5t-1.5 -10.5q1 -8 7 -14.5t17 -5.5q24 2 34.5 18t10.5 37v2.5v2.5q-1 18 -8.5 34t-19.5 25q-10 8 -22 11t-25 3q-5 0 -10 -0.5t-10 -1.5q-60 -10 -85.5 -51 t-25.5 -97q0 -20 3 -41t8 -43q5 -21 13 -42t18 -41l186 -322v0zM468 272l-32 56l-33 -56h65v0zM569 757h-86l-48 19l-48 -19h-86l134 109l134 -109v0z" />
<glyph unicode="&#xc3;" horiz-adv-x="916" d="M870 0h-245l-35 59h-309l-34 -59h-246l343 594l92 160l92 -160l41 -72q10 62 45.5 109.5t104.5 65.5q12 3 24 5t23 2q24 0 46.5 -7.5t44.5 -23.5q24 -18 37 -45.5t14 -57.5v-3.5v-3.5q0 -43 -25.5 -78.5t-76.5 -37.5q-39 -1 -62.5 24t-23.5 57q0 4 0.5 7.5t0.5 6.5 q2 11 7 21.5t13 20.5q5 7 11.5 9.5t13.5 2.5q11 0 20 -8.5t9 -20.5q0 -5 -2 -10.5t-7 -10.5q-4 -4 -5.5 -9.5t-1.5 -10.5q1 -8 7 -14.5t17 -5.5q24 2 34.5 18t10.5 37v2.5v2.5q-1 18 -8.5 34t-19.5 25q-10 8 -22 11t-25 3q-5 0 -10 -0.5t-10 -1.5q-60 -10 -85.5 -51 t-25.5 -97q0 -20 3 -41t8 -43q5 -21 13 -42t18 -41l186 -322v0zM468 272l-32 56l-33 -56h65v0zM612 803q-2 -2 -4 -3.5t-4 -3.5q-18 -17 -38.5 -30.5t-48.5 -13.5q-18 0 -34 6.5t-32 13.5q-3 2 -7 3.5t-7 3.5q-8 4 -16.5 7.5t-16.5 5.5q-4 1 -8.5 1.5t-8.5 0.5 q-7 0 -13.5 -1.5t-13.5 -6.5q-6 -4 -11 -9.5t-10 -11.5l-0.5 -0.5l-0.5 -0.5q-3 -3 -5.5 -6t-5.5 -6l-34 63q16 23 40 40.5t55 17.5h4h4t4 -0.5t4 -0.5q14 -2 27 -8l26 -12l0.5 -0.5l0.5 -0.5q13 -6 25.5 -11.5t26.5 -8.5q3 -1 5.5 -1h4.5q18 0 32.5 10.5t23.5 22.5 q1 1 2 2.5t2 2.5l32 -65v0z" />
<glyph unicode="&#xc4;" horiz-adv-x="916" d="M870 0h-245l-35 59h-309l-34 -59h-246l343 594l92 160l92 -160l41 -72q10 62 45.5 109.5t104.5 65.5q12 3 24 5t23 2q24 0 46.5 -7.5t44.5 -23.5q24 -18 37 -45.5t14 -57.5v-3.5v-3.5q0 -43 -25.5 -78.5t-76.5 -37.5q-39 -1 -62.5 24t-23.5 57q0 4 0.5 7.5t0.5 6.5 q2 11 7 21.5t13 20.5q5 7 11.5 9.5t13.5 2.5q11 0 20 -8.5t9 -20.5q0 -5 -2 -10.5t-7 -10.5q-4 -4 -5.5 -9.5t-1.5 -10.5q1 -8 7 -14.5t17 -5.5q24 2 34.5 18t10.5 37v2.5v2.5q-1 18 -8.5 34t-19.5 25q-10 8 -22 11t-25 3q-5 0 -10 -0.5t-10 -1.5q-60 -10 -85.5 -51 t-25.5 -97q0 -20 3 -41t8 -43q5 -21 13 -42t18 -41l186 -322v0zM468 272l-32 56l-33 -56h65v0zM419 775q0 -19 -13.5 -33t-33.5 -14q-19 0 -33 14t-14 33t14 33t33 14q20 0 33.5 -14t13.5 -33v0zM541 775q0 -19 -13.5 -33t-32.5 -14t-33 14t-14 33t14 33t33 14t32.5 -14 t13.5 -33v0z" />
<glyph unicode="&#xc5;" horiz-adv-x="916" d="M870 0h-245l-35 59h-309l-34 -59h-246l343 594l92 160l92 -160l41 -72q10 62 45.5 109.5t104.5 65.5q12 3 24 5t23 2q24 0 46.5 -7.5t44.5 -23.5q24 -18 37 -45.5t14 -57.5v-3.5v-3.5q0 -43 -25.5 -78.5t-76.5 -37.5q-39 -1 -62.5 24t-23.5 57q0 4 0.5 7.5t0.5 6.5 q2 11 7 21.5t13 20.5q5 7 11.5 9.5t13.5 2.5q11 0 20 -8.5t9 -20.5q0 -5 -2 -10.5t-7 -10.5q-4 -4 -5.5 -9.5t-1.5 -10.5q1 -8 7 -14.5t17 -5.5q24 2 34.5 18t10.5 37v2.5v2.5q-1 18 -8.5 34t-19.5 25q-10 8 -22 11t-25 3q-5 0 -10 -0.5t-10 -1.5q-60 -10 -85.5 -51 t-25.5 -97q0 -20 3 -41t8 -43q5 -21 13 -42t18 -41l186 -322v0zM468 272l-32 56l-33 -56h65v0zM515 807q0 -31 -22.5 -53.5t-54.5 -22.5q-31 0 -54 22.5t-23 53.5q0 32 23 54.5t54 22.5q32 0 54.5 -22.5t22.5 -54.5v0zM468 807q0 13 -9 21.5t-21 8.5t-21 -8.5t-9 -21.5 q0 -12 9 -20.5t21 -8.5t21 8.5t9 20.5v0z" />
<glyph unicode="&#xc6;" horiz-adv-x="1020" d="M995 236h-292v-24h211v-212h-424v60h-192l-39 -60h-236l188 310q15 27 27.5 60.5t19.5 68.5q2 12 3 24t1 24q0 48 -23.5 86t-82.5 48q-4 1 -9.5 1h-10.5q-13 0 -25 -2.5t-22 -10.5q-11 -9 -18.5 -24t-8.5 -32q-1 -2 -1 -4.5v-4.5q1 -21 11.5 -36.5t33.5 -17.5 q12 -1 18 5.5t6 15.5q0 5 -1.5 9.5t-5.5 8.5q-4 5 -6 10.5t-2 10.5q0 12 9 20.5t20 8.5q2 0 4 -0.5t4 -0.5q4 -2 8.5 -4.5t7.5 -6.5q8 -10 13 -20.5t7 -21.5q0 -3 0.5 -6.5t0.5 -7.5q0 -32 -23.5 -57t-61.5 -23q-52 2 -77 38t-25 79v3.5v3.5q1 29 14 56t36 45q22 17 45 24 t47 7q6 0 12 -0.5t12 -0.5q5 -1 11 -2t12 -3q68 -18 103.5 -65.5t45.5 -109.5l110 178h464v-213h-211v-23h292v-212v0zM490 272v93l-58 -93h58v0z" />
<glyph unicode="&#xc7;" horiz-adv-x="480" d="M406 -117q0 -31 -38.5 -48.5t-93.5 -17.5q-8 0 -15.5 0.5t-15.5 1.5l18 37q2 1 3 1t3 -1h2.5h2.5q21 0 35 8.5t14 20.5q-3 14 -11.5 19.5t-21.5 8.5q-7 3 -15.5 5t-17.5 6l34 86l49 -15l-19 -47q38 -5 62.5 -22t24.5 -42v-1zM461 -13q-21 -4 -42.5 -7t-43.5 -3 q-151 0 -258.5 107.5t-107.5 258.5t107.5 258.5t258.5 107.5q22 0 43.5 -3t42.5 -8l-50 -206q-9 2 -18 3t-17 1q-61 0 -108 -44t-47 -109q0 -66 47 -110.5t108 -43.5h9t9 1q4 0 8.5 1t8.5 2l50 -206v0z" />
<glyph unicode="&#xc8;" horiz-adv-x="533" d="M508 235h-292v-23h211v-212h-424v684h424v-213h-211v-23h292v-213v0zM303 734l-12 -39l-219 69l38 123l193 -153v0z" />
<glyph unicode="&#xc9;" horiz-adv-x="533" d="M508 235h-292v-23h211v-212h-424v684h424v-213h-211v-23h292v-213v0zM412 767l-219 -69l-12 39l193 153l38 -123v0z" />
<glyph unicode="&#xca;" horiz-adv-x="533" d="M508 235h-292v-23h211v-212h-424v684h424v-213h-211v-23h292v-213v0zM361 694h-86l-48 19l-48 -19h-86l134 109l134 -109v0z" />
<glyph unicode="&#xcb;" horiz-adv-x="533" d="M508 235h-292v-23h211v-212h-424v684h424v-213h-211v-23h292v-213v0zM209 745q0 -19 -13.5 -33t-33.5 -14q-19 0 -33 14t-14 33t14 33t33 14q20 0 33.5 -14t13.5 -33v0zM331 745q0 -19 -13.5 -33t-32.5 -14t-33 14t-14 33t14 33t33 14t32.5 -14t13.5 -33v0z" />
<glyph unicode="&#xcc;" horiz-adv-x="263" d="M223 0h-212v685h212v-685v0zM180 743l-12 -39l-219 69l38 123l193 -153v0z" />
<glyph unicode="&#xcd;" horiz-adv-x="263" d="M223 0h-212v685h212v-685v0zM322 770l-219 -69l-12 39l193 153l38 -123v0z" />
<glyph unicode="&#xce;" horiz-adv-x="263" d="M223 0h-212v685h212v-685v0zM251 694h-86l-48 19l-48 -19h-86l134 109l134 -109v0z" />
<glyph unicode="&#xcf;" horiz-adv-x="263" d="M223 0h-212v685h212v-685v0zM99 745q0 -19 -13.5 -33t-33.5 -14q-19 0 -33 14t-14 33t14 33t33 14q20 0 33.5 -14t13.5 -33v0zM221 745q0 -19 -13.5 -33t-32.5 -14t-33 14t-14 33t14 33t33 14t32.5 -14t13.5 -33v0z" />
<glyph unicode="&#xd0;" horiz-adv-x="756" d="M722 342q0 -141 -100.5 -241.5t-241.5 -100.5h-279v309h-67v66h67v309h139.5h139.5q140 0 241 -100.5t101 -241.5v0zM472 250q15 15 24 33t12 36q1 5 1.5 10.5t0.5 10.5q-1 50 -36.5 90.5t-93.5 40.5h-67v-96h66v-66h-66v-97h10h11q37 -1 72.5 3.5t65.5 34.5v0z" />
<glyph unicode="&#xd1;" horiz-adv-x="734" d="M694 -83l-476 377v-294h-213v732l476 -376v329h213v-768v0zM472 723q-2 -2 -4 -3.5t-4 -3.5q-18 -17 -38.5 -30.5t-48.5 -13.5q-18 0 -34 6.5t-32 13.5q-3 2 -7 3.5t-7 3.5q-8 4 -16.5 7.5t-16.5 5.5q-4 1 -8.5 1.5t-8.5 0.5q-7 0 -13.5 -1.5t-13.5 -6.5q-6 -4 -11 -9.5 t-10 -11.5l-0.5 -0.5l-0.5 -0.5q-3 -3 -5.5 -6t-5.5 -6l-34 63q16 23 40 40.5t55 17.5h4h4t4 -0.5t4 -0.5q14 -2 27 -8l26 -12l0.5 -0.5l0.5 -0.5q13 -6 25.5 -11.5t26.5 -8.5q3 -1 5.5 -1h4.5q18 0 32.5 10.5t23.5 22.5q1 1 2 2.5t2 2.5l32 -65v0z" />
<glyph unicode="&#xd2;" horiz-adv-x="333" />
<glyph unicode="&#xd3;" horiz-adv-x="755" d="M737 343q0 -151 -107.5 -258.5t-258.5 -107.5t-258.5 107.5t-107.5 258.5t107.5 258.5t258.5 107.5t258.5 -107.5t107.5 -258.5v0zM525 343q0 63 -45.5 108t-108.5 45q-64 0 -109 -45t-45 -108q0 -64 45 -109t109 -45q63 0 108.5 45t45.5 109v0zM580 797l-219 -69l-12 39 l193 153l38 -123v0z" />
<glyph unicode="&#xd4;" horiz-adv-x="755" d="M737 343q0 -151 -107.5 -258.5t-258.5 -107.5t-258.5 107.5t-107.5 258.5t107.5 258.5t258.5 107.5t258.5 -107.5t107.5 -258.5v0zM525 343q0 63 -45.5 108t-108.5 45q-64 0 -109 -45t-45 -108q0 -64 45 -109t109 -45q63 0 108.5 45t45.5 109v0zM501 724h-86l-48 19 l-48 -19h-86l134 109l134 -109v0z" />
<glyph unicode="&#xd5;" horiz-adv-x="755" d="M737 343q0 -151 -107.5 -258.5t-258.5 -107.5t-258.5 107.5t-107.5 258.5t107.5 258.5t258.5 107.5t258.5 -107.5t107.5 -258.5v0zM525 343q0 63 -45.5 108t-108.5 45q-64 0 -109 -45t-45 -108q0 -64 45 -109t109 -45q63 0 108.5 45t45.5 109v0zM552 773q-2 -2 -4 -3.5 t-4 -3.5q-18 -17 -38.5 -30.5t-48.5 -13.5q-18 0 -34 6.5t-32 13.5q-3 2 -7 3.5t-7 3.5q-8 4 -16.5 7.5t-16.5 5.5q-4 1 -8.5 1.5t-8.5 0.5q-7 0 -13.5 -1.5t-13.5 -6.5q-6 -4 -11 -9.5t-10 -11.5l-0.5 -0.5l-0.5 -0.5q-3 -3 -5.5 -6t-5.5 -6l-34 63q16 23 40 40.5t55 17.5 h4h4t4 -0.5t4 -0.5q14 -2 27 -8l26 -12l0.5 -0.5l0.5 -0.5q13 -6 25.5 -11.5t26.5 -8.5q3 -1 5.5 -1h4.5q18 0 32.5 10.5t23.5 22.5q1 1 2 2.5t2 2.5l32 -65v0z" />
<glyph unicode="&#xd6;" horiz-adv-x="755" d="M737 343q0 -151 -107.5 -258.5t-258.5 -107.5t-258.5 107.5t-107.5 258.5t107.5 258.5t258.5 107.5t258.5 -107.5t107.5 -258.5v0zM525 343q0 63 -45.5 108t-108.5 45q-64 0 -109 -45t-45 -108q0 -64 45 -109t109 -45q63 0 108.5 45t45.5 109v0zM349 775q0 -19 -13.5 -33 t-33.5 -14q-19 0 -33 14t-14 33t14 33t33 14q20 0 33.5 -14t13.5 -33v0zM471 775q0 -19 -13.5 -33t-32.5 -14t-33 14t-14 33t14 33t33 14t32.5 -14t13.5 -33v0z" />
<glyph unicode="&#xd7;" />
<glyph unicode="&#xd8;" horiz-adv-x="806" d="M769 342q0 -151 -107.5 -258t-258.5 -107q-68 0 -129 23t-109 64l-55 -55l-41 41l55 55q-40 48 -63.5 109t-23.5 128q0 152 107.5 259.5t258.5 107.5q68 0 128.5 -23.5t108.5 -64.5l55 55l41 -41l-55 -55q41 -48 64.5 -109t23.5 -129v0zM557 342q0 24 -7 46t-20 41 l-213 -214q18 -13 40 -19.5t46 -6.5q63 0 108.5 45t45.5 108v0zM489 470q-19 12 -40.5 19t-45.5 7q-64 0 -109 -45t-45 -109q0 -23 7 -45t20 -41l213 214v0z" />
<glyph unicode="&#xd9;" horiz-adv-x="610" d="M571 267q0 -115 -82 -196.5t-198 -81.5q-57 0 -108.5 21.5t-89.5 59.5t-60.5 88.5t-22.5 108.5v418h212v-418q0 -13 5.5 -25.5t14.5 -21.5q10 -9 22.5 -14.5t26.5 -5.5q28 0 47.5 19.5t19.5 47.5v418h213v-418v0zM363 737l-12 -39l-219 69l38 123l193 -153v0z" />
<glyph unicode="&#xda;" horiz-adv-x="610" d="M571 267q0 -115 -82 -196.5t-198 -81.5q-57 0 -108.5 21.5t-89.5 59.5t-60.5 88.5t-22.5 108.5v418h212v-418q0 -13 5.5 -25.5t14.5 -21.5q10 -9 22.5 -14.5t26.5 -5.5q28 0 47.5 19.5t19.5 47.5v418h213v-418v0zM490 767l-219 -69l-12 39l193 153l38 -123v0z" />
<glyph unicode="&#xdb;" horiz-adv-x="610" d="M571 267q0 -115 -82 -196.5t-198 -81.5q-57 0 -108.5 21.5t-89.5 59.5t-60.5 88.5t-22.5 108.5v418h212v-418q0 -13 5.5 -25.5t14.5 -21.5q10 -9 22.5 -14.5t26.5 -5.5q28 0 47.5 19.5t19.5 47.5v418h213v-418v0zM431 694h-86l-48 19l-48 -19h-86l134 109l134 -109v0z " />
<glyph unicode="&#xdc;" horiz-adv-x="610" d="M571 267q0 -115 -82 -196.5t-198 -81.5q-57 0 -108.5 21.5t-89.5 59.5t-60.5 88.5t-22.5 108.5v418h212v-418q0 -13 5.5 -25.5t14.5 -21.5q10 -9 22.5 -14.5t26.5 -5.5q28 0 47.5 19.5t19.5 47.5v418h213v-418v0zM279 745q0 -19 -13.5 -33t-33.5 -14q-19 0 -33 14t-14 33 t14 33t33 14q20 0 33.5 -14t13.5 -33v0zM401 745q0 -19 -13.5 -33t-32.5 -14t-33 14t-14 33t14 33t33 14t32.5 -14t13.5 -33v0z" />
<glyph unicode="&#xdd;" horiz-adv-x="333" />
<glyph unicode="&#xde;" horiz-adv-x="693" d="M662 335q0 -121 -86 -207t-208 -86h-124v-42h-213v684h213v-56h124q122 0 208 -85.5t86 -207.5v0zM449 335q0 34 -23.5 57.5t-57.5 23.5h-124v-162h124q34 0 57.5 24t23.5 57v0z" />
<glyph unicode="&#xdf;" horiz-adv-x="642" d="M614 284q3 -10 4.5 -20.5t2.5 -21.5q1 -5 1 -10.5v-10.5q0 -43 -14.5 -83.5t-43.5 -73.5q-34 -38 -80 -58.5t-96 -20.5q-9 0 -18 0.5t-19 2.5v208h16.5h16.5q11 0 18.5 7t7.5 17v3.5t-1 2.5q-1 5 -5 8t-8 5h-1v0l-1.5 1.5t-1.5 0.5q-37 17 -58.5 53t-21.5 79q0 21 5 40.5 t16 35.5q3 4 4 7.5t1 5.5q-1 6 -5 9.5t-8 4.5h-1.5h-1.5q-5 0 -9.5 -3.5t-4.5 -11.5v-143v-144q0 -103 -74.5 -177t-178.5 -74v212q17 0 28.5 11.5t11.5 27.5v7.5v7.5v6.5v7.5h-93l72 212h21v11.5v11.5v11.5v11.5q0 47 18 88.5t49 72.5q34 33 76 49.5t85 16.5 q44 0 85.5 -16.5t75.5 -49.5q33 -34 49.5 -75.5t16.5 -85.5q0 -8 -0.5 -16t-1.5 -16t-3 -16l-4 -16q26 -22 44.5 -50.5t28.5 -62.5v0z" />
<glyph unicode="&#xe0;" horiz-adv-x="916" d="M870 0h-245l-35 59h-309l-34 -59h-246l343 594l92 160l92 -160l41 -72q10 62 45.5 109.5t104.5 65.5q12 3 24 5t23 2q24 0 46.5 -7.5t44.5 -23.5q24 -18 37 -45.5t14 -57.5v-3.5v-3.5q0 -43 -25.5 -78.5t-76.5 -37.5q-39 -1 -62.5 24t-23.5 57q0 4 0.5 7.5t0.5 6.5 q2 11 7 21.5t13 20.5q5 7 11.5 9.5t13.5 2.5q11 0 20 -8.5t9 -20.5q0 -5 -2 -10.5t-7 -10.5q-4 -4 -5.5 -9.5t-1.5 -10.5q1 -8 7 -14.5t17 -5.5q24 2 34.5 18t10.5 37v2.5v2.5q-1 18 -8.5 34t-19.5 25q-10 8 -22 11t-25 3q-5 0 -10 -0.5t-10 -1.5q-60 -10 -85.5 -51 t-25.5 -97q0 -20 3 -41t8 -43q5 -21 13 -42t18 -41l186 -322v0zM468 272l-32 56l-33 -56h65v0zM492 803l-12 -39l-219 69l38 123l193 -153v0z" />
<glyph unicode="&#xe1;" horiz-adv-x="916" d="M870 0h-245l-35 59h-309l-34 -59h-246l343 594l92 160l92 -160l41 -72q10 62 45.5 109.5t104.5 65.5q12 3 24 5t23 2q24 0 46.5 -7.5t44.5 -23.5q24 -18 37 -45.5t14 -57.5v-3.5v-3.5q0 -43 -25.5 -78.5t-76.5 -37.5q-39 -1 -62.5 24t-23.5 57q0 4 0.5 7.5t0.5 6.5 q2 11 7 21.5t13 20.5q5 7 11.5 9.5t13.5 2.5q11 0 20 -8.5t9 -20.5q0 -5 -2 -10.5t-7 -10.5q-4 -4 -5.5 -9.5t-1.5 -10.5q1 -8 7 -14.5t17 -5.5q24 2 34.5 18t10.5 37v2.5v2.5q-1 18 -8.5 34t-19.5 25q-10 8 -22 11t-25 3q-5 0 -10 -0.5t-10 -1.5q-60 -10 -85.5 -51 t-25.5 -97q0 -20 3 -41t8 -43q5 -21 13 -42t18 -41l186 -322v0zM468 272l-32 56l-33 -56h65v0zM625 830l-219 -69l-12 39l193 153l38 -123v0z" />
<glyph unicode="&#xe2;" horiz-adv-x="916" d="M870 0h-245l-35 59h-309l-34 -59h-246l343 594l92 160l92 -160l41 -72q10 62 45.5 109.5t104.5 65.5q12 3 24 5t23 2q24 0 46.5 -7.5t44.5 -23.5q24 -18 37 -45.5t14 -57.5v-3.5v-3.5q0 -43 -25.5 -78.5t-76.5 -37.5q-39 -1 -62.5 24t-23.5 57q0 4 0.5 7.5t0.5 6.5 q2 11 7 21.5t13 20.5q5 7 11.5 9.5t13.5 2.5q11 0 20 -8.5t9 -20.5q0 -5 -2 -10.5t-7 -10.5q-4 -4 -5.5 -9.5t-1.5 -10.5q1 -8 7 -14.5t17 -5.5q24 2 34.5 18t10.5 37v2.5v2.5q-1 18 -8.5 34t-19.5 25q-10 8 -22 11t-25 3q-5 0 -10 -0.5t-10 -1.5q-60 -10 -85.5 -51 t-25.5 -97q0 -20 3 -41t8 -43q5 -21 13 -42t18 -41l186 -322v0zM468 272l-32 56l-33 -56h65v0zM571 754h-86l-48 19l-48 -19h-86l134 109l134 -109v0z" />
<glyph unicode="&#xe3;" horiz-adv-x="916" d="M870 0h-245l-35 59h-309l-34 -59h-246l343 594l92 160l92 -160l41 -72q10 62 45.5 109.5t104.5 65.5q12 3 24 5t23 2q24 0 46.5 -7.5t44.5 -23.5q24 -18 37 -45.5t14 -57.5v-3.5v-3.5q0 -43 -25.5 -78.5t-76.5 -37.5q-39 -1 -62.5 24t-23.5 57q0 4 0.5 7.5t0.5 6.5 q2 11 7 21.5t13 20.5q5 7 11.5 9.5t13.5 2.5q11 0 20 -8.5t9 -20.5q0 -5 -2 -10.5t-7 -10.5q-4 -4 -5.5 -9.5t-1.5 -10.5q1 -8 7 -14.5t17 -5.5q24 2 34.5 18t10.5 37v2.5v2.5q-1 18 -8.5 34t-19.5 25q-10 8 -22 11t-25 3q-5 0 -10 -0.5t-10 -1.5q-60 -10 -85.5 -51 t-25.5 -97q0 -20 3 -41t8 -43q5 -21 13 -42t18 -41l186 -322v0zM468 272l-32 56l-33 -56h65v0zM612 803q-2 -2 -4 -3.5t-4 -3.5q-18 -17 -38.5 -30.5t-48.5 -13.5q-18 0 -34 6.5t-32 13.5q-3 2 -7 3.5t-7 3.5q-8 4 -16.5 7.5t-16.5 5.5q-4 1 -8.5 1.5t-8.5 0.5 q-7 0 -13.5 -1.5t-13.5 -6.5q-6 -4 -11 -9.5t-10 -11.5l-0.5 -0.5l-0.5 -0.5q-3 -3 -5.5 -6t-5.5 -6l-34 63q16 23 40 40.5t55 17.5h4h4t4 -0.5t4 -0.5q14 -2 27 -8l26 -12l0.5 -0.5l0.5 -0.5q13 -6 25.5 -11.5t26.5 -8.5q3 -1 5.5 -1h4.5q18 0 32.5 10.5t23.5 22.5 q1 1 2 2.5t2 2.5l32 -65v0z" />
<glyph unicode="&#xe4;" horiz-adv-x="916" d="M870 0h-245l-35 59h-309l-34 -59h-246l343 594l92 160l92 -160l41 -72q10 62 45.5 109.5t104.5 65.5q12 3 24 5t23 2q24 0 46.5 -7.5t44.5 -23.5q24 -18 37 -45.5t14 -57.5v-3.5v-3.5q0 -43 -25.5 -78.5t-76.5 -37.5q-39 -1 -62.5 24t-23.5 57q0 4 0.5 7.5t0.5 6.5 q2 11 7 21.5t13 20.5q5 7 11.5 9.5t13.5 2.5q11 0 20 -8.5t9 -20.5q0 -5 -2 -10.5t-7 -10.5q-4 -4 -5.5 -9.5t-1.5 -10.5q1 -8 7 -14.5t17 -5.5q24 2 34.5 18t10.5 37v2.5v2.5q-1 18 -8.5 34t-19.5 25q-10 8 -22 11t-25 3q-5 0 -10 -0.5t-10 -1.5q-60 -10 -85.5 -51 t-25.5 -97q0 -20 3 -41t8 -43q5 -21 13 -42t18 -41l186 -322v0zM468 272l-32 56l-33 -56h65v0zM419 775q0 -19 -13.5 -33t-33.5 -14q-19 0 -33 14t-14 33t14 33t33 14q20 0 33.5 -14t13.5 -33v0zM541 775q0 -19 -13.5 -33t-32.5 -14t-33 14t-14 33t14 33t33 14t32.5 -14 t13.5 -33v0z" />
<glyph unicode="&#xe5;" horiz-adv-x="916" d="M870 0h-245l-35 59h-309l-34 -59h-246l343 594l92 160l92 -160l41 -72q10 62 45.5 109.5t104.5 65.5q12 3 24 5t23 2q24 0 46.5 -7.5t44.5 -23.5q24 -18 37 -45.5t14 -57.5v-3.5v-3.5q0 -43 -25.5 -78.5t-76.5 -37.5q-39 -1 -62.5 24t-23.5 57q0 4 0.5 7.5t0.5 6.5 q2 11 7 21.5t13 20.5q5 7 11.5 9.5t13.5 2.5q11 0 20 -8.5t9 -20.5q0 -5 -2 -10.5t-7 -10.5q-4 -4 -5.5 -9.5t-1.5 -10.5q1 -8 7 -14.5t17 -5.5q24 2 34.5 18t10.5 37v2.5v2.5q-1 18 -8.5 34t-19.5 25q-10 8 -22 11t-25 3q-5 0 -10 -0.5t-10 -1.5q-60 -10 -85.5 -51 t-25.5 -97q0 -20 3 -41t8 -43q5 -21 13 -42t18 -41l186 -322v0zM468 272l-32 56l-33 -56h65v0zM515 807q0 -31 -22.5 -53.5t-54.5 -22.5q-31 0 -54 22.5t-23 53.5q0 32 23 54.5t54 22.5q32 0 54.5 -22.5t22.5 -54.5v0zM468 807q0 13 -9 21.5t-21 8.5t-21 -8.5t-9 -21.5 q0 -12 9 -20.5t21 -8.5t21 8.5t9 20.5v0z" />
<glyph unicode="&#xe6;" horiz-adv-x="1020" d="M995 236h-292v-24h211v-212h-424v60h-192l-39 -60h-236l188 310q15 27 27.5 60.5t19.5 68.5q2 12 3 24t1 24q0 48 -23.5 86t-82.5 48q-4 1 -9.5 1h-10.5q-13 0 -25 -2.5t-22 -10.5q-11 -9 -18.5 -24t-8.5 -32q-1 -2 -1 -4.5v-4.5q1 -21 11.5 -36.5t33.5 -17.5 q12 -1 18 5.5t6 15.5q0 5 -1.5 9.5t-5.5 8.5q-4 5 -6 10.5t-2 10.5q0 12 9 20.5t20 8.5q2 0 4 -0.5t4 -0.5q4 -2 8.5 -4.5t7.5 -6.5q8 -10 13 -20.5t7 -21.5q0 -3 0.5 -6.5t0.5 -7.5q0 -32 -23.5 -57t-61.5 -23q-52 2 -77 38t-25 79v3.5v3.5q1 29 14 56t36 45q22 17 45 24 t47 7q6 0 12 -0.5t12 -0.5q5 -1 11 -2t12 -3q68 -18 103.5 -65.5t45.5 -109.5l110 178h464v-213h-211v-23h292v-212v0zM490 272v93l-58 -93h58v0z" />
<glyph unicode="&#xe7;" horiz-adv-x="480" d="M416 -127q0 -31 -38.5 -48.5t-93.5 -17.5q-8 0 -15.5 0.5t-15.5 1.5l18 37q2 1 3 1t3 -1h2.5h2.5q21 0 35 8.5t14 20.5q-3 14 -11.5 19.5t-21.5 8.5q-7 3 -15.5 5t-17.5 6l34 86l49 -15l-19 -47q38 -5 62.5 -22t24.5 -42v-1zM461 -13q-21 -4 -42.5 -7t-43.5 -3 q-151 0 -258.5 107.5t-107.5 258.5t107.5 258.5t258.5 107.5q22 0 43.5 -3t42.5 -8l-50 -206q-9 2 -18 3t-17 1q-61 0 -108 -44t-47 -109q0 -66 47 -110.5t108 -43.5h9t9 1q4 0 8.5 1t8.5 2l50 -206v0z" />
<glyph unicode="&#xe8;" horiz-adv-x="533" d="M508 235h-292v-23h211v-212h-424v684h424v-213h-211v-23h292v-213v0zM315 737l-12 -39l-219 69l38 123l193 -153v0z" />
<glyph unicode="&#xe9;" horiz-adv-x="533" d="M508 235h-292v-23h211v-212h-424v684h424v-213h-211v-23h292v-213v0zM421 767l-219 -69l-12 39l193 153l38 -123v0z" />
<glyph unicode="&#xea;" horiz-adv-x="533" d="M508 235h-292v-23h211v-212h-424v684h424v-213h-211v-23h292v-213v0zM351 694h-86l-48 19l-48 -19h-86l134 109l134 -109v0z" />
<glyph unicode="&#xeb;" horiz-adv-x="533" d="M508 235h-292v-23h211v-212h-424v684h424v-213h-211v-23h292v-213v0zM199 745q0 -19 -13.5 -33t-33.5 -14q-19 0 -33 14t-14 33t14 33t33 14q20 0 33.5 -14t13.5 -33v0zM321 745q0 -19 -13.5 -33t-32.5 -14t-33 14t-14 33t14 33t33 14t32.5 -14t13.5 -33v0z" />
<glyph unicode="&#xec;" horiz-adv-x="263" d="M223 0h-212v685h212v-685v0zM186 749l-12 -39l-219 69l38 123l193 -153v0z" />
<glyph unicode="&#xed;" horiz-adv-x="263" d="M223 0h-212v685h212v-685v0zM334 767l-219 -69l-12 39l193 153l38 -123v0z" />
<glyph unicode="&#xee;" horiz-adv-x="263" d="M223 0h-212v685h212v-685v0zM251 694h-86l-48 19l-48 -19h-86l134 109l134 -109v0z" />
<glyph unicode="&#xef;" horiz-adv-x="263" d="M223 0h-212v685h212v-685v0zM99 745q0 -19 -13.5 -33t-33.5 -14q-19 0 -33 14t-14 33t14 33t33 14q20 0 33.5 -14t13.5 -33v0zM221 745q0 -19 -13.5 -33t-32.5 -14t-33 14t-14 33t14 33t33 14t32.5 -14t13.5 -33v0z" />
<glyph unicode="&#xf0;" horiz-adv-x="756" d="M722 342q0 -141 -100.5 -241.5t-241.5 -100.5h-279v309h-67v66h67v309h139.5h139.5q140 0 241 -100.5t101 -241.5v0zM472 250q15 15 24 33t12 36q1 5 1.5 10.5t0.5 10.5q-1 50 -36.5 90.5t-93.5 40.5h-67v-96h66v-66h-66v-97h10h11q37 -1 72.5 3.5t65.5 34.5v0z" />
<glyph unicode="&#xf1;" horiz-adv-x="734" d="M694 -83l-476 377v-294h-213v732l476 -376v329h213v-768v0zM482 723q-2 -2 -4 -3.5t-4 -3.5q-18 -17 -38.5 -30.5t-48.5 -13.5q-18 0 -34 6.5t-32 13.5q-3 2 -7 3.5t-7 3.5q-8 4 -16.5 7.5t-16.5 5.5q-4 1 -8.5 1.5t-8.5 0.5q-7 0 -13.5 -1.5t-13.5 -6.5q-6 -4 -11 -9.5 t-10 -11.5l-0.5 -0.5l-0.5 -0.5q-3 -3 -5.5 -6t-5.5 -6l-34 63q16 23 40 40.5t55 17.5h4h4t4 -0.5t4 -0.5q14 -2 27 -8l26 -12l0.5 -0.5l0.5 -0.5q13 -6 25.5 -11.5t26.5 -8.5q3 -1 5.5 -1h4.5q18 0 32.5 10.5t23.5 22.5q1 1 2 2.5t2 2.5l32 -65v0z" />
<glyph unicode="&#xf2;" horiz-adv-x="663" d="M650 382q0 -133 -94.5 -227t-227.5 -94t-227 94t-94 227t94 227t227 94t227.5 -94t94.5 -227v0zM437 382q0 45 -32 77t-77 32t-76.5 -32t-31.5 -77t31.5 -77t76.5 -32t77 32t32 77v0zM399 758l-12 -39l-219 69l38 123l193 -153v0z" />
<glyph unicode="&#xf3;" horiz-adv-x="663" d="M650 382q0 -133 -94.5 -227t-227.5 -94t-227 94t-94 227t94 227t227 94t227.5 -94t94.5 -227v0zM437 382q0 45 -32 77t-77 32t-76.5 -32t-31.5 -77t31.5 -77t76.5 -32t77 32t32 77v0zM520 788l-219 -69l-12 39l193 153l38 -123v0z" />
<glyph unicode="&#xf4;" horiz-adv-x="663" d="M650 382q0 -133 -94.5 -227t-227.5 -94t-227 94t-94 227t94 227t227 94t227.5 -94t94.5 -227v0zM437 382q0 45 -32 77t-77 32t-76.5 -32t-31.5 -77t31.5 -77t76.5 -32t77 32t32 77v0zM461 714h-86l-48 19l-48 -19h-86l134 109l134 -109v0z" />
<glyph unicode="&#xf5;" horiz-adv-x="663" d="M650 382q0 -133 -94.5 -227t-227.5 -94t-227 94t-94 227t94 227t227 94t227.5 -94t94.5 -227v0zM437 382q0 45 -32 77t-77 32t-76.5 -32t-31.5 -77t31.5 -77t76.5 -32t77 32t32 77v0zM502 763q-2 -2 -4 -3.5t-4 -3.5q-18 -17 -38.5 -30.5t-48.5 -13.5q-18 0 -34 6.5 t-32 13.5q-3 2 -7 3.5t-7 3.5q-8 4 -16.5 7.5t-16.5 5.5q-4 1 -8.5 1.5t-8.5 0.5q-7 0 -13.5 -1.5t-13.5 -6.5q-6 -4 -11 -9.5t-10 -11.5l-0.5 -0.5l-0.5 -0.5q-3 -3 -5.5 -6t-5.5 -6l-34 63q16 23 40 40.5t55 17.5h4h4t4 -0.5t4 -0.5q14 -2 27 -8l26 -12l0.5 -0.5l0.5 -0.5 q13 -6 25.5 -11.5t26.5 -8.5q3 -1 5.5 -1h4.5q18 0 32.5 10.5t23.5 22.5q1 1 2 2.5t2 2.5l32 -65v0z" />
<glyph unicode="&#xf6;" horiz-adv-x="663" d="M650 382q0 -133 -94.5 -227t-227.5 -94t-227 94t-94 227t94 227t227 94t227.5 -94t94.5 -227v0zM437 382q0 45 -32 77t-77 32t-76.5 -32t-31.5 -77t31.5 -77t76.5 -32t77 32t32 77v0zM309 755q0 -19 -13.5 -33t-33.5 -14q-19 0 -33 14t-14 33t14 33t33 14q20 0 33.5 -14 t13.5 -33v0zM431 755q0 -19 -13.5 -33t-32.5 -14t-33 14t-14 33t14 33t33 14t32.5 -14t13.5 -33v0z" />
<glyph unicode="&#xf7;" />
<glyph unicode="&#xf8;" horiz-adv-x="707" d="M675 382q0 -133 -94.5 -227t-227.5 -94q-60 0 -114 20.5t-96 57.5l-42 -42l-32 32l42 42q-37 43 -58 97t-21 114q0 133 94 227t227 94q61 0 114.5 -21t96.5 -58l42 43l32 -32l-42 -43q37 -42 58 -96t21 -114v0zM462 382q0 17 -4.5 31.5t-12.5 27.5l-151 -150 q13 -9 28 -13.5t31 -4.5q45 0 77 32t32 77v0zM413 473q-13 8 -28 13t-32 5q-45 0 -76.5 -32t-31.5 -77q0 -16 4.5 -31t12.5 -28l151 150v0z" />
<glyph unicode="&#xf9;" horiz-adv-x="595" d="M567 339q0 -115 -82 -197.5t-198 -82.5q-115 0 -198 82.5t-83 197.5v346h212v-346q0 -33 22 -49.5t48 -16.5q25 0 45.5 16t20.5 50v346h213v-346v0zM348 737l-12 -39l-219 69l38 123l193 -153v0z" />
<glyph unicode="&#xfa;" horiz-adv-x="595" d="M567 339q0 -115 -82 -197.5t-198 -82.5q-115 0 -198 82.5t-83 197.5v346h212v-346q0 -33 22 -49.5t48 -16.5q25 0 45.5 16t20.5 50v346h213v-346v0zM487 767l-219 -69l-12 39l193 153l38 -123v0z" />
<glyph unicode="&#xfb;" horiz-adv-x="595" d="M567 339q0 -115 -82 -197.5t-198 -82.5q-115 0 -198 82.5t-83 197.5v346h212v-346q0 -33 22 -49.5t48 -16.5q25 0 45.5 16t20.5 50v346h213v-346v0zM421 694h-86l-48 19l-48 -19h-86l134 109l134 -109v0z" />
<glyph unicode="&#xfc;" horiz-adv-x="595" d="M567 339q0 -115 -82 -197.5t-198 -82.5q-115 0 -198 82.5t-83 197.5v346h212v-346q0 -33 22 -49.5t48 -16.5q25 0 45.5 16t20.5 50v346h213v-346v0zM279 745q0 -19 -13.5 -33t-33.5 -14q-19 0 -33 14t-14 33t14 33t33 14q20 0 33.5 -14t13.5 -33v0zM401 745 q0 -19 -13.5 -33t-32.5 -14t-33 14t-14 33t14 33t33 14t32.5 -14t13.5 -33v0z" />
<glyph unicode="&#xfd;" horiz-adv-x="333" />
<glyph unicode="&#xfe;" horiz-adv-x="693" d="M662 335q0 -121 -86 -207t-208 -86h-124v-42h-213v684h213v-56h124q122 0 208 -85.5t86 -207.5v0zM449 335q0 34 -23.5 57.5t-57.5 23.5h-124v-162h124q34 0 57.5 24t23.5 57v0z" />
<glyph unicode="&#xff;" horiz-adv-x="708" d="M702 685l-244 -424v-261h-212v261l-244 424h245l105 -182l105 182h245v0zM349 735q0 -19 -13.5 -33t-33.5 -14q-19 0 -33 14t-14 33t14 33t33 14q20 0 33.5 -14t13.5 -33v0zM471 735q0 -19 -13.5 -33t-32.5 -14t-33 14t-14 33t14 33t33 14t32.5 -14t13.5 -33v0z" />
<glyph unicode="&#x152;" horiz-adv-x="1080" d="M1031 236h-245v-24h164v-212h-377v12q-36 -16 -75.5 -25.5t-82.5 -9.5q-151 0 -258.5 107t-107.5 258q0 152 107.5 259.5t258.5 107.5q43 0 82.5 -9.5t75.5 -26.5v11h377v-213h-164v-23h245v-212v0zM569 342q0 64 -45 109t-109 45q-63 0 -108.5 -45t-45.5 -109 q0 -63 45.5 -108t108.5 -45q64 0 109 45t45 108v0z" />
<glyph unicode="&#x153;" horiz-adv-x="1080" d="M1031 236h-245v-24h164v-212h-377v12q-36 -16 -75.5 -25.5t-82.5 -9.5q-151 0 -258.5 107t-107.5 258q0 152 107.5 259.5t258.5 107.5q43 0 82.5 -9.5t75.5 -26.5v11h377v-213h-164v-23h245v-212v0zM569 342q0 64 -45 109t-109 45q-63 0 -108.5 -45t-45.5 -109 q0 -63 45.5 -108t108.5 -45q64 0 109 45t45 108v0z" />
<glyph unicode="&#x178;" horiz-adv-x="708" d="M702 685l-244 -424v-261h-212v261l-244 424h245l105 -182l105 182h245v0zM339 735q0 -19 -13.5 -33t-33.5 -14q-19 0 -33 14t-14 33t14 33t33 14q20 0 33.5 -14t13.5 -33v0zM461 735q0 -19 -13.5 -33t-32.5 -14t-33 14t-14 33t14 33t33 14t32.5 -14t13.5 -33v0z" />
<glyph unicode="&#x2c6;" horiz-adv-x="294" d="M322 723q-2 -2 -4 -3.5t-4 -3.5q-18 -17 -38.5 -30.5t-48.5 -13.5q-18 0 -34 6.5t-32 13.5q-3 2 -7 3.5t-7 3.5q-8 4 -16.5 7.5t-16.5 5.5q-4 1 -8.5 1.5t-8.5 0.5q-7 0 -13.5 -1.5t-13.5 -6.5q-6 -4 -11 -9.5t-10 -11.5l-0.5 -0.5l-0.5 -0.5q-3 -3 -5.5 -6t-5.5 -6 l-34 63q16 23 40 40.5t55 17.5h4h4t4 -0.5t4 -0.5q14 -2 27 -8l26 -12l0.5 -0.5l0.5 -0.5q13 -6 25.5 -11.5t26.5 -8.5q3 -1 5.5 -1h4.5q18 0 32.5 10.5t23.5 22.5q1 1 2 2.5t2 2.5l32 -65v0z" />
<glyph unicode="&#x2dc;" horiz-adv-x="294" d="M281 694h-86l-48 19l-48 -19h-86l134 109l134 -109v0z" />
<glyph unicode="&#x2000;" horiz-adv-x="479" />
<glyph unicode="&#x2001;" horiz-adv-x="959" />
<glyph unicode="&#x2002;" horiz-adv-x="479" />
<glyph unicode="&#x2003;" horiz-adv-x="959" />
<glyph unicode="&#x2004;" horiz-adv-x="319" />
<glyph unicode="&#x2005;" horiz-adv-x="239" />
<glyph unicode="&#x2006;" horiz-adv-x="159" />
<glyph unicode="&#x2007;" horiz-adv-x="159" />
<glyph unicode="&#x2008;" horiz-adv-x="119" />
<glyph unicode="&#x2009;" horiz-adv-x="191" />
<glyph unicode="&#x200a;" horiz-adv-x="53" />
<glyph unicode="&#x2010;" horiz-adv-x="234" d="M223 280h-212v145h212v-145v0z" />
<glyph unicode="&#x2011;" horiz-adv-x="234" d="M223 280h-212v145h212v-145v0z" />
<glyph unicode="&#x2012;" horiz-adv-x="234" d="M223 280h-212v145h212v-145v0z" />
<glyph unicode="&#x2013;" horiz-adv-x="468" d="M446 280h-424v145h424v-145v0z" />
<glyph unicode="&#x2014;" horiz-adv-x="829" d="M844 280h-848v145h848v-145v0z" />
<glyph unicode="&#x2018;" horiz-adv-x="208" d="M199 699l-85 -154l-104 38l85 153l104 -37v0z" />
<glyph unicode="&#x2019;" horiz-adv-x="208" d="M199 699l-85 -154l-104 38l85 153l104 -37v0z" />
<glyph unicode="&#x201a;" horiz-adv-x="204" d="M199 49l-85 -154l-104 38l85 153l104 -37v0z" />
<glyph unicode="&#x201c;" horiz-adv-x="348" d="M199 699l-85 -154l-104 38l85 153l104 -37v0zM349 699l-85 -154l-104 38l85 153l104 -37v0z" />
<glyph unicode="&#x201d;" horiz-adv-x="348" d="M199 699l-85 -154l-104 38l85 153l104 -37v0zM349 699l-85 -154l-104 38l85 153l104 -37v0z" />
<glyph unicode="&#x201e;" horiz-adv-x="348" d="M199 49l-85 -154l-104 38l85 153l104 -37v0zM349 49l-85 -154l-104 38l85 153l104 -37v0z" />
<glyph unicode="&#x2022;" horiz-adv-x="480" d="M458 334q0 -90 -64 -154t-154 -64t-154 64t-64 154t64 154t154 64t154 -64t64 -154v0z" />
<glyph unicode="&#x2026;" horiz-adv-x="771" d="M265 97q0 -45 -32 -76.5t-77 -31.5t-77 31.5t-32 76.5t32 77t77 32t77 -32t32 -77v0zM505 97q0 -45 -32 -76.5t-77 -31.5t-77 31.5t-32 76.5t32 77t77 32t77 -32t32 -77v0zM745 97q0 -45 -32 -76.5t-77 -31.5t-77 31.5t-32 76.5t32 77t77 32t77 -32t32 -77v0z" />
<glyph unicode="&#x202f;" horiz-adv-x="191" />
<glyph unicode="&#x2039;" horiz-adv-x="211" d="M191 138l-173 177l173 170v-101l-72 -71l72 -73v-102v0z" />
<glyph unicode="&#x203a;" horiz-adv-x="214" d="M199 315l-174 -175v100l72 73l-72 71v101l174 -170v0z" />
<glyph unicode="&#x205f;" horiz-adv-x="239" />
<glyph unicode="&#x2122;" />
<glyph unicode="&#xe000;" horiz-adv-x="685" d="M0 685h685v-685h-685v685z" />
</font>
</defs>
</svg>
