<?xml version="1.0" standalone="no"?>
<!DOCTYPE svg PUBLIC "-//W3C//DTD SVG 1.1//EN" "http://www.w3.org/Graphics/SVG/1.1/DTD/svg11.dtd" >
<svg xmlns="http://www.w3.org/2000/svg">
<metadata></metadata>
<defs>
<font id="bpscriptregular" horiz-adv-x="299" >
<font-face units-per-em="1000" ascent="800" descent="-200" />
<missing-glyph horiz-adv-x="250" />
<glyph unicode="&#x30;&#x2f;&#x30;" horiz-adv-x="560" d="M57 0l383 600h60l-380 -600h-63zM80 500q0 41 29.5 70.5t70.5 29.5t70.5 -29.5t29.5 -70.5t-29.5 -70.5t-70.5 -29.5t-70.5 29.5t-29.5 70.5zM135 500q0 -19 13 -32t32 -13q18 0 31.5 13t13.5 32q0 18 -13.5 31.5t-31.5 13.5q-19 0 -32 -13.5t-13 -31.5zM270 100 q0 41 29.5 70.5t70.5 29.5t70.5 -29.5t29.5 -70.5t-29.5 -70.5t-70.5 -29.5t-70.5 29.5t-29.5 70.5zM325 100q0 -19 13 -32t32 -13q18 0 31.5 13t13.5 32q0 18 -13.5 31.5t-31.5 13.5q-19 0 -32 -13.5t-13 -31.5z" />
<glyph unicode="copy&#x2a;" horiz-adv-x="501" d="M0 400q0 82 59 141t141 59t141 -59t59 -141t-59 -141t-141 -59t-141 59t-59 141zM60 400q0 -58 41 -99t99 -41t99 41t41 99t-41 99t-99 41t-99 -41t-41 -99zM102 400q0 40 29 69t69 29t69 -29l-35 -35q-12 14 -34 14q-20 0 -34 -14t-14 -34t14 -34t34 -14q19 0 34 13 l35 -35q-30 -28 -69 -28q-40 0 -69 29t-29 69z" />
<glyph unicode="reg&#x2a;" horiz-adv-x="501" d="M0 400q0 82 59 141t141 59t141 -59t59 -141t-59 -141t-141 -59t-141 59t-59 141zM60 400q0 -58 41 -99t99 -41t99 41t41 99t-41 99t-99 41t-99 -41t-41 -99zM128 305v200h50q41 0 66.5 -21.5t25.5 -50.5q0 -35 -36 -58l56 -70h-62l-30 52l-20 -2v-50h-50zM178 394 q20 0 31.5 9.5t11.5 23.5q0 13 -11.5 23t-31.5 10v-66z" />
<glyph unicode="&#x2b;&#x2d;" horiz-adv-x="517" d="M100 40v55h300v-55h-300zM100 245v55h120v100h60v-100h120v-55h-120v-95h-60v95h-120z" />
<glyph unicode="&#x31;&#x2f;&#x32;" horiz-adv-x="600" d="M100 200q0 82 59 141t141 59t141 -59t59 -141t-59 -141t-141 -59t-141 59t-59 141zM160 200h280q0 58 -41 99t-99 41t-99 -41t-41 -99z" />
<glyph unicode="euro&#x2a;" horiz-adv-x="652" d="M50 220v60h50v40h-50v60h61q27 96 107 158t182 62q126 0 214 -90l-41 -42q-70 72 -173 72q-78 0 -140 -44.5t-87 -115.5h337l-50 -60h-299v-40h279l-50 -60h-217q25 -71 87 -115.5t140 -44.5h130q27 0 50.5 7t38.5 16.5t26 19.5t16 17l5 7l38 -44q-2 -3 -7 -9t-21.5 -20 t-35 -25t-48.5 -20t-62 -9h-130q-102 0 -182 62t-107 158h-61z" />
<glyph unicode="TM&#x2a;" horiz-adv-x="999" d="M0 500q0 50 33 75t87 25h344l79 -262l71 262h106v-270h60q42 0 76 17t47 33l13 17l38 -44q-2 -3 -7 -9t-21.5 -20t-35 -25t-48.5 -20t-62 -9h-120v259l-76 -259h-80l-85 259v-259h-60v275h-109v-275q0 -72 -39 -101t-111 -29h-30v60h30q90 0 90 70v275h-70 q-26 0 -43 -11.5t-17 -31.5q0 -21 17 -31.5t43 -10.5v-60q-54 0 -87 24.5t-33 75.5z" />
<glyph unicode="end&#x31;" horiz-adv-x="400" d="M0 0v400h400v-400h-400z" />
<glyph horiz-adv-x="1000" />
<glyph horiz-adv-x="1000" />
<glyph unicode="&#xd;" horiz-adv-x="1000" />
<glyph unicode=" "  horiz-adv-x="250" />
<glyph unicode="&#x09;" horiz-adv-x="250" />
<glyph unicode="&#xa0;" horiz-adv-x="250" />
<glyph unicode="!" horiz-adv-x="313" d="M110 50q0 21 14.5 35.5t35.5 14.5t35.5 -14.5t14.5 -35.5t-14.5 -35.5t-35.5 -14.5t-35.5 14.5t-14.5 35.5zM128 200v400h60v-400h-60z" />
<glyph unicode="&#x22;" d="M50 350v300h60v-300h-60zM180 350v300h60v-300h-60z" />
<glyph unicode="#" horiz-adv-x="668" d="M130 110v55h97l13 120h-110v55h116l13 110h60l-13 -110h110l13 110h60l-13 -110h104v-55h-110l-13 -120h123v-55h-129l-12 -110h-60l12 110h-110l-12 -110h-60l12 110h-91zM287 165h110l13 120h-110z" />
<glyph unicode="$" horiz-adv-x="478" d="M27 145l56 20q14 -41 47.5 -68t75.5 -35v235q-66 23 -102.5 54.5t-36.5 89.5q0 60 39.5 101t99.5 49v59h60v-58q107 -14 140 -109l-58 -12q-21 49 -82 60v-190q33 -11 51.5 -17.5t46 -21t42 -29.5t25.5 -39.5t11 -54.5q0 -78 -50.5 -122.5t-125.5 -52.5v-64h-60v63 q-60 7 -108.5 44t-70.5 98zM127 441q0 -52 79 -81v171q-36 -8 -57.5 -31t-21.5 -59zM266 62q50 7 84 36t34 75q0 40 -30.5 63t-87.5 42v-216z" />
<glyph unicode="&#x26;" horiz-adv-x="681" d="M49 200q0 82 58.5 141t141.5 59q27 0 46 19t19 46h60q0 -52 -36.5 -88.5t-88.5 -36.5q-58 0 -99 -41t-41 -99t41 -99t99 -41t99 41t41 99h-120v60h181q42 0 76 17t47 33l13 17l38 -44q-2 -3 -7 -9t-21.5 -20t-35 -25t-49 -20t-62.5 -9q0 -82 -58.5 -141t-141.5 -59 t-141.5 59t-58.5 141z" />
<glyph unicode="'" d="M150 350v300h60v-300h-60z" />
<glyph unicode="(" horiz-adv-x="404" d="M70 305q0 88 22.5 164t54 121t63.5 78t54 46l23 13l26 -54q-7 -4 -19.5 -11.5t-44 -38.5t-55.5 -69t-44 -105t-20 -144q0 -80 19 -148.5t45.5 -109t53.5 -69.5t46 -40l19 -11l-26 -54q-9 4 -23.5 13.5t-52 45.5t-66 80.5t-52 123t-23.5 169.5z" />
<glyph unicode=")" horiz-adv-x="404" d="M70 -73q7 4 19.5 11.5t44 39t55.5 70.5t44 108t20 149q0 77 -19 143.5t-45.5 106t-53.5 68t-46 39.5l-19 11l26 54q9 -4 23.5 -13.5t52 -45t66 -79t52 -120t23.5 -164.5q0 -66 -12 -125.5t-31 -102t-42 -78.5t-46.5 -58.5t-42.5 -38.5t-31 -22l-12 -7z" />
<glyph unicode="*" horiz-adv-x="501" d="M71 409l90 52q6 -27 25 -43l-90 -52zM71 541l25 43l90 -52q-19 -16 -25 -43zM210 300v104q11 -4 25 -4t25 4v-104h-50zM210 545v105h50v-105q-13 5 -25 5t-25 -5zM284 418q20 18 24 43l91 -52l-25 -43zM284 532l90 52l25 -43l-91 -52q-4 25 -24 43z" />
<glyph unicode="+" horiz-adv-x="517" d="M100 170v55h120v125h60v-125h120v-55h-120v-120h-60v120h-120z" />
<glyph unicode="," d="M150 -150v300h60v-300h-60z" />
<glyph unicode="-" horiz-adv-x="517" d="M100 170v55h300v-55h-300z" />
<glyph unicode="." d="M150 50q0 21 14.5 35.5t35.5 14.5t35.5 -14.5t14.5 -35.5t-14.5 -35.5t-35.5 -14.5t-35.5 14.5t-14.5 35.5z" />
<glyph unicode="/" horiz-adv-x="560" d="M50 0l380 600h70l-380 -600h-70z" />
<glyph unicode="0" horiz-adv-x="684" d="M30 300q0 124 88 212t212 88t212 -88t88 -212t-88 -212t-212 -88t-212 88t-88 212zM90 300q0 -85 53 -151l327 346q-63 45 -140 45q-100 0 -170 -70t-70 -170zM185 108q64 -48 145 -48q100 0 170 70t70 170q0 88 -56 154z" />
<glyph unicode="1" horiz-adv-x="306" d="M80 545v55h120v-542h56v-58h-170v58h54v487h-60z" />
<glyph unicode="2" horiz-adv-x="456" d="M40 0q3 4 62 77t96.5 124t75.5 122t38 114q0 55 -29 84t-71 29q-74 0 -101 -83l-48 32q20 53 60.5 81t91.5 28q65 0 111 -44t46 -127q0 -35 -19.5 -83t-50 -96t-58 -87.5t-54 -73.5t-28.5 -37h248v-60h-370z" />
<glyph unicode="3" horiz-adv-x="454" d="M33 69l42 42q42 -51 113 -51q69 0 107 41t38 96q0 54 -36.5 93.5t-103.5 39.5h-40v54h40q42 0 66 28.5t24 64.5q0 34 -22.5 57.5t-64.5 23.5q-51 0 -93 -49l-32 39q57 63 130 63q62 0 99 -36.5t37 -88.5q0 -72 -59 -117q57 -24 85 -70t28 -100q0 -79 -55.5 -138.5 t-143.5 -59.5q-98 0 -159 68z" />
<glyph unicode="4" horiz-adv-x="463" d="M10 100l360 510v-450h60v-60h-60v-100h-60v100h-300zM121 160h189v278z" />
<glyph unicode="5" horiz-adv-x="463" d="M41 109l54 27q18 -34 51 -55t74 -21q58 0 99 41t41 99t-41 99t-99 41q-59 0 -89 -24l-51 38l50 246h230v-56h-179l-35 -155q28 11 74 11q82 0 141 -59t59 -141t-59 -141t-141 -59q-58 0 -106 30t-73 79z" />
<glyph unicode="6" horiz-adv-x="473" d="M50 175q0 40 17 76l158 360l56 -25l-107 -244q26 8 51 8q73 0 124 -51t51 -124t-51 -124t-124 -51t-124 51t-51 124zM111 175q0 -47 33.5 -80.5t80.5 -33.5t80.5 33.5t33.5 80.5t-33.5 80.5t-80.5 33.5t-80.5 -33.5t-33.5 -80.5z" />
<glyph unicode="7" horiz-adv-x="436" d="M60 538v62h330l-259 -600h-66l229 538h-234z" />
<glyph unicode="8" horiz-adv-x="454" d="M0 175q0 97 82 148q-66 48 -66 129q0 65 46.5 111t111.5 46t111 -46t46 -111q0 -80 -64 -128q38 -23 60.5 -62.5t22.5 -86.5q0 -73 -51 -124t-124 -51t-124 51t-51 124zM59 175q0 -48 34 -82t82 -34t81.5 34t33.5 82t-33.5 81.5t-81.5 33.5t-82 -33.5t-34 -81.5zM76 452 q0 -40 29 -69t69 -29t68.5 28.5t28.5 69.5q0 40 -28.5 68.5t-68.5 28.5q-41 0 -69.5 -28.5t-28.5 -68.5z" />
<glyph unicode="9" horiz-adv-x="450" d="M30 426q0 73 51 124t124 51t124 -51t51 -124q0 -40 -17 -76l-158 -360l-56 25l107 244q-26 -8 -51 -8q-73 0 -124 51t-51 124zM91 426q0 -47 33.5 -80.5t80.5 -33.5t80.5 33.5t33.5 80.5t-33.5 80.5t-80.5 33.5t-80.5 -33.5t-33.5 -80.5z" />
<glyph unicode=":" d="M150 50q0 21 14.5 35.5t35.5 14.5t35.5 -14.5t14.5 -35.5t-14.5 -35.5t-35.5 -14.5t-35.5 14.5t-14.5 35.5zM150 300q0 21 14.5 35.5t35.5 14.5t35.5 -14.5t14.5 -35.5t-14.5 -35.5t-35.5 -14.5t-35.5 14.5t-14.5 35.5z" />
<glyph unicode=";" d="M150 300q0 21 14.5 35.5t35.5 14.5t35.5 -14.5t14.5 -35.5t-14.5 -35.5t-35.5 -14.5t-35.5 14.5t-14.5 35.5zM170 -150v300h60v-300h-60z" />
<glyph unicode="&#x3c;" horiz-adv-x="510" d="M110 190v13l300 197v-70l-203 -130l203 -129v-71z" />
<glyph unicode="=" horiz-adv-x="517" d="M100 100v55h300v-55h-300zM100 250v60h300v-60h-300z" />
<glyph unicode="&#x3e;" horiz-adv-x="510" d="M110 0v71l203 129l-203 130v70l300 -197v-13z" />
<glyph unicode="?" horiz-adv-x="380" d="M45 510q0 77 47.5 120.5t111.5 43.5q62 0 106.5 -43t44.5 -121q0 -81 -43 -147t-128 -143l-37 37q37 38 54.5 57.5t44.5 55t39 69.5t12 71q0 49 -30 77t-70 28q-38 0 -66.5 -28t-29.5 -77h-56zM110 50q0 21 14.5 35.5t35.5 14.5t35.5 -14.5t14.5 -35.5t-14.5 -35.5 t-35.5 -14.5t-35.5 14.5t-14.5 35.5z" />
<glyph unicode="@" horiz-adv-x="949" d="M59 206q0 156 115 276t280 120q85 0 154.5 -26t111.5 -65.5t71 -90t40 -95t11 -84.5q0 -241 -133 -241h-131v56q-58 -56 -139 -56q-83 0 -141.5 59t-58.5 141t58.5 141t141.5 59q81 0 140 -57v57h60v-340h70q74 0 74 181q0 30 -8 65t-31 78t-57.5 77t-95.5 57.5 t-137 23.5q-141 0 -235 -100.5t-94 -234.5q0 -59 19.5 -116.5t57.5 -107t102.5 -80t146.5 -30.5v-60q-98 0 -175.5 35.5t-123.5 93.5t-69.5 125.5t-23.5 138.5zM299 200q0 -58 41 -99t99 -41t99 41t41 99t-41 99t-99 41t-99 -41t-41 -99z" />
<glyph unicode="A" horiz-adv-x="678" d="M0 0l180 540h-60q-60 0 -60 -40q0 -22 20 -32l-38 -49q-42 26 -42 81q0 50 33 75t87 25h190l171 -540h80q27 0 50.5 7t38.5 16.5t26 19.5t16 17l5 7l38 -44q-2 -3 -7 -9t-21.5 -20t-35 -25t-48.5 -20t-62 -9h-131l-46 143h-266l-48 -143h-70zM137 200h229l-111 351z" />
<glyph unicode="B" horiz-adv-x="681" d="M0 500q0 50 33 75t87 25h130q90 0 145 -36t55 -114q0 -35 -22.5 -65t-52.5 -41q57 -4 101 -54t44 -110q0 -71 -47 -120h88q27 0 50.5 7t38.5 16.5t26 19.5t16 17l5 7l38 -44q-2 -3 -7 -9t-21.5 -20t-35 -25t-48.5 -20t-62 -9h-441v400q-54 0 -87 24.5t-33 75.5zM60 500 q0 -40 60 -40v80q-60 0 -60 -40zM180 60h140q60 0 100 32t40 88t-40 88t-100 32h-140v-240zM180 360h110q100 0 100 90t-140 90h-70v-180z" />
<glyph unicode="C" horiz-adv-x="686" d="M0 300q0 124 88 212t212 88q126 0 214 -90l-41 -42q-70 72 -173 72q-100 0 -170 -70t-70 -170t70 -170t170 -70h270q27 0 50.5 7t38.5 16.5t26 19.5t16 17l5 7l38 -44q-2 -3 -7 -9t-21.5 -20t-35 -25t-48.5 -20t-62 -9h-270q-124 0 -212 88t-88 212z" />
<glyph unicode="D" horiz-adv-x="715" d="M0 -70h30q90 0 90 70v400q-54 0 -87 24.5t-33 75.5q0 50 33 75t87 25h185q122 -2 208.5 -89.5t86.5 -210.5q0 -73 -32 -136t-88 -104h120q27 0 50.5 7t38.5 16.5t26 19.5t16 17l5 7l38 -44q-2 -3 -7 -9t-21.5 -20t-35 -25t-48.5 -20t-62 -9h-420q0 -72 -39 -101t-111 -29 h-30v60zM60 500q0 -40 60 -40v80q-60 0 -60 -40zM180 60h125q98 2 166.5 71.5t68.5 168.5q0 100 -70 170t-170 70h-120v-480z" />
<glyph unicode="E" horiz-adv-x="668" d="M0 500q0 50 33 75t87 25h400v-55h-340v-195h290v-55h-290v-235h370q27 0 50.5 7t38.5 16.5t26 19.5t16 17l5 7l38 -44q-2 -3 -7 -9t-21.5 -20t-35 -25t-48.5 -20t-62 -9h-430v400q-54 0 -87 24.5t-33 75.5zM60 500q0 -40 60 -40v80q-60 0 -60 -40z" />
<glyph unicode="F" horiz-adv-x="569" d="M0 -70h30q90 0 90 70v400q-54 0 -87 24.5t-33 75.5q0 50 33 75t87 25h400v-55h-340v-195h290v-55h-290v-295q0 -72 -39 -101t-111 -29h-30v60zM60 500q0 -40 60 -40v80q-60 0 -60 -40z" />
<glyph unicode="G" horiz-adv-x="740" d="M0 300q0 124 88 212t212 88q126 0 214 -90l-41 -42q-70 72 -173 72q-100 0 -170 -70t-70 -170t70 -170t170 -70q83 0 147.5 50.5t84.5 129.5h-192v60h260q0 -73 -32 -136t-88 -104h140q27 0 50.5 7t38.5 16.5t26 19.5t16 17l5 7l38 -44q-2 -3 -7 -9t-21.5 -20t-35 -25 t-48.5 -20t-62 -9h-320q-124 0 -212 88t-88 212z" />
<glyph unicode="H" horiz-adv-x="678" d="M0 -70h30q90 0 90 70v400q-54 0 -87 24.5t-33 75.5q0 50 33 75t87 25h60v-250h261v250h60v-540h60q27 0 50.5 7t38.5 16.5t26 19.5t16 17l5 7l38 -44q-2 -3 -7 -9t-21.5 -20t-35 -25t-48.5 -20t-62 -9h-120v295h-261v-295q0 -72 -39 -101t-111 -29h-30v60zM60 500 q0 -40 60 -40v80q-60 0 -60 -40z" />
<glyph unicode="I" horiz-adv-x="436" d="M0 500q0 50 33 75t87 25h60v-400q0 -58 41 -99t99 -41q27 0 50.5 7t38.5 16.5t26 19.5t16 17l5 7l38 -44q-2 -3 -7 -9t-21.5 -20t-35 -25t-48.5 -20t-62 -9q-82 0 -141 59t-59 141v200q-54 0 -87 24.5t-33 75.5zM60 500q0 -40 60 -40v80q-60 0 -60 -40z" />
<glyph unicode="J" horiz-adv-x="561" d="M0 170h60q0 -45 37 -77.5t78 -32.5t78 32.5t37 77.5v230q-54 0 -87 24.5t-33 75.5q0 50 33 75t87 25h60v-430q0 -64 -40 -110h130q27 0 50.5 7t38.5 16.5t26 19.5t16 17l5 7l38 -44q-2 -3 -7 -9t-21.5 -20t-35 -25t-48.5 -20t-62 -9h-266q-69 0 -121.5 49.5t-52.5 120.5z M230 500q0 -40 60 -40v80q-60 0 -60 -40z" />
<glyph unicode="K" horiz-adv-x="645" d="M0 -70h30q90 0 90 70v400q-54 0 -87 24.5t-33 75.5q0 50 33 75t87 25h60v-260h52l164 250h70l-187 -280l204 -250h47q27 0 50.5 7t38.5 16.5t26 19.5t16 17l5 7l38 -44q-2 -3 -7 -9t-21.5 -20t-35 -25t-48.5 -20t-62 -9h-70l-230 280h-50v-280q0 -72 -39 -101t-111 -29 h-30v60zM60 500q0 -40 60 -40v80q-60 0 -60 -40z" />
<glyph unicode="L" horiz-adv-x="464" d="M0 500q0 50 33 75t87 25h60v-540h166q26 0 49.5 7t38.5 16.5t26 19.5t16 17l5 7l38 -44q-2 -3 -7 -9t-21.5 -20t-35 -25t-48.5 -20t-62 -9h-225v400q-54 0 -87 24.5t-33 75.5zM60 500q0 -40 60 -40v80q-60 0 -60 -40z" />
<glyph unicode="M" horiz-adv-x="780" d="M0 -70h30q90 0 90 70v400q-54 0 -87 24.5t-33 75.5q0 50 33 75t87 25h105l142 -532l128 532h106v-540h60q27 0 50.5 7t38.5 16.5t26 19.5t16 17l5 7l38 -44q-2 -3 -7 -9t-21.5 -20t-35 -25t-48.5 -20t-62 -9h-120v529l-133 -529h-80l-148 529v-529q0 -72 -39 -101 t-111 -29h-30v60zM60 500q0 -40 60 -40v80q-60 0 -60 -40z" />
<glyph unicode="N" horiz-adv-x="678" d="M0 -70h30q90 0 90 70v400q-54 0 -87 24.5t-33 75.5q0 50 33 75t87 25h90l231 -515v515h60v-540h60q27 0 50.5 7t38.5 16.5t26 19.5t16 17l5 7l38 -44q-2 -3 -7 -9t-21.5 -20t-35 -25t-48.5 -20t-62 -9h-150l-231 529v-529q0 -72 -39 -101t-111 -29h-30v60zM60 500 q0 -40 60 -40v80q-60 0 -60 -40z" />
<glyph unicode="O" horiz-adv-x="674" d="M0 300q0 124 88 212t212 88t212 -88t88 -212q0 -73 -32 -136t-88 -104h80q27 0 50.5 7t38.5 16.5t26 19.5t16 17l5 7l38 -44q-2 -3 -7 -9t-21.5 -20t-35 -25t-48.5 -20t-62 -9h-260q-124 0 -212 88t-88 212zM60 300q0 -100 70 -170t170 -70t170 70t70 170t-70 170 t-170 70t-170 -70t-70 -170z" />
<glyph unicode="P" horiz-adv-x="606" d="M0 500q0 50 33 75t87 25h200q82 0 141 -59t59 -141t-59 -141t-141 -59h-140v-140h311q27 0 50.5 7t38.5 16.5t26 19.5t16 17l5 7l38 -44q-2 -3 -7 -9t-21.5 -20t-35 -25t-48.5 -20t-62 -9h-371v400q-54 0 -87 24.5t-33 75.5zM60 500q0 -40 60 -40v80q-60 0 -60 -40z M180 260h140q58 0 99 41t41 99t-41 99t-99 41h-140v-280z" />
<glyph unicode="Q" horiz-adv-x="686" d="M0 300q0 124 88 212t212 88t212 -88t88 -212q0 -73 -32 -136t-88 -104h90q27 0 50.5 7t38.5 16.5t26 19.5t16 17l5 7l38 -44q-2 -3 -7 -9t-21.5 -20t-35 -25t-48.5 -20t-62 -9h-238l1 -34q1 -42 17.5 -76t33.5 -47l16 -13l-44 -38q-3 2 -9 7t-20 21.5t-25 35t-20 48.5 t-9 62v35q-116 10 -194.5 95.5t-78.5 203.5zM60 300q0 -92 61 -160t152 -79v139h57l2 -138q89 11 148.5 79t59.5 159q0 100 -70 170t-170 70t-170 -70t-70 -170z" />
<glyph unicode="R" horiz-adv-x="650" d="M0 500q0 50 33 75t87 25h200q84 0 142 -54t58 -136q0 -68 -41.5 -118.5t-107.5 -65.5l109 -166h50q27 0 50.5 7t38.5 16.5t26 19.5t16 17l5 7l38 -44q-2 -3 -7 -9t-21.5 -20t-35 -25t-48.5 -20t-62 -9h-80l-144 220h-126v-220h-60v400q-54 0 -87 24.5t-33 75.5zM60 500 q0 -40 60 -40v80q-60 0 -60 -40zM180 280h140q59 0 99.5 36.5t40.5 93.5t-40.5 93.5t-99.5 36.5h-140v-260z" />
<glyph unicode="S" horiz-adv-x="608" d="M7 145l56 20q16 -48 58.5 -76.5t93.5 -28.5h5q59 2 101.5 31.5t42.5 81.5q0 39 -32.5 64.5t-79 39.5t-93.5 30t-79.5 49.5t-32.5 84.5q0 68 49 110.5t120 42.5q55 0 102.5 -25.5t67.5 -85.5l-58 -12q-27 63 -112 63q-47 0 -78 -25t-31 -68q0 -35 32.5 -57t78.5 -35 t92.5 -29.5t79 -51.5t32.5 -89q0 -74 -47 -119h116q27 0 50.5 7t38.5 16.5t26 19.5t16 17l5 7l38 -44q-2 -3 -7 -9t-21.5 -20t-35 -25t-48.5 -20t-62 -9h-276l-5 2q-66 0 -122.5 38t-80.5 105z" />
<glyph unicode="T" horiz-adv-x="584" d="M0 500q0 50 33 75t87 25h400v-55h-210v-485h151q27 0 50.5 7t38.5 16.5t26 19.5t16 17l5 7l38 -44q-2 -3 -7 -9t-21.5 -20t-35 -25t-48.5 -20t-62 -9h-151q0 -72 -39 -101t-111 -29h-30v60h30q90 0 90 70v545h-130q-26 0 -43 -11.5t-17 -31.5q0 -21 17 -31.5t43 -10.5 v-60q-54 0 -87 24.5t-33 75.5z" />
<glyph unicode="U" horiz-adv-x="617" d="M0 300v300h60v-300q0 -106 47.5 -173t142.5 -67t142.5 67t47.5 173v300h60v-300q0 -166 -100 -240h100q27 0 50.5 7t38.5 16.5t26 19.5t16 17l5 7l38 -44q-2 -3 -7 -9t-21.5 -20t-35 -25t-48.5 -20t-62 -9h-250q-120 0 -185 84.5t-65 215.5z" />
<glyph unicode="V" horiz-adv-x="609" d="M0 600h70l185 -551l175 551h70l-171 -540h161q27 0 50.5 7t38.5 16.5t26 19.5t16 17l5 7l38 -44q-2 -3 -7 -9t-21.5 -20t-35 -25t-48.5 -20t-62 -9h-290z" />
<glyph unicode="W" horiz-adv-x="806" d="M1 600h70l185 -551l63 197l-118 354h70l82 -245l78 245h70l-112 -353l67 -193l175 546h70l-171 -540h161q27 0 50.5 7t38.5 16.5t26 19.5t16 17l5 7l38 -44q-2 -3 -7 -9t-21.5 -20t-35 -25t-48.5 -20t-62 -9h-290l-46 138l-44 -138h-110z" />
<glyph unicode="X" horiz-adv-x="645" d="M0 0l206 325l-206 275h77l164 -219l139 219h70l-171 -270l204 -270h47q27 0 50.5 7t38.5 16.5t26 19.5t16 17l5 7l38 -44q-2 -3 -7 -9t-21.5 -20t-35 -25t-48.5 -20t-62 -9h-80l-206 274l-174 -274h-70z" />
<glyph unicode="Y" horiz-adv-x="558" d="M0 600h68l161 -336l153 336h68l-190 -400v-140h181q27 0 50.5 7t38.5 16.5t26 19.5t16 17l5 7l38 -44q-2 -3 -7 -9t-21.5 -20t-35 -25t-48.5 -20t-62 -9h-181q0 -72 -39 -101t-111 -29h-30v60h30q90 0 90 70v200z" />
<glyph unicode="Z" horiz-adv-x="645" d="M0 0l348 545h-298v55h400l-342 -540h422q27 0 50.5 7t38.5 16.5t26 19.5t16 17l5 7l38 -44q-2 -3 -7 -9t-21.5 -20t-35 -25t-48.5 -20t-62 -9h-530z" />
<glyph unicode="[" horiz-adv-x="380" d="M100 -60v760h166v-55h-106v-650h106v-55h-166z" />
<glyph unicode="\" horiz-adv-x="560" d="M50 600h70l380 -600h-70z" />
<glyph unicode="]" horiz-adv-x="380" d="M100 -5h106v650h-106v55h166v-760h-166v55z" />
<glyph unicode="^" horiz-adv-x="614" d="M130 400l173 240h14l183 -240h-70l-120 158l-110 -158h-70z" />
<glyph unicode="_" horiz-adv-x="678" d="M100 0v60h500v-60h-500z" />
<glyph unicode="a" horiz-adv-x="600" d="M0 200q0 82 59 141t141 59q81 0 140 -57v57h60v-340h81q26 0 49.5 7t38.5 16.5t26 19.5t16 17l5 7l38 -44q-2 -3 -7 -9t-21 -20t-34.5 -25t-48.5 -20t-62 -9h-141v57q-6 -13 -54.5 -35t-85.5 -22q-82 0 -141 59t-59 141zM60 200q0 -58 41 -99t99 -41t99 41t41 99t-41 99 t-99 41t-99 -41t-41 -99z" />
<glyph unicode="b" horiz-adv-x="549" d="M0 200v450h60v-308q58 58 140 58t141 -59t59 -141t-55 -140h85q27 0 50.5 7t38.5 16.5t26 19.5t16 17l5 7l38 -44q-2 -3 -7 -9t-21.5 -20t-35 -25t-48.5 -20t-62 -9h-230q-87 0 -143.5 56t-56.5 144zM60 200q0 -57 40 -98t100 -42q59 0 99.5 41t40.5 99q0 57 -41 98.5 t-99 41.5q-56 0 -97 -39.5t-43 -95.5v-5z" />
<glyph unicode="c" horiz-adv-x="432" d="M0 200q0 82 59 141t141 59q56 0 105 -30l-34 -50q-35 20 -71 20q-58 0 -99 -41t-41 -99t41 -99t99 -41h110q27 0 50.5 7t38.5 16.5t26 19.5t16 17l5 7l38 -44q-2 -3 -7 -9t-21.5 -20t-35 -25t-48.5 -20t-62 -9h-110q-82 0 -141 59t-59 141z" />
<glyph unicode="d" horiz-adv-x="573" d="M0 200q0 82 59 141t141 59q81 0 140 -57v307h60v-590h61q26 0 49.5 7t38.5 16.5t26 19.5t16 17l5 7l38 -44q-2 -3 -7 -9t-21 -20t-34.5 -25t-48.5 -20t-62 -9h-121v57q-6 -13 -54.5 -35t-85.5 -22q-82 0 -141 59t-59 141zM60 200q0 -58 41 -99t99 -41t99 41t41 99t-41 99 t-99 41t-99 -41t-41 -99z" />
<glyph unicode="e" horiz-adv-x="548" d="M1 200q0 82 58.5 141t141.5 59q82 0 140.5 -59.5t58.5 -160.5h-339q8 -51 47.5 -85.5t91.5 -34.5h230q27 0 50.5 7t38.5 16.5t26 19.5t16 17l5 7l38 -44q-2 -3 -7 -9t-21.5 -20t-35 -25t-48.5 -20t-62 -9h-230q-82 0 -140.5 58.5t-58.5 141.5zM65 234h269q-4 46 -44 75 t-91 29q-46 0 -83.5 -26t-50.5 -78z" />
<glyph unicode="f" horiz-adv-x="348" d="M-50 345v55h50v130q0 44 35.5 82t89.5 38t89.5 -38t35.5 -82h-60q0 22 -17.5 41t-47.5 19t-47.5 -19t-17.5 -41v-130h190v-55h-190v-285h170q27 0 50.5 7t38.5 16.5t26 19.5t16 17l5 7l38 -44q-2 -3 -7 -9t-21.5 -20t-35 -25t-48.5 -20t-62 -9h-230v345h-50z" />
<glyph unicode="g" horiz-adv-x="549" d="M0 -140q0 53 25.5 98t69.5 72q-44 27 -69.5 72t-25.5 98q0 82 59 141t141 59t141 -59t59 -141t-58 -140h88q27 0 50.5 7t38.5 16.5t26 19.5t16 17l5 7l38 -44q-2 -3 -7 -9t-21.5 -20t-35 -25t-48.5 -20t-62 -9h-87q57 -59 57 -140q0 -82 -59 -141t-141 -59t-141 59 t-59 141zM60 -140q0 -58 41 -99t99 -41t99 41t41 99q0 57 -40.5 98.5t-99.5 41.5q-58 0 -99 -41t-41 -99zM60 200q0 -58 41.5 -99t100.5 -41q57 1 97.5 41.5t40.5 98.5t-41 99t-99 41t-99 -41t-41 -99z" />
<glyph unicode="h" horiz-adv-x="549" d="M0 0v650h60v-338q19 40 62.5 64t87.5 24q82 0 136 -58t54 -142v-140h60q20 0 46.5 16.5t43.5 33.5l16 17l38 -44q-8 -9 -21.5 -23t-51.5 -37t-71 -23h-120v200q0 58 -41 99t-99 41t-99 -41t-41 -99v-200h-60z" />
<glyph unicode="i" horiz-adv-x="316" d="M-25 550q0 21 14.5 35.5t35.5 14.5t35.5 -14.5t14.5 -35.5t-14.5 -35.5t-35.5 -14.5t-35.5 14.5t-14.5 35.5zM0 200v200h60v-200q0 -58 41 -99t99 -41q27 0 50.5 7t38.5 16.5t26 19.5t16 17l5 7l38 -44q-2 -3 -7 -9t-21.5 -20t-35 -25t-48.5 -20t-62 -9q-82 0 -141 59 t-59 141z" />
<glyph unicode="j" horiz-adv-x="267" d="M-189 -130h60q0 -110 65 -110t65 110v475h-50v55h110v-340h90q27 0 50.5 7t38.5 16.5t26 19.5t16 17l5 7l38 -44q-2 -3 -7 -9t-21.5 -20t-35 -25t-48.5 -20t-62 -9h-90v-130q0 -81 -28 -125.5t-97 -44.5t-97 44.5t-28 125.5zM-24 550q0 21 14.5 35.5t35.5 14.5 t35.5 -14.5t14.5 -35.5t-14.5 -35.5t-35.5 -14.5t-35.5 14.5t-14.5 35.5z" />
<glyph unicode="k" horiz-adv-x="472" d="M0 0v650h60v-410h52l134 160h70l-157 -190l144 -150h47q27 0 50.5 7t38.5 16.5t26 19.5t16 17l5 7l38 -44q-2 -3 -7 -9t-21.5 -20t-35 -25t-48.5 -20t-62 -9h-80l-170 180h-40v-180h-60z" />
<glyph unicode="l" horiz-adv-x="321" d="M0 200v450h60v-450q0 -58 41 -99t99 -41q27 0 50.5 7t38.5 16.5t26 19.5t16 17l5 7l38 -44q-2 -3 -7 -9t-21.5 -20t-35 -25t-48.5 -20t-62 -9q-82 0 -141 59t-59 141z" />
<glyph unicode="m" horiz-adv-x="890" d="M1 0v400h60v-88q19 40 62.5 64t87.5 24q100 0 160 -95q27 44 72 69.5t98 25.5q88 0 144 -58t56 -142v-140h60q20 0 46.5 16.5t42.5 33.5l17 17l38 -44q-8 -9 -21.5 -23t-51.5 -37t-71 -23h-120v200q0 58 -41 99t-99 41q-57 0 -98.5 -39.5t-41.5 -95.5v-205h-60v205 q0 56 -41.5 95.5t-98.5 39.5q-58 0 -99 -41t-41 -99v-200h-60z" />
<glyph unicode="n" horiz-adv-x="549" d="M0 0v400h60v-88q19 40 62.5 64t87.5 24q82 0 136 -58t54 -142v-140h60q20 0 46.5 16.5t43.5 33.5l16 17l38 -44q-8 -9 -21.5 -23t-51.5 -37t-71 -23h-120v200q0 58 -41 99t-99 41t-99 -41t-41 -99v-200h-60z" />
<glyph unicode="o" horiz-adv-x="511" d="M0 200q0 82 59 141t141 59t141 -59t59 -141t-58 -140h48q27 0 50.5 7t38.5 16.5t26 19.5t16 17l5 7l38 -44q-2 -3 -7 -9t-21.5 -20t-35 -25t-48.5 -20t-62 -9h-190q-82 0 -141 59t-59 141zM60 200q0 -58 41 -99t99 -41t99 41t41 99t-41 99t-99 41t-99 -41t-41 -99z" />
<glyph unicode="p" horiz-adv-x="549" d="M0 -300v700h60v-58q58 58 140 58t141 -59t59 -141t-55 -140h85q27 0 50.5 7t38.5 16.5t26 19.5t16 17l5 7l38 -44q-2 -3 -7 -9t-21.5 -20t-35 -25t-48.5 -20t-62 -9h-230q-85 0 -140 53v-353h-60zM60 200q0 -58 41 -99t99 -41q59 0 99.5 41.5t40.5 98.5q0 58 -41 99 t-99 41q-56 0 -97 -39.5t-43 -95.5v-5z" />
<glyph unicode="q" horiz-adv-x="549" d="M0 200q0 82 59 141t141 59q81 0 140 -57v57h60v-340h30q27 0 50.5 7t38.5 16.5t26 19.5t16 17l5 7l38 -44q-2 -3 -7 -9t-21.5 -20t-35 -25t-48.5 -20t-62 -9h-30v-300h-60v357q-59 -57 -140 -57q-82 0 -141 59t-59 141zM60 200q0 -58 41 -99t99 -41t99 41t41 99v5 q-2 56 -43 95.5t-97 39.5q-58 0 -99 -41t-41 -99z" />
<glyph unicode="r" horiz-adv-x="519" d="M16 127q3 4 11 15.5t11.5 18t7 22.5t3.5 37v180h210v-200q0 -58 41 -99t99 -41q27 0 50.5 7t38.5 16.5t26 19.5t16 17l5 7l38 -44q-2 -3 -7 -9t-21.5 -20t-35 -25t-48.5 -20t-62 -9q-83 0 -141.5 59t-58.5 141v145h-90v-124q0 -79 -55 -138z" />
<glyph unicode="s" horiz-adv-x="549" d="M14 124l232 276q69 -26 111.5 -80t42.5 -120q0 -82 -58 -140h88q27 0 50.5 7t38.5 16.5t26 19.5t16 17l5 7l38 -44q-2 -3 -7 -9t-21.5 -20t-35 -25t-48.5 -20t-62 -9h-230q-56 0 -110.5 29.5t-75.5 94.5zM85 119q12 -24 46.5 -41.5t70.5 -17.5q58 2 98 43t40 97 q0 40 -21.5 73.5t-55.5 51.5z" />
<glyph unicode="t" horiz-adv-x="316" d="M-50 345v55h50v140l60 10v-150h140l-10 -55h-130v-145q0 -58 41 -99t99 -41q27 0 50.5 7t38.5 16.5t26 19.5t16 17l5 7l38 -44q-2 -3 -7 -9t-21.5 -20t-35 -25t-48.5 -20t-62 -9q-82 0 -141 59t-59 141v145h-50z" />
<glyph unicode="u" horiz-adv-x="536" d="M0 200v200h60v-200q0 -58 41 -99t99 -41t99 41t41 99v200h60v-200q0 -82 -58 -140h76q27 0 50.5 7t38.5 16.5t26 19.5t16 17l5 7l38 -44q-2 -3 -7 -9t-21.5 -20t-35 -25t-48.5 -20t-62 -9h-218q-82 0 -141 59t-59 141z" />
<glyph unicode="v" horiz-adv-x="500" d="M0 400h60l124 -299l146 299h64l-162 -340h146q27 0 50.5 7t38.5 16.5t26 19.5t16 17l5 7l38 -44q-2 -3 -7 -9t-21.5 -20t-35 -25t-48.5 -20t-62 -9h-223l-53 137l-50 -58l-39 42l65 77z" />
<glyph unicode="w" horiz-adv-x="659" d="M0 400h60l124 -299l45 93l-79 206h60l55 -133l65 133h64l-99 -207l39 -92l146 299h64l-162 -340h158q27 0 50.5 7t38.5 16.5t26 19.5t16 17l5 7l38 -44q-2 -3 -7 -9t-21.5 -20t-35 -25t-48.5 -20t-62 -9h-235l-46 117l-56 -117h-48l-53 137l-50 -58l-39 42l65 77z" />
<glyph unicode="x" horiz-adv-x="420" d="M-91 400h80l120 -150l120 150h80l-160 -200l112 -140h38q27 0 50.5 7t38.5 16.5t26 19.5t16 17l5 7l38 -44q-2 -3 -7 -9t-21.5 -20t-35 -25t-48.5 -20t-62 -9h-70l-120 150l-65 -80l-41 40l69 84z" />
<glyph unicode="y" horiz-adv-x="549" d="M0 -140q0 53 25.5 98t69.5 72q-44 27 -69.5 72t-25.5 98v200h60v-200q0 -58 41 -99t99 -41t99 41t41 99v200h60v-200q0 -82 -58 -140h88q27 0 50.5 7t38.5 16.5t26 19.5t16 17l5 7l38 -44q-2 -3 -7 -9t-21.5 -20t-35 -25t-48.5 -20t-62 -9h-87q57 -59 57 -140 q0 -82 -59 -141t-141 -59t-141 59t-59 141zM60 -140q0 -58 41 -99t99 -41t99 41t41 99q0 56 -39.5 97t-95.5 43h-5q-58 0 -99 -41t-41 -99z" />
<glyph unicode="z" horiz-adv-x="357" d="M-47 343v57h328l-192 -267l99 -73h55q27 0 50.5 7t38.5 16.5t26 19.5t16 17l5 7l38 -44q-2 -3 -7 -9t-21.5 -20t-35 -25t-48.5 -20t-62 -9h-82l-155 116l164 227h-217z" />
<glyph unicode="{" horiz-adv-x="360" d="M103 247v58q3 0 8.5 1t19 5t24 9t19 15t8.5 23q0 25 -28 63q-49 67 -49 132q0 67 39 104.5t81 37.5v-60q-21 0 -40.5 -22t-19.5 -60q0 -44 38.5 -99t38.5 -96q0 -18 -11 -38.5t-23 -31.5l-11 -12q45 -31 45 -82q0 -41 -38.5 -96t-38.5 -99q0 -36 21.5 -57.5t43.5 -21.5 v-60q-42 0 -83.5 38t-41.5 101q0 65 49 132q28 40 28 63q0 20 -20 33t-40 17z" />
<glyph unicode="|" horiz-adv-x="315" d="M130 -50v750h60v-750h-60z" />
<glyph unicode="}" horiz-adv-x="360" d="M103 194q0 51 45 82q-45 41 -45 82t38.5 96t38.5 99q0 38 -19.5 60t-40.5 22v60q42 0 81 -37.5t39 -104.5q0 -65 -49 -132q-28 -38 -28 -63q0 -20 19.5 -33t39.5 -17l20 -3v-58q-3 0 -8.5 -1t-19 -5t-24 -9t-19 -15t-8.5 -23q0 -23 28 -63q49 -67 49 -132 q0 -63 -41.5 -101t-83.5 -38v60q22 0 43.5 21.5t21.5 57.5q0 44 -38.5 99t-38.5 96z" />
<glyph unicode="~" horiz-adv-x="700" d="M110 160q0 5 1 14t8 31.5t19 39.5t39 31t63 14q27 0 55 -10.5t43 -20t44 -30.5q65 -49 108 -49q31 0 48.5 17.5t19.5 34.5l2 18h60q0 -5 -1 -14t-8 -31.5t-19 -39.5t-39 -31t-63 -14q-41 0 -73 16t-74 49q-63 45 -103 45q-31 0 -48.5 -17.5t-19.5 -34.5l-2 -18h-60z" />
<glyph unicode="&#xa3;" horiz-adv-x="649" d="M60 0l50 60h80v285h-50v55h50v140q0 45 32 77.5t93 32.5t93 -32.5t32 -77.5h-60q0 20 -17 35t-48 15t-48 -15t-17 -35v-140h110v-55h-110l-3 -285h154q27 0 50.5 7t38.5 16.5t26 19.5t16 17l5 7l38 -44q-2 -3 -7 -9t-21.5 -20t-35 -25t-48.5 -20t-62 -9h-341z" />
<glyph unicode="&#xa4;" horiz-adv-x="833" d="M181 23l94 94q-25 37 -25 83t25 83l-94 94l42 42l94 -94q39 25 83 25t83 -25l94 94l42 -42l-94 -94q25 -39 25 -83t-25 -83l94 -94l-42 -42l-94 94q-37 -25 -83 -25t-83 25l-94 -94zM310 200q0 -37 26 -63.5t64 -26.5q37 0 63.5 26t26.5 64q0 36 -26.5 63t-63.5 27 t-63.5 -26t-26.5 -64z" />
<glyph unicode="&#xa5;" horiz-adv-x="549" d="M0 600h68l161 -336l153 336h68l-143 -300h93v-60h-121l-19 -40h140v-55h-140v-145h-60v145h-150v55h150l-20 40h-130v60h100z" />
<glyph unicode="&#xa6;" horiz-adv-x="315" d="M130 -50v300h60v-300h-60zM130 400v300h60v-300h-60z" />
<glyph unicode="&#xa7;" horiz-adv-x="482" d="M30 449h60q0 -47 30 -85.5t72.5 -65.5t85 -52.5t72.5 -57.5t30 -69q0 -56 -42 -87.5t-99 -31.5t-98 31t-41 88h60q0 -61 84 -61q31 0 52 15.5t21 45.5q0 22 -22.5 42t-53 35.5t-75.5 46t-78 66.5q-58 71 -58 140zM92 530q0 56 41 87.5t98 31.5t98 -31t41 -88h-60 q0 61 -84 61q-32 0 -54 -15.5t-22 -45.5q0 -16 30 -37.5t72.5 -48.5t85 -60t72.5 -81.5t30 -102.5h-60v6q0 47 -29.5 86t-72 66.5t-85 52.5t-72 55t-29.5 64z" />
<glyph unicode="&#xa8;" horiz-adv-x="400" d="M20 560q0 21 14.5 35.5t35.5 14.5t35.5 -14.5t14.5 -35.5t-14.5 -35.5t-35.5 -14.5t-35.5 14.5t-14.5 35.5zM270 560q0 21 14.5 35.5t35.5 14.5t35.5 -14.5t14.5 -35.5t-14.5 -35.5t-35.5 -14.5t-35.5 14.5t-14.5 35.5z" />
<glyph unicode="&#xab;" horiz-adv-x="717" d="M110 190v13l300 197v-70l-203 -130l203 -129v-71zM330 190v13l300 197v-70l-203 -130l203 -129v-71z" />
<glyph unicode="&#xac;" horiz-adv-x="544" d="M100 210v55h350v-155h-60v100h-290z" />
<glyph unicode="&#xad;" horiz-adv-x="517" d="M100 170v55h300v-55h-300z" />
<glyph unicode="&#xb0;" horiz-adv-x="250" d="M0 550q0 41 29.5 70.5t70.5 29.5t70.5 -29.5t29.5 -70.5t-29.5 -70.5t-70.5 -29.5t-70.5 29.5t-29.5 70.5zM55 550q0 -19 13 -32t32 -13q18 0 31.5 13t13.5 32q0 18 -13.5 31.5t-31.5 13.5q-19 0 -32 -13.5t-13 -31.5z" />
<glyph unicode="&#xb2;" horiz-adv-x="456" d="M20 570q0 21 14.5 35.5t35.5 14.5t35.5 -14.5t14.5 -35.5t-14.5 -35.5t-35.5 -14.5t-35.5 14.5t-14.5 35.5zM170 570q0 21 14.5 35.5t35.5 14.5t35.5 -14.5t14.5 -35.5t-14.5 -35.5t-35.5 -14.5t-35.5 14.5t-14.5 35.5z" />
<glyph unicode="&#xb3;" horiz-adv-x="454" d="M20 570q0 21 14.5 35.5t35.5 14.5t35.5 -14.5t14.5 -35.5t-14.5 -35.5t-35.5 -14.5t-35.5 14.5t-14.5 35.5zM170 570q0 21 14.5 35.5t35.5 14.5t35.5 -14.5t14.5 -35.5t-14.5 -35.5t-35.5 -14.5t-35.5 14.5t-14.5 35.5zM320 570q0 21 14.5 35.5t35.5 14.5t35.5 -14.5 t14.5 -35.5t-14.5 -35.5t-35.5 -14.5t-35.5 14.5t-14.5 35.5z" />
<glyph unicode="&#xb5;" horiz-adv-x="549" d="M0 -300v700h60v-200q0 -58 41 -99t99 -41t99 41t41 99v200h60v-200q0 -82 -58 -140h88q27 0 50.5 7t38.5 16.5t26 19.5t16 17l5 7l38 -44q-2 -3 -7 -9t-21.5 -20t-35 -25t-48.5 -20t-62 -9h-230q-82 0 -140 58v-358h-60z" />
<glyph unicode="&#xb6;" horiz-adv-x="456" d="M0 500q0 50 33 75t87 25h60v-600h-60v400q-54 0 -87 24.5t-33 75.5zM240 0v600h60v-600h-60z" />
<glyph unicode="&#xb7;" d="M150 200q0 21 14.5 35.5t35.5 14.5t35.5 -14.5t14.5 -35.5t-14.5 -35.5t-35.5 -14.5t-35.5 14.5t-14.5 35.5z" />
<glyph unicode="&#xb9;" horiz-adv-x="350" d="M0 600q0 21 14.5 35.5t35.5 14.5t35.5 -14.5t14.5 -35.5t-14.5 -35.5t-35.5 -14.5t-35.5 14.5t-14.5 35.5z" />
<glyph unicode="&#xbb;" horiz-adv-x="717" d="M110 0v71l203 129l-203 130v70l300 -197v-13zM330 0v71l203 129l-203 130v70l300 -197v-13z" />
<glyph unicode="&#xf7;" horiz-adv-x="560" d="M84 200v55h350v-55h-350zM214 100q0 21 14.5 35.5t35.5 14.5t35.5 -14.5t14.5 -35.5t-14.5 -35.5t-35.5 -14.5t-35.5 14.5t-14.5 35.5zM214 350q0 21 14.5 35.5t35.5 14.5t35.5 -14.5t14.5 -35.5t-14.5 -35.5t-35.5 -14.5t-35.5 14.5t-14.5 35.5z" />
<glyph unicode="&#x2000;" horiz-adv-x="363" />
<glyph unicode="&#x2001;" horiz-adv-x="727" />
<glyph unicode="&#x2002;" horiz-adv-x="363" />
<glyph unicode="&#x2003;" horiz-adv-x="727" />
<glyph unicode="&#x2004;" horiz-adv-x="242" />
<glyph unicode="&#x2005;" horiz-adv-x="181" />
<glyph unicode="&#x2006;" horiz-adv-x="121" />
<glyph unicode="&#x2007;" horiz-adv-x="121" />
<glyph unicode="&#x2008;" horiz-adv-x="90" />
<glyph unicode="&#x2009;" horiz-adv-x="145" />
<glyph unicode="&#x200a;" horiz-adv-x="40" />
<glyph unicode="&#x2010;" horiz-adv-x="517" d="M100 170v55h300v-55h-300z" />
<glyph unicode="&#x2011;" horiz-adv-x="517" d="M100 170v55h300v-55h-300z" />
<glyph unicode="&#x2012;" horiz-adv-x="517" d="M100 170v55h300v-55h-300z" />
<glyph unicode="&#x2013;" horiz-adv-x="544" d="M100 170v55h350v-55h-350z" />
<glyph unicode="&#x2014;" horiz-adv-x="705" d="M100 170v55h500v-55h-500z" />
<glyph unicode="&#x2018;" d="M150 350v300h60v-300h-60z" />
<glyph unicode="&#x2019;" d="M150 350v300h60v-300h-60z" />
<glyph unicode="&#x201a;" d="M150 -150v300h60v-300h-60z" />
<glyph unicode="&#x201c;" d="M50 350v300h60v-300h-60zM180 350v300h60v-300h-60z" />
<glyph unicode="&#x201d;" d="M50 350v300h60v-300h-60zM180 350v300h60v-300h-60z" />
<glyph unicode="&#x201e;" horiz-adv-x="390" d="M150 -150v300h60v-300h-60zM270 -150v300h60v-300h-60z" />
<glyph unicode="&#x2022;" horiz-adv-x="450" d="M150 225q0 31 22 53t53 22t53 -22t22 -53t-22 -53t-53 -22t-53 22t-22 53z" />
<glyph unicode="&#x2026;" horiz-adv-x="897" d="M100 50q0 21 14.5 35.5t35.5 14.5t35.5 -14.5t14.5 -35.5t-14.5 -35.5t-35.5 -14.5t-35.5 14.5t-14.5 35.5zM399 50q0 21 14.5 35.5t35.5 14.5t35.5 -14.5t14.5 -35.5t-14.5 -35.5t-35.5 -14.5t-35.5 14.5t-14.5 35.5zM698 50q0 21 14.5 35.5t35.5 14.5t35.5 -14.5 t14.5 -35.5t-14.5 -35.5t-35.5 -14.5t-35.5 14.5t-14.5 35.5z" />
<glyph unicode="&#x202f;" horiz-adv-x="145" />
<glyph unicode="&#x2039;" horiz-adv-x="510" d="M110 190v13l300 197v-70l-203 -130l203 -129v-71z" />
<glyph unicode="&#x203a;" horiz-adv-x="510" d="M110 0v71l203 129l-203 130v70l300 -197v-13z" />
<glyph unicode="&#x205f;" horiz-adv-x="181" />
</font>
</defs>
</svg>
