<?xml version="1.0" standalone="no"?>
<!DOCTYPE svg PUBLIC "-//W3C//DTD SVG 1.1//EN" "http://www.w3.org/Graphics/SVG/1.1/DTD/svg11.dtd" >
<svg xmlns="http://www.w3.org/2000/svg">
<metadata></metadata>
<defs>
<font id="fancypantsregular" horiz-adv-x="500" >
<font-face units-per-em="1000" ascent="800" descent="-200" />
<missing-glyph horiz-adv-x="500" />
<glyph horiz-adv-x="1000" />
<glyph horiz-adv-x="1000" />
<glyph unicode="&#xd;" horiz-adv-x="1000" />
<glyph unicode=" " />
<glyph unicode="!" horiz-adv-x="331" d="M305 103q0 -44 -33 -70.5t-72 -33.5q-9 -1 -17.5 -2t-16.5 -1t-16 1t-17 2q-40 7 -73.5 33t-33.5 71q0 44 33.5 70.5t73.5 34.5q9 1 17 2t16 1t16.5 -1t17.5 -3q39 -8 72 -34t33 -70v0zM316 579q0 -42 -12 -69t-30 -51q-2 -3 -4.5 -6.5t-4.5 -6.5t-4.5 -6t-4.5 -7 q-19 -25 -34 -61.5t-15 -100.5v-19.5v-18.5h-83v18.5v19.5q0 66 -15.5 102.5t-34.5 62.5q-1 3 -3 5.5t-4 4.5q-2 3 -4.5 6.5t-5.5 6.5q-17 24 -29.5 51t-12.5 69q0 49 38 81.5t84 41.5q7 2 14.5 2.5t14.5 0.5t15 -1t15 -2q45 -9 82.5 -42t37.5 -81v0z" />
<glyph unicode="&#x22;" horiz-adv-x="198" d="M328 777l-50 -197h-69l-35 140l-36 -140h-69l-50 197h309v0z" />
<glyph unicode="#" />
<glyph unicode="$" horiz-adv-x="477" d="M455 251q0 -33 -18 -63t-49 -53q-28 -21 -64.5 -33.5t-75.5 -12.5q-22 0 -42.5 2.5t-37.5 6.5l-64 -165q-3 -7 -8.5 -11t-10.5 -6h-3h-2q-10 0 -18 6.5t-8 17.5q0 3 1 6l2 6l63 163q-3 2 -6 3.5l-5 2.5q-3 2 -6 3.5t-6 3.5q-24 16 -40.5 36t-24.5 40q-4 11 -6.5 21 t-3.5 20l67 5q1 -7 3.5 -14.5t6.5 -15.5q6 -9 14.5 -18.5t20.5 -17.5l3 -1.5l3 -1.5q1 -1 2.5 -1.5t2.5 -1.5l48 124q-12 12 -24 23.5t-24 23.5l-23.5 23.5l-23.5 23.5q-18 17 -27 39t-9 47q0 60 44.5 92.5t98.5 41.5q12 2 24 3t23 1q10 0 20.5 -0.5t21.5 -1.5q5 -1 10.5 -2 t10.5 -2l56 144q4 10 11 14t14 4q9 0 16.5 -7t7.5 -18v-5t-2 -6l-55 -143q20 -10 35.5 -27t22.5 -43l-66 -17q-1 8 -6 14t-11 10l-32 -83l28.5 -28.5l28.5 -28.5q14 -15 28.5 -29.5t29.5 -28.5q17 -17 25.5 -39.5t8.5 -45.5v0zM304 166q2 2 2 3.5v3.5q0 7 -5.5 16.5 t-14.5 20.5q-2 1 -3 3t-3 3q-12 11 -24 23l-24 24l-39 -102l12 -2t13 -2q6 0 12 -0.5t12 -0.5q17 0 33 2.5t29 7.5v0zM290 550q-11 2 -21 2.5t-17 0.5h-2.5h-2.5q-10 0 -18.5 -2.5t-8.5 -8.5q0 -3 2 -6t6 -7l19.5 -19.5l19.5 -19.5l23 60v0z" />
<glyph unicode="%" />
<glyph unicode="&#x26;" horiz-adv-x="865" d="M859 272v-3t1 -3v-3.5v-3.5q0 -20 -6 -37.5t-13 -29.5q-2 -3 -3.5 -5t-2.5 -4q-18 -22 -41.5 -32.5t-49.5 -10.5h-6.5t-7.5 1q-4 0 -7.5 0.5t-6.5 1.5l17 74q3 -1 6 -1h6q17 0 28.5 12t10.5 31v1.5v1.5v0.5v1.5q-1 7 -4.5 13.5t-11.5 12.5q-8 7 -17 10t-18 3 q-4 0 -8.5 -0.5t-8.5 -1.5q-19 -5 -37.5 -18.5t-33.5 -28.5l-13.5 -13.5t-11.5 -12.5l118 -153l80 1v-76l-419 -1q-3 5 -6 9t-6 9q-3 4 -6.5 8.5t-6.5 8.5q-31 -14 -65 -23.5t-69 -10.5q-5 -1 -10 -1h-10q-26 0 -51.5 4t-48.5 14q-51 22 -79 65t-28 98q0 68 38.5 114.5 t94.5 71.5q-5 8 -10.5 15.5t-10.5 14.5q-1 2 -2.5 4t-3.5 4q-22 28 -32.5 58t-10.5 61q0 41 20.5 79t63.5 64q36 22 85 34.5t101 13.5h4.5h4.5q47 -1 92 -11t79 -33q38 -24 55.5 -56.5t17.5 -67.5v-5v-5q-3 -35 -22 -68.5t-52 -59.5q-7 -5 -14.5 -9.5t-15.5 -9.5l78 -100 q26 29 54.5 50t56.5 31q6 2 12.5 4t13.5 3q7 2 13.5 2.5t12.5 0.5q21 0 41.5 -7.5t39.5 -23.5q20 -17 30 -37t12 -40v0zM331 98q-18 26 -35.5 51.5t-35.5 50.5q-18 26 -35.5 51.5t-35.5 51.5q-40 -16 -70 -46t-30 -77q0 -57 40 -81.5t91 -24.5q18 0 36.5 2.5t37.5 8.5 q9 2 18.5 5.5t18.5 7.5v0zM485 607q-12 7 -29 13.5t-35 10.5q-13 3 -25.5 4.5t-23.5 1.5q-8 0 -14.5 -1t-11.5 -3q-3 -2 -4.5 -5t-1.5 -6v-0.5v-1.5v-1.5v-0.5q0 -4 1.5 -10t2.5 -12q2 -4 3.5 -7.5t3.5 -7.5q4 -7 8.5 -14t8.5 -14l3.5 -3.5t2.5 -3.5l74 -96q8 4 16 8.5 t15 9.5q16 13 27 28.5t15 32.5q1 4 1.5 8t0.5 8q-1 17 -9.5 33t-28.5 29v0z" />
<glyph unicode="'" horiz-adv-x="198" d="M188 777l-50 -197h-69l-50 197h169v0z" />
<glyph unicode="(" />
<glyph unicode=")" />
<glyph unicode="*" horiz-adv-x="391" d="M373 512l-123 28l86 -92l-103 -60l-37 120l-37 -121l-104 60l86 91l-123 -27v119l123 -29l-87 94l104 60l36 -122l37 122l104 -60l-87 -93l125 29v-119v0z" />
<glyph unicode="+" />
<glyph unicode="," horiz-adv-x="308" d="M290 13q-6 -34 -21.5 -62.5t-37.5 -48.5q-21 -19 -46 -28t-51 -7v75q1 1 2 1t2 -1h2h2q12 0 22.5 5t20.5 13q10 9 18.5 22t12.5 28q-9 -4 -19.5 -7t-20.5 -5q-7 -1 -13.5 -1.5t-13.5 -0.5t-15 1l-16 2q-37 7 -68.5 33t-31.5 71q0 44 31.5 70.5t68.5 34.5l16 2t15 1 q70 0 107.5 -47.5t36.5 -112.5q0 -9 -0.5 -18.5t-2.5 -19.5v0z" />
<glyph unicode="-" />
<glyph unicode="." horiz-adv-x="331" d="M305 103q0 -44 -33 -70.5t-72 -33.5q-9 -1 -17.5 -2t-16.5 -1t-16 1t-17 2q-40 7 -73.5 33t-33.5 71q0 44 33.5 70.5t73.5 34.5q9 1 17 2t16 1t16.5 -1t17.5 -3q39 -8 72 -34t33 -70v0z" />
<glyph unicode="/" />
<glyph unicode="0" horiz-adv-x="675" d="M644 352v-10.5t-1 -11.5q-7 -124 -89.5 -227t-216.5 -103t-216 103t-89 227q-1 6 -1 11.5v10.5v10.5t1 11.5q7 124 89 227t216 103q136 0 218.5 -104.5t88.5 -230.5v-8.5v-8.5v0zM568 352q0 10 -0.5 19.5t-1.5 19.5q-12 89 -71.5 163t-157.5 74q-13 0 -25.5 -1.5 t-24.5 -4.5v-540q12 -3 24.5 -4.5t25.5 -1.5q97 0 157 74t71 163q2 10 2.5 19.5t0.5 19.5v0z" />
<glyph unicode="1" horiz-adv-x="452" d="M432 0h-392v76h62v471l-55 -20l-26 71l333 122v-644h78v-76v0z" />
<glyph unicode="2" horiz-adv-x="671" d="M634 149q1 -78 -53.5 -112t-119.5 -38q-8 0 -15 -0.5t-14 -0.5h-204h-204q43 63 86 127l86 128q43 63 86 127l86 128q11 17 12 18.5t0 -0.5l-1.5 -1.5t1.5 1.5q18 27 29 46t11 34q0 6 -2 12t-7 12h-1.5t-1.5 1h-2h-2q-16 4 -33.5 6t-34.5 2q-32 0 -63.5 -6.5t-58.5 -19.5 q-1 -1 -2.5 -1.5t-2.5 -1.5q-29 -14 -53 -40t-24 -58q0 -8 2 -16.5t6 -17.5q8 -16 21.5 -25t29.5 -8q6 0 12 1t11 4q1 0 1.5 0.5t1.5 0.5q7 4 13.5 10.5t6.5 14.5v4.5t-2 4.5l69 32q5 -10 7.5 -20.5t2.5 -21.5q0 -31 -19 -55.5t-49 -38.5q-7 -3 -14 -5t-13 -4l-14 -2t-14 -1 q-37 0 -70 20.5t-50 55.5q-8 17 -12 34t-4 33q0 55 37.5 100.5t89.5 69.5q33 16 73.5 24.5t82.5 7.5h6.5h7.5q74 -3 141.5 -35t97.5 -100q9 -20 13 -37t4 -33q0 -9 -1.5 -18t-4.5 -18q-7 -24 -23 -49.5t-38 -57.5q-37 -54 -72.5 -109t-70.5 -110q-12 -19 -23.5 -37.5 t-23.5 -36.5h40.5h40.5q10 0 20.5 0.5t21.5 2.5q32 4 58.5 19.5t25.5 52.5q0 21 -9.5 35t-32.5 14v76q55 0 86.5 -35.5t31.5 -88.5v0z" />
<glyph unicode="3" horiz-adv-x="616" d="M588 212q0 -58 -22 -98t-57 -66q-26 -19 -56 -30.5t-61 -17.5q-23 -4 -45 -6t-43 -2q-56 0 -105 15t-87 41q-39 29 -61.5 68t-22.5 85q0 62 37.5 105t101.5 43q46 0 79 -35.5t33 -81.5q0 -34 -16 -60t-45 -45l-40 65q13 8 19 16.5t6 23.5v3.5t-1 3.5q-2 13 -12 23.5 t-23 10.5q-33 0 -48 -20.5t-15 -51.5q0 -27 14 -50.5t39 -40.5q27 -20 65 -31.5t82 -11.5h7.5t7.5 1v275h-23.5h-22.5v76h22.5h23.5v220q-12 0 -26.5 -1.5t-29.5 -3.5q-36 -7 -66 -25t-30 -55q0 -15 8.5 -25t24.5 -10q11 0 20 8t10 18l75 -7q-4 -44 -36.5 -69t-70.5 -25 q-21 0 -40.5 8.5t-36.5 24.5q-13 14 -21.5 33t-8.5 44q0 75 54.5 111t119.5 45q16 3 32 4t31 1q86 0 157.5 -44.5t71.5 -142.5q0 -41 -23 -78.5t-58 -63.5q12 -7 23.5 -15t21.5 -17q29 -26 48 -62t19 -80v0z" />
<glyph unicode="4" horiz-adv-x="730" d="M697 189h-125v-113h78v-76h-391v76h61v113h-287l435 514h104v-438h125v-76v0zM320 265v147l-124 -147h124v0z" />
<glyph unicode="5" horiz-adv-x="623" d="M595 271q0 -123 -95 -196t-209 -75h-3.5h-2.5q-18 0 -37 2.5t-39 8.5q-68 18 -124.5 66.5t-56.5 120.5q0 33 10.5 61t27.5 48q18 20 43 33t51 15h4h4q20 0 38 -7t34 -23q14 -13 21 -29.5t8 -33.5q1 -3 1 -5.5v-5.5q0 -39 -28 -71t-75 -32v76q14 0 21 9t7 19q-1 11 -7 19 t-20 8q-28 0 -43.5 -20.5t-19.5 -45.5q0 -3 -0.5 -7t-0.5 -8q0 -22 14.5 -42.5t36.5 -37.5q29 -21 63.5 -31t71.5 -10q15 0 30 2t29 5v372h-3h-3h-3.5h-3.5h-50h-50h-50h-50l55 248h320v-76h-259l-21 -96h52.5h52.5q108 0 183.5 -77t75.5 -184v0z" />
<glyph unicode="6" horiz-adv-x="659" d="M593 565q0 -52 -37 -86t-83 -34h-6.5t-6.5 1q-16 2 -32 9t-30 20t-25 31.5t-16 44.5l75 15q4 -19 15.5 -32.5t27.5 -13.5q4 0 8 1t8 3q3 2 7 5t8 7q5 5 8 12t3 17q0 33 -27 48t-59 21q-19 3 -36.5 4t-29.5 1q-22 0 -42.5 -4t-39.5 -11v-216q9 4 19 7.5t21 5.5 q13 3 26 5.5t26 3.5q6 0 13 0.5t13 0.5q37 -1 73 -10.5t67 -29.5q45 -29 67 -72t22 -90q-1 -47 -22.5 -91.5t-63.5 -76.5q-39 -29 -92 -45t-117 -16q-147 0 -226 111.5t-79 245.5q0 137 96 247t239 111q15 0 31.5 -1t33.5 -4q61 -8 112 -40.5t51 -104.5v0zM553 231 q0 61 -45 90.5t-99 32.5h-6.5h-6.5q-14 0 -28 -1.5t-27 -4.5q-18 -4 -32 -11.5t-26 -16.5v-238q12 -3 25.5 -4.5t26.5 -1.5q12 0 24.5 1t24.5 2q64 9 116.5 44t52.5 108v0z" />
<glyph unicode="7" horiz-adv-x="649" d="M619 704l-219 -628h63v-76h-392v76h73l194 552h-181l-60 -115l-68 34l82 157h508v0z" />
<glyph unicode="8" horiz-adv-x="661" d="M631 191q0 -77 -61.5 -118.5t-135.5 -57.5q-35 -8 -68.5 -11.5t-60.5 -3.5q-61 0 -107.5 13.5t-80.5 35.5t-54.5 50.5t-28.5 57.5q-2 9 -3 17.5t-1 17.5q0 61 32.5 105t81.5 69q-3 3 -6.5 5.5t-7.5 5.5q-4 2 -7.5 4.5t-6.5 5.5q-34 27 -52 63t-18 73q1 41 21.5 78.5 t63.5 63.5q38 24 89.5 36t105.5 12q50 0 96.5 -10.5t81.5 -32.5q41 -25 59.5 -57t18.5 -67q0 -37 -20.5 -73t-58.5 -64q-3 -3 -6.5 -5.5t-7.5 -4.5q7 -5 13.5 -10.5t12.5 -10.5q7 -6 13.5 -11.5t12.5 -10.5q9 -8 17.5 -15t15.5 -13q27 -25 42 -54.5t15 -82.5v0zM454 98 q-6 20 -18 35t-30 28l-48 38l-48 38q-25 18 -49 37l-48 38q-43 -13 -75 -42.5t-32 -77.5q0 -6 1 -12.5t4 -12.5q5 -14 17 -28.5t30 -26.5q30 -19 70.5 -28t83.5 -9h13.5t13.5 1q30 2 59.5 7.5t55.5 14.5v0zM465 605q-27 17 -64 24.5t-76 7.5h-11t-11 -1q-11 0 -22 -1.5 t-22 -3.5q5 -25 18.5 -45t34.5 -38l58 -48t57 -48q8 3 16.5 7.5t15.5 10.5q22 16 34.5 35.5t12.5 39.5q0 16 -9.5 31.5t-31.5 28.5v0z" />
<glyph unicode="9" horiz-adv-x="659" d="M629 358q0 -138 -95.5 -248t-238.5 -110q-15 0 -31.5 1t-32.5 3q-62 9 -113.5 41.5t-51.5 104.5q0 53 37 86.5t83 32.5q20 0 39.5 -7t36.5 -22q14 -13 24.5 -31.5t15.5 -44.5l-74 -15q-4 20 -16.5 33t-28.5 12q-7 0 -14.5 -3.5t-15.5 -11.5q-4 -5 -7.5 -12t-3.5 -17 q0 -33 27.5 -48.5t59.5 -20.5q19 -3 36 -4t30 -1q22 0 42.5 4t39.5 11v216q-10 -4 -20 -7.5t-21 -6.5q-9 -2 -18.5 -4t-19.5 -3t-19.5 -1.5t-18.5 -0.5q-37 0 -73.5 9.5t-68.5 30.5q-44 29 -66 72.5t-22 90.5v4v4q2 45 23.5 87t61.5 72q39 29 92 45t117 16q147 0 226 -111.5 t79 -245.5v0zM377 395v238q-13 3 -26 4.5t-27 1.5q-12 0 -24.5 -1t-24.5 -2q-64 -9 -116.5 -44t-52.5 -108q0 -61 45 -90.5t99 -32.5h6.5h6.5q14 0 28 1.5t27 4.5q18 5 32 11.5t27 16.5v0z" />
<glyph unicode=":" horiz-adv-x="308" d="M293 102q0 -44 -33.5 -70.5t-73.5 -33.5q-9 -1 -17 -2t-16 -1t-16.5 1t-17.5 3q-39 7 -72 33t-33 70t33 70t72 34q9 2 17.5 3t16.5 1t16 -1t17 -2q40 -8 73.5 -34t33.5 -71v0zM293 362q0 -44 -33.5 -70.5t-73.5 -34.5q-9 -1 -17 -2t-16 -1t-16.5 1t-17.5 3q-39 8 -72 34 t-33 70t33 70t72 34q9 2 17.5 3t16.5 1t16 -1t17 -2q40 -8 73.5 -34t33.5 -71v0z" />
<glyph unicode=";" horiz-adv-x="308" d="M290 13q-6 -34 -21.5 -62.5t-37.5 -48.5q-21 -19 -46 -28t-51 -7v75q1 1 2 1t2 -1h2h2q12 0 22.5 5t20.5 13q10 9 18.5 22t12.5 28q-9 -4 -19.5 -7t-20.5 -5q-7 -1 -13.5 -1.5t-13.5 -0.5t-15 1l-16 2q-37 7 -68.5 33t-31.5 71q0 44 31.5 70.5t68.5 34.5l16 2t15 1 q70 0 107.5 -47.5t36.5 -112.5q0 -9 -0.5 -18.5t-2.5 -19.5v0zM293 362q0 -44 -33.5 -70.5t-73.5 -34.5q-9 -1 -17 -2t-16 -1t-16.5 1t-17.5 3q-39 8 -72 34t-33 70t33 70t72 34q9 2 17.5 3t16.5 1t16 -1t17 -2q40 -8 73.5 -34t33.5 -71v0z" />
<glyph unicode="&#x3c;" />
<glyph unicode="=" />
<glyph unicode="&#x3e;" />
<glyph unicode="?" horiz-adv-x="550" d="M389 103q0 -25 -12 -45.5t-34 -35.5q-18 -13 -42 -19.5t-51 -6.5t-51 6.5t-42 19.5q-22 15 -34.5 35.5t-12.5 45.5q0 24 12.5 45t34.5 35q18 13 42 20.5t51 7.5t51 -7.5t42 -20.5q22 -14 34 -35t12 -45v0zM525 484q0 -103 -76.5 -160t-170.5 -65v-35h-76v109h28t27 1v301 q-34 2 -67 -4.5t-57 -23.5q-15 -10 -23.5 -23t-8.5 -28q0 -16 12 -24.5t27 -11.5q6 -2 11.5 -2.5t10.5 -0.5v-75h-2.5h-3.5q-49 2 -89.5 30.5t-41.5 82.5q-1 64 46.5 100.5t104.5 48.5q16 4 31.5 5.5t30.5 1.5h9.5h9.5q101 -5 184.5 -58.5t83.5 -168.5v0z" />
<glyph unicode="@" />
<glyph unicode="A" horiz-adv-x="857" d="M840 0h-378v76h69l-56 117q-19 -3 -35.5 -4.5t-31.5 -1.5q-18 0 -33.5 2t-29.5 5q-19 4 -35.5 10.5t-31.5 13.5l-69 -142h51v-76h-224v76h88l87 178q-9 4 -19 8t-21 7q-8 2 -16.5 3.5t-16.5 1.5q-15 0 -27.5 -6t-20.5 -20q-1 -2 -1.5 -4.5t-0.5 -6.5v-4t1 -5q1 -4 2.5 -8 t2.5 -7l-64 -41q-8 12 -12.5 26t-6.5 29v5.5v4.5q0 13 3 25.5t9 22.5q18 32 46 47.5t64 16.5q26 1 53.5 -6t57.5 -21l205 433l342 -679h49v-76v0zM440 265l-70 143l-59 -122q12 -6 24.5 -10.5t25.5 -7.5q11 -2 22.5 -3.5t24.5 -1.5q8 0 16 0.5t16 1.5v0z" />
<glyph unicode="B" horiz-adv-x="730" d="M710 189q-1 -76 -54 -134t-132 -58q-64 0 -112 33.5t-48 102.5q0 42 29 74t72 32q38 0 67.5 -24t29.5 -65h-76q0 5 -4 8t-10 4q-2 1 -3.5 1h-3.5q-10 0 -16.5 -8t-8.5 -17v-2.5v-2.5q0 -36 26.5 -48.5t57.5 -12.5q47 0 78 36t32 81q1 89 -63 131.5t-144 42.5h-42t-42 -1 v76q29 0 51.5 7.5t38.5 20.5q16 14 23.5 31t7.5 35q0 19 -8.5 36.5t-24.5 30.5q-18 14 -43 21.5t-54 7.5h-6v-552h31v-76h-357v76h74v552h-74v76h83.5h82.5h82.5h83.5h6.5h7.5q71 -4 131 -47.5t60 -123.5q0 -29 -9 -55t-26 -47q90 -19 148.5 -82.5t57.5 -159.5v0z" />
<glyph unicode="C" horiz-adv-x="681" d="M676 171q-52 -85 -138 -128.5t-179 -43.5h-6h-6q-65 1 -128 26.5t-113 74.5q-52 52 -78.5 118.5t-26.5 136.5q0 71 27 137.5t80 118.5q50 48 116.5 76t143.5 28q9 0 18 -0.5t18 -1.5q88 -9 161 -62.5t72 -152.5q-1 -69 -49.5 -119.5t-118.5 -50.5q-55 0 -97 32.5 t-42 90.5q0 37 29.5 63.5t64.5 27.5h1.5h1.5v-76q-2 0 -4.5 -0.5t-4.5 -2.5q-5 -2 -8.5 -5t-3.5 -7q0 -25 19 -35.5t41 -11.5h1.5h1.5q39 0 65 28.5t27 65.5q1 62 -44 94.5t-99 42.5q-13 2 -25.5 3t-24.5 1q-22 0 -42.5 -3t-40.5 -8v-545q19 -4 39 -6.5t40 -2.5q74 0 141 36 t106 100l65 -39v0z" />
<glyph unicode="D" horiz-adv-x="712" d="M698 309q0 -82 -23.5 -141t-69.5 -97q-44 -37 -108 -54t-147 -17h-343v76h47v552h-47v76h292h5.5h5.5q73 -3 143 -35.5t125 -86.5q54 -52 87 -122.5t33 -150.5v0zM622 309q0 64 -26.5 120t-70.5 99q-41 41 -92.5 67t-104.5 31q-5 1 -10.5 1.5t-11.5 0.5v-552h44 q70 0 121.5 12.5t85.5 40.5q32 27 48.5 71.5t16.5 108.5v0z" />
<glyph unicode="E" horiz-adv-x="712" d="M707 188q0 -6 -0.5 -12.5t-1.5 -13.5q-5 -30 -21 -58.5t-43 -51.5t-64 -37.5t-83 -14.5h-484v76h15.5h15.5h15.5h15.5v552h-63v76h483l90 -152l-65 -39l-68 115h-125v-176h48v57h76v-189h-76v56h-48v-300h42.5h42.5h42.5h42.5q32 0 56 9t42 24q14 12 23 26.5t13 29.5 q1 6 2 11.5t1 11.5q0 5 -0.5 11t-1.5 11q-5 27 -22 49t-47 22q-4 0 -8 -0.5t-8 -1.5q-11 -2 -20.5 -8.5t-9.5 -19.5q0 -7 4.5 -11t11.5 -4v-76q-43 0 -67 28.5t-24 64.5v5.5t1 4.5q2 18 11 35t25 31q15 13 36 20t47 8q71 1 109 -51.5t39 -117.5v0z" />
<glyph unicode="F" horiz-adv-x="582" d="M573 552l-66 -39l-68 115h-125v-176h49v57h75v-189h-75v56h-49v-300h79v-76h-392v76h62v552h-63v76h483l90 -152v0z" />
<glyph unicode="G" horiz-adv-x="727" d="M714 201h-40v-94q-32 -28 -67 -49.5t-77 -35.5q-28 -9 -56.5 -15t-57.5 -7q-9 -1 -18.5 -1.5t-19.5 -0.5q-73 0 -143 24.5t-124 77.5q-52 52 -78.5 118.5t-26.5 136.5q0 71 27 137.5t80 118.5q50 48 116.5 76t143.5 28q9 0 17.5 -0.5t16.5 -1.5q89 -8 163 -61.5 t73 -153.5q-1 -69 -49.5 -119.5t-119.5 -50.5q-55 0 -96.5 32.5t-41.5 90.5q0 37 29.5 63.5t64.5 27.5h1.5h1.5v-76q-2 0 -4.5 -0.5t-4.5 -2.5q-5 -2 -8.5 -5t-3.5 -7q0 -25 17.5 -35.5t39.5 -11.5h2.5h2.5q39 0 65.5 28.5t27.5 65.5q1 62 -44 94.5t-99 41.5q-13 3 -26 4 t-25 1q-19 0 -38.5 -2.5t-38.5 -7.5v-547q18 -4 36.5 -6t37.5 -2q10 0 20 0.5t20 1.5q9 0 19 1.5t20 2.5v121h-98v76h363v-76v0z" />
<glyph unicode="H" horiz-adv-x="850" d="M831 0h-392v76h62v300h-186v-300h78v-76h-392v76h62v552h-62v76h392v-76h-78v-176h186v176h-62v76h392v-76h-78v-552h78v-76v0z" />
<glyph unicode="I" horiz-adv-x="413" d="M393 0h-391v76h69v552h-69v76h391v-76h-70v-552h70v-76v0z" />
<glyph unicode="J" horiz-adv-x="635" d="M612 628h-84v-92t1 -95v-95.5v-92.5q0 -60 -13.5 -107.5t-47.5 -82.5q-33 -34 -87 -51.5t-135 -16.5q-54 0 -97 13t-73 36q-37 26 -55.5 63t-18.5 77q0 70 38 118.5t112 48.5q44 0 80 -30t36 -77q0 -41 -26 -69.5t-69 -28.5v76q11 0 15 6t4 14q0 6 -2.5 12t-7.5 10 q-6 6 -14.5 8.5t-17.5 2.5h-2.5h-2.5q-14 -1 -26.5 -7t-20.5 -14q-10 -11 -15.5 -28.5t-5.5 -41.5q0 -48 36 -73.5t79 -34.5q14 -3 27.5 -4.5t26.5 -1.5h19h17v558h-74v76h404v-76v0z" />
<glyph unicode="K" horiz-adv-x="778" d="M766 65q-19 -31 -52.5 -49t-70.5 -18h-7.5t-7.5 1q-60 7 -97 53t-54 100q-19 57 -57.5 103t-97.5 62l-4 -6v-235h79v-76h-392v76h62v552h-62v76h392v-76h-79v-166q11 19 22.5 37.5t21.5 36.5q30 53 68 90t78 56q23 11 45.5 16.5t44.5 5.5t43 -5.5t40 -17.5q27 -16 40 -43 t12 -56v-1.5v-1.5q-1 -44 -28.5 -81.5t-76.5 -41.5h-9.5h-9.5q-18 2 -36.5 10t-35.5 21l47 59q5 -4 9.5 -6.5t9.5 -4.5t10 -2.5t9 -0.5q16 1 25 14.5t11 29.5v3.5v2.5q-1 11 -5 20t-12 14q-10 7 -21.5 10t-23.5 3q-8 0 -17.5 -2t-18.5 -5q-4 -2 -8.5 -4t-9.5 -4 q-31 -15 -60.5 -44.5t-53.5 -71.5l-67 -114q70 -24 117.5 -81t70.5 -128q11 -35 26.5 -57t32.5 -33q9 -6 18.5 -9t19.5 -3q17 1 31.5 8.5t24.5 23.5l64 -40v0z" />
<glyph unicode="L" horiz-adv-x="718" d="M654 304q21 -25 30.5 -54t9.5 -59q0 -40 -16.5 -77.5t-48.5 -64.5q-27 -23 -64 -37t-83 -14h-120.5h-121.5h-121.5h-119.5l-1 75h14h14h13h14v552h-55v76h366v-76h-64v-552h45.5h45.5h45.5h45.5q7 0 14 0.5t14 2.5q41 7 75 35.5t33 73.5q0 5 -0.5 11t-1.5 11 q-5 27 -21.5 49t-47.5 22q-3 0 -7 -0.5t-8 -0.5q-11 -3 -20.5 -9.5t-9.5 -19.5q0 -7 4.5 -11t11.5 -4v-76q-43 0 -67.5 28.5t-23.5 64.5v5.5t1 4.5q2 18 11 35t25 31q17 14 38 21t43 7q31 0 60 -13t49 -37v0z" />
<glyph unicode="M" horiz-adv-x="949" d="M921 0h-392v76h67v377l-106 -257h-70l-105 253v-373h78v-76h-391v76h61v552h-61v76h290l163 -394l162 394h290v-76h-59v-552h73v-76v0z" />
<glyph unicode="N" horiz-adv-x="853" d="M833 630h-71v-630h-117l-330 444v-368h78v-76h-391v76h61v552h-61v76h214l314 -422v348h-71v75h374v-75v0z" />
<glyph unicode="O" horiz-adv-x="708" d="M703 352q0 -145 -103 -248.5t-249 -103.5q-145 0 -248 103.5t-103 248.5q0 146 103 249t248 103q146 0 249 -103t103 -249v0zM627 352q0 113 -80.5 194.5t-195.5 81.5q-16 0 -32.5 -2t-32.5 -6v-536q16 -4 32.5 -6t32.5 -2q114 0 195 81t81 195v0z" />
<glyph unicode="P" horiz-adv-x="695" d="M703 418q0 -6 -0.5 -11.5t-0.5 -11.5q-9 -83 -74 -151.5t-150 -67.5q-49 1 -86 28t-37 81q0 42 33.5 71.5t72.5 31.5h3.5h2.5q18 0 34.5 -5.5t32.5 -16.5l-42 -63q-4 2 -7.5 4t-6.5 3t-6 1.5t-6 0.5q-13 0 -24.5 -9.5t-11.5 -21.5q0 -5 2.5 -9.5t7.5 -9.5q6 -4 15.5 -7 t23.5 -3q50 -1 90.5 40t53.5 90q2 9 3 18t1 18q0 50 -17 88t-45 64q-33 31 -77.5 45.5t-91.5 14.5h-18.5h-46.5v-554h91v-76h-420v76h77v554h-76v76h393h9.5t9.5 -1q56 -2 108.5 -22t93.5 -58q38 -36 61.5 -87.5t24.5 -119.5v0z" />
<glyph unicode="Q" horiz-adv-x="741" d="M727 -3q-34 -37 -79.5 -58t-96.5 -20q-40 1 -74 13t-59 32q-10 7 -18 16t-15 19h-4.5h-4.5h-5.5h-4.5q-148 0 -253.5 105t-105.5 253q0 149 105.5 254t253.5 105t253.5 -105t105.5 -254q0 -119 -70 -213t-179 -129q15 -9 34 -13.5t42 -5.5q35 0 65 13.5t53 39.5l57 -52v0 zM648 357q0 116 -82.5 199t-199.5 83q-17 0 -33.5 -2t-32.5 -6v-548q14 -3 29 -5t30 -3v4v3q0 35 9 62t25 46q18 22 43.5 33t52.5 11q26 0 49.5 -10.5t39.5 -31.5q1 -1 2 -2.5t2 -2.5t2 -2.5t2 -2.5q29 36 45.5 81t16.5 94v0zM530 128q-1 2 -3 4t-3 4q-2 2 -3.5 4t-3.5 4 q-4 6 -10 9t-13 3q-34 0 -45.5 -21.5t-12.5 -50.5q26 7 49.5 18t44.5 26v0z" />
<glyph unicode="R" horiz-adv-x="819" d="M811 69q-19 -31 -51.5 -49t-69.5 -18h-4h-4q-3 0 -5 0.5t-4 0.5q-58 7 -95 52t-55 98l-0.5 1t-0.5 2q-2 6 -4 11.5t-4 11.5q-21 52 -62 96.5t-98 53.5v76h16.5h17.5h16.5h16.5h2.5h3.5q36 3 67 34.5t31 69.5q-1 67 -50.5 94t-108.5 27h-13.5h-23.5v-554h91v-76h-419v76 h76v554h-52v76h54.5h117.5h106.5h62.5q92 0 163 -48.5t72 -148.5q0 -55 -32 -98t-81 -66q38 -32 64.5 -75t41.5 -90q11 -36 27 -58t33 -33q5 -3 9.5 -5t9.5 -3q4 -2 9 -2.5t9 -0.5q17 0 31.5 8t24.5 24l64 -41v0z" />
<glyph unicode="S" horiz-adv-x="584" d="M571 213q0 -43 -24 -82t-64 -69q-41 -31 -93 -45.5t-106 -14.5h-6.5h-6.5q-47 2 -92.5 15.5t-83.5 37.5q-32 21 -53 46.5t-32 52.5q-5 14 -7.5 28t-2.5 27q0 56 33.5 93t91.5 36q43 0 72.5 -27.5t29.5 -71.5v-1.5v-1.5q-1 -29 -24 -53.5t-54 -24.5q-19 0 -34.5 9.5 t-26.5 24.5l61 45q1 -1 1.5 0t0.5 3v3.5t-1 3.5t-2 4.5t-3 4.5q-3 3 -8 4.5t-13 1.5q-25 1 -36.5 -14t-12.5 -39q0 -9 2.5 -18t7.5 -19q7 -14 20 -27.5t31 -25.5q28 -18 63 -28t72 -12q4 -1 9 -1h10q23 0 46 3.5t43 10.5q2 2 3.5 4.5t1.5 5.5q1 1 1 2.5v2.5q0 5 -1.5 10 t-3.5 10q-3 6 -7.5 12.5t-8.5 12.5q-5 6 -9.5 11t-7.5 8q-31 31 -62 61.5t-61 61.5q-31 31 -62 61.5t-62 60.5q-22 23 -33.5 51t-11.5 59q0 87 71 130t156 49q7 1 14 1h14q40 0 77 -7.5t65 -21.5q36 -18 55 -44t19 -57q0 -47 -30.5 -69t-74.5 -21v76h1.5h0.5q12 -1 19.5 0.5 t7.5 13.5q0 3 -1 5.5t-3 5.5q-3 6 -10 11.5t-17 10.5q-18 9 -40.5 14t-46.5 7q-6 1 -12.5 1h-12.5q-15 0 -29 -1.5t-27 -3.5q-1 -1 -1 -2.5v-3.5q0 -3 1 -7t3 -8q1 -3 2.5 -6l2.5 -5l4 -6t3 -4l130.5 -130.5l130.5 -130.5q22 -22 33 -50.5t11 -59.5v0z" />
<glyph unicode="T" horiz-adv-x="831" d="M813 675q-18 -30 -49 -44t-65 -19q-10 -1 -20.5 -2t-20.5 -1q-24 -1 -46.5 0t-44.5 3v-536h78v-76h-408v76h78v566h-14.5h-15.5h-16t-16 -1q-67 -5 -122 -38.5t-54 -110.5q0 -38 18.5 -63t58.5 -24q17 0 30 7.5t13 26.5q0 1 -0.5 3t-1.5 4q-2 4 -4.5 7t-5.5 3v76 q37 0 62.5 -29t25.5 -64q0 -51 -35 -80.5t-83 -29.5q-72 -1 -112.5 46t-41.5 116q-1 54 20 96.5t59 72.5q44 34 97.5 46.5t108.5 12.5q7 0 14.5 -0.5t14.5 -0.5q36 -2 72 -6.5t70 -9.5q4 -1 7.5 -1.5t6.5 -0.5q43 -6 88 -11t97 -4q8 0 19 1t22 3q16 3 30 8.5t21 16.5l65 -39 v0z" />
<glyph unicode="U" horiz-adv-x="747" d="M730 -11q-53 1 -94 31.5t-58 78.5q-40 -49 -99.5 -78t-127.5 -29q-61 0 -114 23t-94 63q-40 40 -63 93.5t-23 114.5v344h-57v76h365v-76h-60v-558q11 -2 22.5 -3.5t23.5 -1.5q91 0 155 64t64 155v9v335h-68v76h203v-76h-59v-344v-137q0 -34 25 -59t59 -25v-76v0z" />
<glyph unicode="V" horiz-adv-x="788" d="M705 689q32 -23 49.5 -60t17.5 -83q0 -44 -18 -95t-59 -106l-261 -350q-44 75 -88.5 151.5t-88.5 153.5q-1 3 -3 6.5t-4 6.5q-46 80 -92 159.5t-92 157.5h-64v76h392v-76h-59l200 -373q12 17 24.5 33.5t25.5 33.5q12 17 24.5 33.5t25.5 33.5q32 44 46.5 83.5t14.5 71.5 q0 27 -10 48t-27 34q-8 6 -16.5 8.5t-17.5 2.5q-19 0 -34 -11.5t-15 -28.5q0 -3 0.5 -5.5t1.5 -5.5q3 -8 11 -15.5t21 -14.5l-36 -67q-33 17 -53.5 46.5t-19.5 63.5q0 6 1 12t2 13l4 12t5 12q18 32 48.5 48.5t64.5 16.5q21 0 41.5 -6.5t37.5 -19.5v0z" />
<glyph unicode="W" horiz-adv-x="1052" d="M981 360q-58 -88 -116.5 -177t-117.5 -178l-191 374l-180 -382l-309 633h-65v76h391v-76h-59l124 -281l167 354l215 -419q10 15 19.5 29.5t19.5 29.5q9 15 18.5 29.5t19.5 29.5q4 6 8.5 13t9.5 15q10 19 20 41t16 45q3 10 4.5 21t1.5 21q0 23 -9 42.5t-31 32.5 q-6 4 -12.5 5.5t-13.5 1.5q-19 0 -34.5 -11.5t-15.5 -28.5q0 -3 1 -7t2 -7q4 -7 11 -14t19 -14l-36 -67q-33 17 -53.5 46.5t-19.5 63.5q0 6 1 12t2 13l4 12t5 12q17 32 49 49t66 16q17 0 33.5 -4.5t31.5 -13.5q42 -26 59 -61.5t17 -75.5q0 -12 -1.5 -25t-4.5 -25 q-8 -41 -26.5 -79.5t-39.5 -70.5v0z" />
<glyph unicode="X" horiz-adv-x="857" d="M810 497q-17 -25 -41.5 -37t-51.5 -12q-6 0 -13 0.5t-13 2.5q-14 3 -27 9t-25 14q-14 10 -23.5 25t-13.5 31l73 19q3 -12 14.5 -18t24.5 -6h2.5h2.5q9 1 16.5 4.5t12.5 10.5q4 6 6.5 13.5t3.5 15.5v4v4q0 13 -5 24t-16 17q-10 5 -20 7.5t-21 1.5q-8 0 -16 -1.5t-16 -3.5 t-16 -5.5t-16 -8.5q-31 -19 -59.5 -52t-50.5 -80q-3 -7 -6.5 -14l-6.5 -13q-4 -7 -7.5 -14t-6.5 -14l245 -346h66v-76h-391v76h56l-96 136l-6 -12t-5 -12q-25 -55 -58.5 -95.5t-71.5 -64.5q-15 -9 -30.5 -16t-31.5 -11q-10 -1 -20.5 -2.5t-20.5 -1.5q-18 0 -35 4t-34 11 q-31 16 -46.5 45.5t-15.5 62.5q0 17 3.5 33.5t11.5 31.5q16 29 42 43t55 14q19 0 37.5 -5.5t35.5 -16.5l-41 -64q-8 5 -16 8t-16 3h-2h-2q-1 -1 -1.5 -1h-1.5q-14 -2 -22 -15.5t-9 -29.5v-1.5v-1.5q0 -12 5 -22.5t15 -15.5q9 -4 18 -6t19 -2q16 0 31.5 5t30.5 15 q29 19 55.5 51t46.5 76q3 8 6.5 16t7.5 17q4 8 7.5 16t7.5 16l-243 344h-70v76h372v-76h-34l96 -135q2 4 4.5 8.5t3.5 8.5q27 56 63.5 97.5t76.5 66.5q26 15 52 23t52 8q19 0 37.5 -4.5t36.5 -13.5q32 -16 47.5 -46.5t15.5 -63.5q0 -21 -6 -41.5t-18 -37.5v0z" />
<glyph unicode="Y" horiz-adv-x="858" d="M842 591l-75 -7q0 2 -0.5 3.5t-0.5 2.5q-4 12 -14.5 22.5t-22.5 13.5q-3 1 -6 1h-6t-6 -0.5t-7 -0.5q-14 -4 -28.5 -13.5t-25.5 -19.5l-6 -6l-6 -6q-25 -28 -43.5 -67t-28.5 -80q-4 -18 -6.5 -36t-2.5 -35v-72v-71v-24v-24v-48v-48h95v-76h-425v76h79v80.5v80.5v80.5 v80.5v22.5t-1 23.5q-3 73 -22.5 133.5t-75.5 59.5q-47 -1 -86.5 -31.5t-38.5 -82.5q0 -29 17.5 -52.5t48.5 -23.5h3.5h3.5q16 1 29 9t13 26q0 1 -0.5 1.5l-1.5 1.5t-2 1.5l-3 1.5t-3.5 1.5t-2.5 0.5v76q33 0 60.5 -24.5t27.5 -59.5q0 -52 -37 -81.5t-87 -29.5 q-64 0 -102.5 45t-39.5 106q-1 95 70 143.5t156 49.5h1.5h1.5q95 0 170 -49t115 -132q4 9 8.5 18.5t10.5 19.5q29 49 75 90.5t103 41.5q8 0 15.5 -1t14.5 -3q37 -8 64 -39.5t31 -69.5v0z" />
<glyph unicode="Z" horiz-adv-x="781" d="M763 203q2 -112 -67 -158.5t-171 -46.5h-129h-133h-133h-129l422 627h-43h-46h-47h-43q-46 0 -78 -6t-52 -20q-16 -11 -24 -31t-9 -42v-2.5v-2.5q0 -18 5.5 -34t16.5 -27q8 -7 20 -12.5t25 -6.5h2.5h3.5q11 0 20.5 4t16.5 13q5 6 7.5 14t2.5 16q0 9 -3 17t-10 13l49 58 q17 -14 27 -33t11 -42q5 -64 -34.5 -100t-91.5 -36h-7.5t-7.5 1q-22 2 -43 12t-40 27q-23 23 -34.5 54t-11.5 64v3.5v2.5q1 39 17.5 74t46.5 57q31 22 74 31.5t101 9.5h124h128h133.5h129.5l-421 -628h45h49h48h45q45 0 77 8.5t51 24.5q16 13 25 34t10 44v2.5v3.5 q0 31 -16.5 55.5t-51.5 24.5h-6t-6 -1q-20 -3 -29.5 -16t-9.5 -31v-3v-3q0 -2 0.5 -3.5t0.5 -3.5l-75 -12q-1 8 -1.5 14.5t-0.5 12.5q0 60 39 90t88 30h2.5h3.5q51 -2 93.5 -37t43.5 -104v0z" />
<glyph unicode="[" />
<glyph unicode="\" />
<glyph unicode="]" />
<glyph unicode="^" />
<glyph unicode="_" />
<glyph unicode="`" horiz-adv-x="317" d="M287 699l-28 -52l-217 102l95 40l150 -90v0z" />
<glyph unicode="a" horiz-adv-x="1104" d="M1087 0h-437v76h83v40q-13 21 -30 43t-36 45q-9 11 -19 22l-20 22q-15 17 -30.5 32.5t-32.5 28.5q-12 -19 -24 -38.5t-24 -39.5q-10 -16 -20.5 -33.5t-21.5 -34.5q-48 -77 -110.5 -144t-156.5 -85q-10 -2 -19.5 -3t-19.5 -1q-59 0 -108.5 34t-60.5 96l74 14q7 -35 35 -52 t60 -16h6h7q3 0 6 0.5t6 1.5q69 13 119 65.5t88 112.5q14 22 26.5 43.5t24.5 41.5q13 20 26.5 41.5t26.5 43.5l-6 4t-5 3l-6 4t-6 3q-52 29 -95 41t-78 12q-46 0 -75.5 -16t-43.5 -35q-1 -1 -1.5 -2.5t-1.5 -2.5q-3 -6 -5.5 -12t-4.5 -12q-1 -7 -2 -13t-1 -12 q0 -25 14.5 -45t42.5 -28l-21 -73q-34 11 -61.5 33t-40.5 57q-4 13 -6.5 26.5t-2.5 27.5q0 6 0.5 11.5t0.5 11.5q3 17 8 33.5t13 31.5q1 3 3 5.5t3 4.5q22 32 68.5 58t115.5 26q44 0 96 -14t113 -48q4 -2 8.5 -5t9.5 -6q2 -2 4.5 -3t4.5 -3q42 62 91.5 121t109.5 107 q51 41 112 52t125 11h24.5t25.5 -1h22h22v-76h-47.5h-46.5v-557h102v-76v0zM733 243v289q-35 -36 -66 -76.5t-60 -82.5q20 -16 39 -34.5t38 -38.5q13 -14 25.5 -28.5t23.5 -28.5v0z" />
<glyph unicode="b" horiz-adv-x="730" d="M710 189q-1 -76 -54 -134t-132 -58q-64 0 -112 33.5t-48 102.5q0 42 29 74t72 32q38 0 67.5 -24t29.5 -65h-76q0 5 -4 8t-10 4q-2 1 -3.5 1h-3.5q-10 0 -16.5 -8t-8.5 -17v-2.5v-2.5q0 -36 26.5 -48.5t57.5 -12.5q47 0 78 36t32 81q1 89 -63 131.5t-144 42.5h-42t-42 -1 v76q29 0 51.5 7.5t38.5 20.5q16 14 23.5 31t7.5 35q0 19 -8.5 36.5t-24.5 30.5q-18 14 -43 21.5t-54 7.5h-6v-552h31v-76h-357v76h74v552h-74v76h83.5h82.5h82.5h83.5h6.5h7.5q71 -4 131 -47.5t60 -123.5q0 -29 -9 -55t-26 -47q90 -19 148.5 -82.5t57.5 -159.5v0z" />
<glyph unicode="c" horiz-adv-x="681" d="M676 171q-52 -85 -138 -128.5t-179 -43.5h-6h-6q-65 1 -128 26.5t-113 74.5q-52 52 -78.5 118.5t-26.5 136.5q0 71 27 137.5t80 118.5q50 48 116.5 76t143.5 28q9 0 18 -0.5t18 -1.5q88 -9 161 -62.5t72 -152.5q-1 -69 -49.5 -119.5t-118.5 -50.5q-55 0 -97 32.5 t-42 90.5q0 37 29.5 63.5t64.5 27.5h1.5h1.5v-76q-2 0 -4.5 -0.5t-4.5 -2.5q-5 -2 -8.5 -5t-3.5 -7q0 -25 19 -35.5t41 -11.5h1.5h1.5q39 0 65 28.5t27 65.5q1 62 -44 94.5t-99 42.5q-13 2 -25.5 3t-24.5 1q-22 0 -42.5 -3t-40.5 -8v-545q19 -4 39 -6.5t40 -2.5q74 0 141 36 t106 100l65 -39v0z" />
<glyph unicode="d" horiz-adv-x="712" d="M698 309q0 -82 -23.5 -141t-69.5 -97q-44 -37 -108 -54t-147 -17h-343v76h47v552h-47v76h292h5.5h5.5q73 -3 143 -35.5t125 -86.5q54 -52 87 -122.5t33 -150.5v0zM622 309q0 64 -26.5 120t-70.5 99q-41 41 -92.5 67t-104.5 31q-5 1 -10.5 1.5t-11.5 0.5v-552h44 q70 0 121.5 12.5t85.5 40.5q32 27 48.5 71.5t16.5 108.5v0z" />
<glyph unicode="e" horiz-adv-x="865" d="M842 243q0 -122 -83.5 -182.5t-196.5 -60.5h-559v76h15.5h15.5h15.5h15.5v552h-63v76h483l11 -19l79 -133l-65 -39l-68 115h-125v-176h48v57h76v-189h-76v56h-48v-299q61 -1 122.5 -1h122.5q80 0 142 38.5t62 128.5q0 37 -30.5 66t-67.5 30h-1.5h-1.5q-26 0 -42.5 -9 t-23.5 -22q-2 -3 -3.5 -7.5t-2.5 -8.5v-4v-4q0 -13 7 -22.5t22 -11.5q10 -1 15 6t6 16q1 2 1 3.5v2.5l76 -4q-3 -40 -28.5 -70t-66.5 -30q-1 0 -2.5 0.5t-2.5 0.5h-2.5h-2.5q-47 5 -73 37.5t-25 72.5q0 6 0.5 12t1.5 13q2 9 5.5 18t8.5 18q17 29 49.5 48.5t81.5 20.5 q69 2 123 -50.5t55 -121.5v0z" />
<glyph unicode="f" horiz-adv-x="582" d="M573 552l-66 -39l-68 115h-125v-176h49v57h75v-189h-75v56h-49v-300h79v-76h-392v76h62v552h-63v76h483l90 -152v0z" />
<glyph unicode="g" horiz-adv-x="727" d="M714 201h-40v-94q-32 -28 -67 -49.5t-77 -35.5q-28 -9 -56.5 -15t-57.5 -7q-9 -1 -18.5 -1.5t-19.5 -0.5q-73 0 -143 24.5t-124 77.5q-52 52 -78.5 118.5t-26.5 136.5q0 71 27 137.5t80 118.5q50 48 116.5 76t143.5 28q9 0 17.5 -0.5t16.5 -1.5q89 -8 163 -61.5 t73 -153.5q-1 -69 -49.5 -119.5t-119.5 -50.5q-55 0 -96.5 32.5t-41.5 90.5q0 37 29.5 63.5t64.5 27.5h1.5h1.5v-76q-2 0 -4.5 -0.5t-4.5 -2.5q-5 -2 -8.5 -5t-3.5 -7q0 -25 17.5 -35.5t39.5 -11.5h2.5h2.5q39 0 65.5 28.5t27.5 65.5q1 62 -44 94.5t-99 41.5q-13 3 -26 4 t-25 1q-19 0 -38.5 -2.5t-38.5 -7.5v-547q18 -4 36.5 -6t37.5 -2q10 0 20 0.5t20 1.5q9 0 19 1.5t20 2.5v121h-98v76h363v-76v0z" />
<glyph unicode="h" horiz-adv-x="850" d="M831 0h-392v76h62v300h-186v-300h78v-76h-392v76h62v552h-62v76h392v-76h-78v-176h186v176h-62v76h392v-76h-78v-552h78v-76v0z" />
<glyph unicode="i" horiz-adv-x="413" d="M393 0h-391v76h69v552h-69v76h391v-76h-70v-552h70v-76v0z" />
<glyph unicode="j" horiz-adv-x="635" d="M612 628h-84v-92t1 -95v-95.5v-92.5q0 -60 -13.5 -107.5t-47.5 -82.5q-33 -34 -87 -51.5t-135 -16.5q-54 0 -97 13t-73 36q-37 26 -55.5 63t-18.5 77q0 70 38 118.5t112 48.5q44 0 80 -30t36 -77q0 -41 -26 -69.5t-69 -28.5v76q11 0 15 6t4 14q0 6 -2.5 12t-7.5 10 q-6 6 -14.5 8.5t-17.5 2.5h-2.5h-2.5q-14 -1 -26.5 -7t-20.5 -14q-10 -11 -15.5 -28.5t-5.5 -41.5q0 -48 36 -73.5t79 -34.5q14 -3 27.5 -4.5t26.5 -1.5h19h17v558h-74v76h404v-76v0z" />
<glyph unicode="k" horiz-adv-x="1004" d="M980 154q-4 -79 -66.5 -129t-138.5 -49h-15.5t-15.5 2q-79 12 -137.5 63t-107.5 111l-16 20l-16 20q-14 17 -27.5 34.5t-27.5 33.5v-1q-19 21 -42.5 36t-51.5 22l-4 -6v-235h78v-76h-391v76h61v552h-61v76h391v-76h-78v-166l6 10t5 10q35 59 74.5 113.5t104.5 86.5 q23 11 45.5 16.5t44.5 5.5t42.5 -5.5t39.5 -17.5q28 -16 40.5 -43t12.5 -56v-1.5v-1.5q-1 -44 -29 -81.5t-76 -41.5h-12t-11 1q-18 2 -35.5 10t-32.5 20l47 59q5 -4 9.5 -6.5t9.5 -4.5t10 -2.5t9 -0.5q16 1 25 14.5t11 29.5v3.5v2.5q-1 11 -5 20t-12 14q-6 3 -11.5 5.5 t-11.5 4.5q-6 1 -11.5 2t-11.5 1q-38 0 -74 -27t-62 -59q-10 -12 -17.5 -23.5t-13.5 -21.5l-67 -114q42 -14 71.5 -38.5t57.5 -56.5q10 -12 19.5 -24.5t20.5 -25.5q11 -14 24 -29.5t27 -31.5q42 -48 93 -88.5t107 -39.5q24 0 48 9.5t49 31.5q15 14 22.5 33.5t7.5 40.5v4v4 q-1 16 -7 31.5t-16 26.5l-7.5 7.5t-7.5 6.5q-12 9 -23 12.5t-21 3.5h-4.5t-4.5 -1q-17 -3 -25 -13t-9 -21v-2v-2q0 -10 6 -17.5t16 -7.5q4 1 9 3t11 6l46 -59q-13 -10 -27 -16t-29 -8q-3 0 -6.5 -0.5t-7.5 -0.5q-21 0 -40 9.5t-33 28.5q-11 16 -16 31.5t-5 31.5q0 39 27 71 t68 40q4 1 7.5 1.5t7.5 0.5q3 1 6.5 1h7.5q64 0 107.5 -53t45.5 -116v-7.5v-6.5v0z" />
<glyph unicode="l" horiz-adv-x="1049" d="M987 389q26 -34 38.5 -74t12.5 -81q0 -70 -34.5 -135.5t-96.5 -103.5q-50 -32 -107 -43.5t-116 -11.5q-18 0 -35.5 1t-35.5 2q-44 4 -87.5 11.5t-85.5 15.5q-8 2 -17 3.5t-17 3.5q-68 13 -132.5 24t-113.5 11q-34 0 -58.5 -7t-34.5 -25l-66 36q23 42 69.5 57.5 t107.5 13.5v541h-56v76h366v-76h-63v-578l20 -4l20 -4q36 -8 74.5 -14.5t77.5 -10.5l34 -2t33 -1q50 0 96.5 10t86.5 35q44 27 69 73.5t26 96.5v2.5v3.5q0 29 -8.5 56.5t-26.5 51.5q-19 25 -47 41.5t-58 21.5q-7 2 -14 2.5t-14 0.5q-39 -1 -69.5 -23.5t-35.5 -74.5 q-2 -24 13.5 -41.5t35.5 -17.5q2 0 4.5 0.5t4.5 0.5q5 2 9.5 4.5t8.5 5.5l49 -59q-11 -9 -24 -15t-26 -9q-6 -2 -12.5 -2.5t-12.5 -0.5q-49 0 -87.5 36.5t-38.5 91.5v3.5t1 2.5v3.5v3.5q8 85 61 125.5t120 40.5q7 0 14 -0.5t14 -1.5q46 -5 89.5 -29t74.5 -64v0z" />
<glyph unicode="m" horiz-adv-x="949" d="M921 0h-392v76h67v377l-106 -257h-70l-105 253v-373h78v-76h-391v76h61v552h-61v76h290l163 -394l162 394h290v-76h-59v-552h73v-76v0z" />
<glyph unicode="n" horiz-adv-x="853" d="M833 630h-71v-630h-117l-330 444v-368h78v-76h-391v76h61v552h-61v76h214l314 -422v348h-71v75h374v-75v0z" />
<glyph unicode="o" horiz-adv-x="725" d="M664 526q19 -33 29.5 -67.5t13.5 -69.5q1 -9 1.5 -17.5t0.5 -17.5q0 -136 -96.5 -245t-254.5 -109q-145 0 -248.5 103.5t-103.5 248.5q0 129 82.5 226t204.5 120v-78v-435v-101q16 -4 32.5 -6t32.5 -2q123 0 199.5 84.5t75.5 192.5q0 11 -1 22l-2 22q-4 22 -11 44.5 t-19 43.5q-11 21 -30 38t-48 30q-8 4 -16.5 5.5t-17.5 1.5h-4h-4q-28 -3 -52.5 -19.5t-34.5 -40.5q-4 -9 -6 -19t-2 -21q0 -14 6 -27t20 -21q5 -2 9.5 -3.5t8.5 -1.5q13 1 21.5 8t8.5 17q0 7 -4.5 13t-14.5 11l34 67q32 -16 46.5 -39.5t14.5 -48.5q-1 -40 -31 -72t-74 -32 q-13 0 -26.5 3.5t-27.5 10.5q-36 19 -52 48.5t-16 63.5q0 5 0.5 10.5t0.5 10.5q7 44 37 84.5t74 59.5q17 7 33.5 10t32.5 3q54 0 102 -30.5t76 -78.5v0z" />
<glyph unicode="p" horiz-adv-x="720" d="M703 418q0 -6 -0.5 -11.5t-0.5 -11.5q-9 -83 -74 -151.5t-150 -67.5q-49 1 -86 28t-37 81q0 42 33.5 71.5t72.5 31.5h3.5h2.5q18 0 34.5 -5.5t32.5 -16.5l-42 -63q-4 2 -7.5 4t-6.5 3t-6 1.5t-6 0.5q-13 0 -24.5 -9.5t-11.5 -21.5q0 -5 2.5 -9.5t7.5 -9.5q6 -4 15.5 -7 t23.5 -3q50 -1 90.5 40t53.5 90q2 9 3 18t1 18q0 50 -17 88t-45 64q-33 31 -77.5 45.5t-91.5 14.5h-18.5h-46.5v-554h91v-76h-420v76h77v554h-76v76h393h9.5t9.5 -1q56 -2 108.5 -22t93.5 -58q38 -36 61.5 -87.5t24.5 -119.5v0z" />
<glyph unicode="q" horiz-adv-x="741" d="M727 -3q-34 -37 -79.5 -58t-96.5 -20q-40 1 -74 13t-59 32q-10 7 -18 16t-15 19h-4.5h-4.5h-5.5h-4.5q-148 0 -253.5 105t-105.5 253q0 149 105.5 254t253.5 105t253.5 -105t105.5 -254q0 -119 -70 -213t-179 -129q15 -9 34 -13.5t42 -5.5q35 0 65 13.5t53 39.5l57 -52v0 zM648 357q0 116 -82.5 199t-199.5 83q-17 0 -33.5 -2t-32.5 -6v-548q14 -3 29 -5t30 -3v4v3q0 35 9 62t25 46q18 22 43.5 33t52.5 11q26 0 49.5 -10.5t39.5 -31.5q1 -1 2 -2.5t2 -2.5t2 -2.5t2 -2.5q29 36 45.5 81t16.5 94v0zM530 128q-1 2 -3 4t-3 4q-2 2 -3.5 4t-3.5 4 q-4 6 -10 9t-13 3q-34 0 -45.5 -21.5t-12.5 -50.5q26 7 49.5 18t44.5 26v0z" />
<glyph unicode="r" horiz-adv-x="1067" d="M1051 139q-4 -79 -66.5 -129t-138.5 -49h-15.5t-15.5 2q-77 11 -136 61.5t-107 109.5q-9 10 -17.5 21t-16.5 21q-43 55 -83 101t-68 50q-3 1 -6.5 1h-7.5h-2.5t-3.5 1h-2.5h-3.5v76h17.5h16.5h16.5h17.5h2.5h2.5q37 3 68 34.5t30 69.5q0 65 -47.5 92.5t-104.5 28.5h-3.5 h-2.5h-14h-23v-554h91v-76h-420v76h77v554h-52v76h54.5h117.5h106.5h62.5q91 0 162 -48.5t72 -148.5q1 -55 -31 -99.5t-82 -64.5h-0.5t-1.5 -1q24 -23 48 -51.5t48 -57.5q2 -3 4.5 -5.5t4.5 -5.5q10 -13 21 -27t23 -28q37 -46 82.5 -85t101.5 -47q5 -1 10.5 -1.5t10.5 -0.5 q26 0 51 10t48 31q14 12 21 29.5t8 36.5v3v4q0 19 -6 36.5t-17 30.5q-15 17 -29.5 23.5t-28.5 6.5h-5.5t-4.5 -1q-13 -3 -23.5 -13t-10.5 -23q0 -3 0.5 -5.5t1.5 -4.5q0 -2 1.5 -4.5t3.5 -5.5q3 -4 6.5 -5.5t7.5 -0.5q2 0 3.5 0.5t3.5 0.5q4 1 7.5 3t6.5 4l47 -59 q-16 -12 -34 -19t-37 -7q-20 1 -39.5 10t-33.5 29q-11 16 -16 31.5t-5 31.5q0 39 27 71t68 40q8 2 14.5 2.5t13.5 0.5q64 0 107.5 -51.5t46.5 -113.5v-8.5v-9.5v0z" />
<glyph unicode="s" horiz-adv-x="841" d="M823 594q-2 -41 -33 -71.5t-111 -26.5l4 68h12.5t15.5 2q13 2 24.5 9t11.5 21q0 23 -16.5 34t-36.5 13h-4.5h-4.5q-42 0 -57.5 -30t-21.5 -66q-1 -11 -2 -21l-2 -20q0 -2 -0.5 -4.5t-0.5 -4.5q-3 -28 -6.5 -56.5t-7.5 -57.5q0 -1 -0.5 -3t-0.5 -4q-4 -31 -8 -61t-7 -59 q-16 -141 -118 -202t-231 -51q-88 8 -152.5 51t-64.5 152q0 61 44 111t108 50q61 0 98 -35t37 -97q0 -50 -35 -82.5t-85 -32.5v76q19 0 31.5 10t12.5 29q0 29 -16 43t-37 14q-4 0 -9 -0.5t-10 -1.5q-11 -3 -21.5 -9.5t-18.5 -15.5q-12 -13 -18 -30.5t-6 -36.5 q0 -28 13 -54.5t37 -40.5q13 -7 31 -12.5t37 -6.5h4h4q29 0 53.5 13.5t31.5 44.5q9 45 17 92.5t15 94.5q2 11 3.5 21.5t3.5 20.5l10 64t10 63q24 135 115.5 178t198.5 43q8 0 15.5 -0.5t15.5 -2.5q50 -7 90.5 -38.5t37.5 -83.5v0z" />
<glyph unicode="t" horiz-adv-x="1030" d="M1015 694q-28 -65 -110 -78.5t-186 -6.5v-533h102v-76h-437v76h83v556q-14 1 -27.5 1.5t-27.5 0.5q-70 0 -136.5 -13t-117.5 -52q-37 -28 -58 -71.5t-21 -103.5v-2.5v-3.5q3 -59 47.5 -109t105.5 -52q56 -1 91.5 23.5t35.5 84.5q0 23 -15.5 38.5t-35.5 14.5q-2 0 -5 -0.5 t-5 -0.5q-5 -2 -10 -4.5t-10 -7.5l-54 54q16 16 33.5 24.5t35.5 9.5q4 1 7.5 1h7.5q49 0 88 -36t39 -93q0 -92 -58 -139t-147 -45q-93 3 -160 77.5t-67 165.5q0 80 28.5 138t80.5 97q62 47 138 63.5t155 16.5q42 0 83.5 -3t80.5 -7q10 -1 19.5 -2t19.5 -2q53 -5 105 -9.5 t96 -4.5q53 0 90 9t47 34l69 -30v0z" />
<glyph unicode="u" horiz-adv-x="747" d="M730 -11q-53 1 -94 31.5t-58 78.5q-40 -49 -99.5 -78t-127.5 -29q-61 0 -114 23t-94 63q-40 40 -63 93.5t-23 114.5v344h-57v76h365v-76h-60v-558q11 -2 22.5 -3.5t23.5 -1.5q91 0 155 64t64 155v9v335h-68v76h203v-76h-59v-344v-137q0 -34 25 -59t59 -25v-76v0z" />
<glyph unicode="v" horiz-adv-x="788" d="M705 689q32 -23 49.5 -60t17.5 -83q0 -44 -18 -95t-59 -106l-261 -350q-44 75 -88.5 151.5t-88.5 153.5q-1 3 -3 6.5t-4 6.5q-46 80 -92 159.5t-92 157.5h-64v76h392v-76h-59l200 -373q12 17 24.5 33.5t25.5 33.5q12 17 24.5 33.5t25.5 33.5q32 44 46.5 83.5t14.5 71.5 q0 27 -10 48t-27 34q-8 6 -16.5 8.5t-17.5 2.5q-19 0 -34 -11.5t-15 -28.5q0 -3 0.5 -5.5t1.5 -5.5q3 -8 11 -15.5t21 -14.5l-36 -67q-33 17 -53.5 46.5t-19.5 63.5q0 6 1 12t2 13l4 12t5 12q18 32 48.5 48.5t64.5 16.5q21 0 41.5 -6.5t37.5 -19.5v0z" />
<glyph unicode="w" horiz-adv-x="1072" d="M981 360q-58 -88 -116.5 -177t-117.5 -178l-191 374l-180 -382l-309 633h-65v76h391v-76h-59l124 -281l167 354l215 -419q10 15 19.5 29.5t19.5 29.5q9 15 18.5 29.5t19.5 29.5q4 6 8.5 13t9.5 15q10 19 20 41t16 45q3 10 4.5 21t1.5 21q0 23 -9 42.5t-31 32.5 q-6 4 -12.5 5.5t-13.5 1.5q-19 0 -34.5 -11.5t-15.5 -28.5q0 -3 1 -7t2 -7q4 -7 11 -14t19 -14l-36 -67q-33 17 -53.5 46.5t-19.5 63.5q0 6 1 12t2 13l4 12t5 12q17 32 49 49t66 16q17 0 33.5 -4.5t31.5 -13.5q42 -26 59 -61.5t17 -75.5q0 -12 -1.5 -25t-4.5 -25 q-8 -41 -26.5 -79.5t-39.5 -70.5v0z" />
<glyph unicode="x" horiz-adv-x="1072" d="M1053 638q2 -7 2.5 -15t0.5 -16v-5.5v-4.5q-4 -63 -47 -114.5t-113 -46.5q-46 4 -78 36t-32 75q1 8 2.5 16.5t4.5 17.5q1 4 3 8.5t4 8.5q14 26 35.5 38t46.5 12q6 0 12 -0.5t11 -2.5q9 -2 18 -5.5t17 -8.5l-38 -65q-4 2 -9.5 4t-10.5 2q-4 0 -8.5 -2t-6.5 -7 q-2 -4 -3.5 -8.5t-1.5 -8.5q1 -14 13 -23t27 -11q32 -3 52 22.5t25 56.5q0 4 0.5 8.5t0.5 8.5v4t-1 5q0 2 -0.5 4t-0.5 4q-8 42 -43 65.5t-75 24.5h-3.5h-3.5q-4 0 -9 -0.5t-9 -0.5q-5 -1 -9.5 -2t-9.5 -2q-52 -15 -91 -57t-69 -90q-11 -18 -21.5 -35t-19.5 -33 q-19 -31 -37.5 -61.5t-38.5 -56.5l213 -302h67v-76h-392v76h56l-96 136q-2 -6 -5 -12l-6 -12q-25 -55 -58.5 -95.5t-71.5 -64.5q-25 -16 -51 -23.5t-52 -7.5q-17 0 -34 4t-34 11q-32 15 -48 45t-16 63q0 4 0.5 8t0.5 9q2 12 6 24.5t10 23.5q16 29 42 43t55 14q6 0 12 -0.5 t12 -2.5q13 -2 25 -7t23 -12l-41 -64q-8 5 -16 8t-16 3h-2h-1q-1 -1 -2 -1h-2q-15 -2 -22.5 -16t-7.5 -31q0 -12 5 -23t15 -16l12 -4t12 -3q3 -1 6 -1h6q16 0 31.5 5t31.5 15q29 19 55.5 51t45.5 76q4 8 7.5 16t7.5 17q4 8 7.5 16t6.5 16l-243 344h-70v76h373v-76h-34 l131 -185q14 21 28 44.5t29 47.5q8 13 15.5 26t15.5 26q40 63 90 119.5t125 77.5q14 5 29 6.5t30 1.5q68 0 126.5 -41t71.5 -112v0z" />
<glyph unicode="y" horiz-adv-x="1224" d="M1220 510q1 -4 1.5 -8.5t0.5 -8.5v-8.5v-8.5q0 -90 -59 -158.5t-139 -68.5q-28 0 -57.5 11t-58.5 34q-25 20 -36.5 46.5t-11.5 54.5q0 44 28 80t79 41l8 -75q-19 -2 -29.5 -15.5t-10.5 -30.5q0 -3 0.5 -6t1.5 -5q2 -9 6.5 -17.5t12.5 -14.5q18 -14 35.5 -21t34.5 -7 q50 1 85 48t36 103v1.5v1.5q0 5 -0.5 10.5t-1.5 10.5q-10 72 -69.5 117.5t-129.5 44.5q-11 0 -22.5 -1t-22.5 -4q-80 -19 -142 -81.5t-112 -132.5q-18 -25 -34 -50t-31 -48q-1 -2 -2 -3.5t-2 -3.5q-2 -2 -3 -3.5t-2 -3.5v-254h61v-76h-373v76h59v248l-251 310h-67v76h392 v-76h-47l179 -235q5 7 9.5 14.5t9.5 14.5q67 99 147 187t191 115q16 4 31.5 5.5t31.5 1.5q98 0 179 -63t95 -164v0z" />
<glyph unicode="z" horiz-adv-x="781" d="M763 203q2 -112 -67 -158.5t-171 -46.5h-129h-133h-133h-129l422 627h-43h-46h-47h-43q-46 0 -78 -6t-52 -20q-16 -11 -24 -31t-9 -42v-2.5v-2.5q0 -18 5.5 -34t16.5 -27q8 -7 20 -12.5t25 -6.5h2.5h3.5q11 0 20.5 4t16.5 13q5 6 7.5 14t2.5 16q0 9 -3 17t-10 13l49 58 q17 -14 27 -33t11 -42q5 -64 -34.5 -100t-91.5 -36h-7.5t-7.5 1q-22 2 -43 12t-40 27q-23 23 -34.5 54t-11.5 64v3.5v2.5q1 39 17.5 74t46.5 57q31 22 74 31.5t101 9.5h124h128h133.5h129.5l-421 -628h45h49h48h45q45 0 77 8.5t51 24.5q16 13 25 34t10 44v2.5v3.5 q0 31 -16.5 55.5t-51.5 24.5h-6t-6 -1q-20 -3 -29.5 -16t-9.5 -31v-3v-3q0 -2 0.5 -3.5t0.5 -3.5l-75 -12q-1 8 -1.5 14.5t-0.5 12.5q0 60 39 90t88 30h2.5h3.5q51 -2 93.5 -37t43.5 -104v0z" />
<glyph unicode="{" />
<glyph unicode="|" />
<glyph unicode="}" />
<glyph unicode="~" />
<glyph unicode="&#xa0;" />
<glyph unicode="&#xa1;" horiz-adv-x="331" d="M315 -77q0 -48 -38 -80.5t-84 -41.5q-7 -2 -14.5 -2.5t-14.5 -0.5t-15 1t-15 2q-45 9 -82.5 42t-37.5 81q0 42 12 68.5t30 50.5q2 3 4.5 6.5t4.5 6.5t4.5 6t4.5 7q19 25 34 61.5t15 100.5v19.5v18.5h83v-18.5v-19.5q0 -66 15.5 -102.5t34.5 -62.5q1 -3 3 -5.5t4 -4.5 q2 -3 4.5 -6.5t5.5 -6.5q17 -24 29.5 -50.5t12.5 -68.5v-1zM304 399q0 -44 -33.5 -70.5t-73.5 -34.5q-9 -1 -17 -2t-16 -1t-16.5 1t-17.5 3q-39 8 -72 34t-33 70t33 70.5t72 34.5q9 1 17.5 2t16.5 1t16 -1t17 -2q40 -8 73.5 -34t33.5 -71v0z" />
<glyph unicode="&#xa2;" horiz-adv-x="540" d="M516 201q-37 -60 -98 -92.5t-127 -34.5h-2.5h-3.5q-14 0 -27.5 1.5t-27.5 4.5l-58 -147q-3 -7 -8.5 -11t-10.5 -6h-3h-2q-10 0 -17.5 7t-7.5 18q0 2 0.5 5t1.5 6l56 143q-22 10 -42 23t-38 31q-38 38 -57.5 86.5t-19.5 99.5q1 51 20.5 100t58.5 86q35 35 84 55.5 t104 20.5q7 0 13.5 -0.5t13.5 -1.5q14 -1 27.5 -4t26.5 -7l68 174q4 10 11 14t14 4q9 0 16.5 -7t7.5 -18v-5t-2 -6l-70 -177q32 -20 52.5 -51.5t19.5 -75.5q-1 -52 -37 -89.5t-89 -37.5v68q25 0 41.5 17.5t17.5 42.5q0 20 -8 35.5t-22 25.5l-137 -353q8 -1 16.5 -2t17.5 -1 q51 0 97 25t72 69l58 -35v0zM347 521q-7 2 -14 3.5t-14 2.5t-14 1.5t-14 0.5h-8.5t-8.5 -1q-9 0 -17.5 -1.5t-16.5 -3.5v-277l107 275v0z" />
<glyph unicode="&#xa3;" horiz-adv-x="706" d="M672 107q-13 -75 -69.5 -105.5t-124.5 -30.5q-14 0 -28.5 1.5t-28.5 3.5q-29 5 -57.5 13t-57.5 16q-3 1 -5.5 1.5t-5.5 1.5q-35 11 -70.5 21t-72.5 15q-2 0 -4 0.5t-5 0.5q-4 1 -8.5 1.5t-9.5 0.5h-2.5h-2.5q-10 0 -18.5 -2t-13.5 -7l-56 52q10 10 20.5 15.5t20.5 8.5 q7 2 13.5 3t13.5 3q25 4 43 16t18 63v64.5v64.5h-34.5h-34.5q-13 0 -20 8t-7 18q0 9 7 16.5t20 7.5h34.5h34.5v40.5v39.5q0 132 87.5 194.5t208.5 62.5q80 0 146.5 -44.5t65.5 -133.5q-1 -56 -37.5 -98.5t-95.5 -42.5q-46 0 -81 28t-35 77q0 32 26.5 55.5t57.5 23.5v-76 q-4 0 -6 -2t-2 -4t1.5 -4.5t3.5 -5.5q5 -6 14.5 -11.5t21.5 -5.5q9 0 18.5 4.5t19.5 14.5q9 10 13.5 22.5t4.5 25.5q0 3 -0.5 5.5t-0.5 5.5q-3 17 -11 33t-21 26q-15 12 -35 19.5t-43 10.5q-52 -1 -69.5 -45.5t-19.5 -98.5q0 -19 0.5 -38t1.5 -35q0 -13 0.5 -23.5t0.5 -19.5 h41.5h40.5q14 0 20.5 -8t6.5 -18q0 -9 -6.5 -16.5t-20.5 -7.5h-40.5h-41.5v-19t1 -18q1 -62 -8 -113.5t-71 -96.5q9 -3 19.5 -6t22.5 -7q19 -5 39.5 -10t42.5 -8q12 -2 23.5 -3t23.5 -1q40 0 70.5 16t37.5 58q1 3 1 6v5q0 18 -10 29.5t-22 15.5q-4 2 -8 2.5t-7 0.5 q-7 0 -11.5 -3t-6.5 -8l-74 14q7 38 34 55t58 17q4 0 8 -0.5t7 -0.5q26 -4 50 -16.5t38 -34.5q10 -13 15 -30.5t5 -38.5q0 -6 -0.5 -12.5t-1.5 -13.5v0z" />
<glyph unicode="&#xa4;" horiz-adv-x="683" d="M625 367h-261v-25h197q14 0 20.5 -8t6.5 -18t-6.5 -17.5t-20.5 -7.5h-197v-206q13 -4 25.5 -5.5t25.5 -1.5q33 0 65 11t60 33v52h38h38v-171h-35h-3h-38v30q-30 -15 -62 -23t-64 -7h-5.5h-5.5q-57 3 -111 29t-97 76q-34 39 -54.5 86t-28.5 97h-54q-13 0 -20 8t-7 18 t7 17.5t20 7.5h49v6v7v6v6h-49q-13 0 -20 8t-7 18t7 17.5t20 7.5h54q8 50 29 97t54 86q42 49 99 77t121 28q33 0 65 -8t60 -22v31h76v-173h-76v52q-24 19 -51.5 29.5t-55.5 13.5q-4 1 -8.5 1h-9.5q-13 0 -25.5 -2t-25.5 -5v-205h261q14 0 20.5 -8t6.5 -18t-6.5 -17.5 t-20.5 -7.5v0z" />
<glyph unicode="&#xa5;" horiz-adv-x="864" d="M817 621q0 -2 0.5 -4t0.5 -4v-5v-4q0 -44 -24.5 -84t-54.5 -70l-20.5 -20.5l-21.5 -21.5h101q14 0 20.5 -8t6.5 -18t-6.5 -17.5t-20.5 -7.5h-152l-16.5 -16.5t-17.5 -16.5h186q14 0 20.5 -8t6.5 -18t-6.5 -17.5t-20.5 -7.5h-188v-197h61v-76h-373v76h60v197h-187 q-13 0 -20 8t-7 18t7 17.5t20 7.5h187l-28 33h-159q-13 0 -20 8t-7 18t7 17.5t20 7.5h118l-182 226h-68v76h392v-76h-47l186 -246l29.5 29.5l28.5 28.5l28.5 28.5l29.5 29.5l4.5 4.5t4.5 5.5q13 14 25 31.5t18 36.5q2 6 3 12t1 12q0 15 -8.5 29t-29.5 24q-4 2 -9.5 3 t-11.5 1q-3 0 -6.5 -0.5t-7.5 -0.5q-12 -3 -23 -9t-15 -16l-0.5 -0.5t-0.5 -1.5v-1.5v-0.5q0 -5 5 -9t10 -7l7 -3.5l5 -2.5l-27 -71q-31 13 -54 37t-23 56q1 8 2.5 16t4.5 16q12 33 44 52t67 22h6h6q14 0 28 -3t26 -9q32 -16 54 -42.5t26 -63.5v0z" />
<glyph unicode="&#xa6;" />
<glyph unicode="&#xa7;" />
<glyph unicode="&#xa8;" horiz-adv-x="225" d="M105 738q0 -18 -13 -31t-31 -13t-31 13t-13 31t13 30.5t31 12.5t31 -12.5t13 -30.5v0zM209 738q0 -18 -12.5 -31t-30.5 -13t-31 13t-13 31t13 30.5t31 12.5t30.5 -12.5t12.5 -30.5v0z" />
<glyph unicode="&#xa9;" />
<glyph unicode="&#xaa;" horiz-adv-x="343" d="M333 409h-151v30h27l-22 47q-7 -1 -14 -1.5t-13 -0.5q-7 0 -13.5 1t-11.5 2l-14 4t-13 5l-27 -57h20v-30h-90v30h36l34 72q-3 2 -7 3t-7 3q-4 1 -8 1.5t-7 0.5q-6 -1 -11 -3t-8 -8q-1 -1 -1 -1.5v-2.5t0.5 -4t1.5 -3q0 -1 0.5 -1.5t0.5 -1.5l-26 -16q-4 6 -5.5 13 t-1.5 14q0 5 1 9.5t3 8.5q8 13 19 19t25 7q11 0 22 -3t23 -8l82 173l136 -272h20v-30v0zM173 515l-28 57l-24 -49q3 -1 5.5 -2t4.5 -2t4.5 -1.5t5.5 -1.5q5 -1 9.5 -1.5t9.5 -0.5h6t7 1v0z" />
<glyph unicode="&#xab;" horiz-adv-x="386" d="M230 244l-52 -55l-165 160l165 160l52 -54l-108 -106l108 -105v0zM380 244l-52 -55l-165 160l165 160l52 -54l-108 -106l108 -105v0z" />
<glyph unicode="&#xac;" />
<glyph unicode="&#xad;" />
<glyph unicode="&#xae;" />
<glyph unicode="&#xaf;" />
<glyph unicode="&#xb0;" />
<glyph unicode="&#xb1;" />
<glyph unicode="&#xb2;" />
<glyph unicode="&#xb3;" />
<glyph unicode="&#xb4;" horiz-adv-x="317" d="M282 749l-217 -102l-28 52l150 90l95 -40v0z" />
<glyph unicode="&#xb5;" />
<glyph unicode="&#xb6;" />
<glyph unicode="&#xb7;" />
<glyph unicode="&#xb8;" horiz-adv-x="317" d="M229 -65q0 -1 0.5 -3t0.5 -4q1 -2 1 -4v-4v-5.5t-1 -4.5q-2 -11 -7 -21t-13 -18q-16 -16 -34 -23t-38 -7h-2.5h-3.5q-1 1 -2.5 1h-3.5q-21 2 -44 10.5t-48 21.5l28 51q20 -10 37.5 -16.5t31.5 -7.5q3 -1 6 -1h5q8 0 14 2.5t11 7.5q2 1 3 3.5t1 4.5q0 3 -1.5 5.5t-5.5 4.5 q-1 1 -2.5 1h-3.5q-4 0 -9 -2t-12 -6l-45 31l19 70l61 -1l-9 -33q23 -1 42 -15.5t24 -36.5v-1z" />
<glyph unicode="&#xb9;" />
<glyph unicode="&#xba;" horiz-adv-x="297" d="M287 575q0 -58 -41 -99.5t-100 -41.5q-58 0 -99 41.5t-41 99.5t41 99.5t99 41.5q59 0 100 -41.5t41 -99.5v0zM257 575q0 45 -32 77.5t-79 32.5q-6 0 -12.5 -0.5t-13.5 -2.5v-214q7 -1 13.5 -2.5t12.5 -1.5q46 0 78.5 32.5t32.5 78.5v0z" />
<glyph unicode="&#xbb;" horiz-adv-x="386" d="M227 349l-165 -160l-52 55l108 105l-108 106l52 54l165 -160v0zM377 349l-165 -160l-52 55l108 105l-108 106l52 54l165 -160v0z" />
<glyph unicode="&#xbc;" />
<glyph unicode="&#xbd;" />
<glyph unicode="&#xbe;" />
<glyph unicode="&#xbf;" horiz-adv-x="550" d="M513 -47q1 -63 -46.5 -99.5t-104.5 -48.5q-16 -4 -31.5 -5.5t-30.5 -1.5h-9.5h-9.5q-101 5 -184.5 58.5t-83.5 167.5q0 103 76.5 160t170.5 65v35h76v-109h-27.5t-27.5 -1v-301q35 -1 67.5 5.5t56.5 23.5q15 10 23.5 23t8.5 28q0 16 -12 24.5t-27 11.5q-6 2 -11.5 2.5 t-10.5 0.5v74h2.5h3.5q49 -2 89.5 -30.5t41.5 -81.5v-1zM428 405q0 -24 -12.5 -45t-34.5 -35q-18 -13 -42 -20.5t-51 -7.5t-51 7.5t-42 20.5q-22 14 -34 35t-12 45q0 25 12 45.5t34 35.5q18 13 42 20t51 7t51 -7t42 -20q22 -15 34.5 -35.5t12.5 -45.5v0z" />
<glyph unicode="&#xc0;" horiz-adv-x="860" d="M840 0h-378v76h69l-56 117q-19 -3 -35.5 -4.5t-31.5 -1.5q-18 0 -33.5 2t-29.5 5q-19 4 -35.5 10.5t-31.5 13.5l-69 -142h51v-76h-224v76h88l87 178q-9 4 -19 8t-21 7q-8 2 -16.5 3.5t-16.5 1.5q-15 0 -27.5 -6t-20.5 -20q-1 -2 -1.5 -4.5t-0.5 -6.5v-4t1 -5q1 -4 2.5 -8 t2.5 -7l-64 -41q-8 12 -12.5 26t-6.5 29v5.5v4.5q0 13 3 25.5t9 22.5q18 32 46 47.5t64 16.5q26 1 53.5 -6t57.5 -21l205 433l342 -679h49v-76v0zM440 265l-70 143l-59 -122q12 -6 24.5 -10.5t25.5 -7.5q11 -2 22.5 -3.5t24.5 -1.5q8 0 16 0.5t16 1.5v0zM521 816l-28 -52 l-217 102l95 40l150 -90v0z" />
<glyph unicode="&#xc1;" horiz-adv-x="860" d="M840 0h-378v76h69l-56 117q-19 -3 -35.5 -4.5t-31.5 -1.5q-18 0 -33.5 2t-29.5 5q-19 4 -35.5 10.5t-31.5 13.5l-69 -142h51v-76h-224v76h88l87 178q-9 4 -19 8t-21 7q-8 2 -16.5 3.5t-16.5 1.5q-15 0 -27.5 -6t-20.5 -20q-1 -2 -1.5 -4.5t-0.5 -6.5v-4t1 -5q1 -4 2.5 -8 t2.5 -7l-64 -41q-8 12 -12.5 26t-6.5 29v5.5v4.5q0 13 3 25.5t9 22.5q18 32 46 47.5t64 16.5q26 1 53.5 -6t57.5 -21l205 433l342 -679h49v-76v0zM440 265l-70 143l-59 -122q12 -6 24.5 -10.5t25.5 -7.5q11 -2 22.5 -3.5t24.5 -1.5q8 0 16 0.5t16 1.5v0zM636 863l-217 -102 l-28 52l150 90l95 -40v0z" />
<glyph unicode="&#xc2;" horiz-adv-x="860" d="M840 0h-378v76h69l-56 117q-19 -3 -35.5 -4.5t-31.5 -1.5q-18 0 -33.5 2t-29.5 5q-19 4 -35.5 10.5t-31.5 13.5l-69 -142h51v-76h-224v76h88l87 178q-9 4 -19 8t-21 7q-8 2 -16.5 3.5t-16.5 1.5q-15 0 -27.5 -6t-20.5 -20q-1 -2 -1.5 -4.5t-0.5 -6.5v-4t1 -5q1 -4 2.5 -8 t2.5 -7l-64 -41q-8 12 -12.5 26t-6.5 29v5.5v4.5q0 13 3 25.5t9 22.5q18 32 46 47.5t64 16.5q26 1 53.5 -6t57.5 -21l205 433l342 -679h49v-76v0zM440 265l-70 143l-59 -122q12 -6 24.5 -10.5t25.5 -7.5q11 -2 22.5 -3.5t24.5 -1.5q8 0 16 0.5t16 1.5v0zM582 766l-33 -49 l-95 64l-94 -64l-33 49l127 86l128 -86v0z" />
<glyph unicode="&#xc3;" horiz-adv-x="860" d="M840 0h-378v76h69l-56 117q-19 -3 -35.5 -4.5t-31.5 -1.5q-18 0 -33.5 2t-29.5 5q-19 4 -35.5 10.5t-31.5 13.5l-69 -142h51v-76h-224v76h88l87 178q-9 4 -19 8t-21 7q-8 2 -16.5 3.5t-16.5 1.5q-15 0 -27.5 -6t-20.5 -20q-1 -2 -1.5 -4.5t-0.5 -6.5v-4t1 -5q1 -4 2.5 -8 t2.5 -7l-64 -41q-8 12 -12.5 26t-6.5 29v5.5v4.5q0 13 3 25.5t9 22.5q18 32 46 47.5t64 16.5q26 1 53.5 -6t57.5 -21l205 433l342 -679h49v-76v0zM440 265l-70 143l-59 -122q12 -6 24.5 -10.5t25.5 -7.5q11 -2 22.5 -3.5t24.5 -1.5q8 0 16 0.5t16 1.5v0zM594 805l-49 -34 q-8 12 -20.5 18t-26.5 6q-8 0 -16 -2.5t-16 -7.5q-12 -8 -25.5 -12.5t-27.5 -6.5h-7.5h-6.5q-27 0 -52 12t-42 36l49 34q8 -12 21 -18t26 -6q8 0 16.5 2.5t15.5 7.5q15 10 32 14.5t34 4.5q27 0 52.5 -12.5t42.5 -35.5v0z" />
<glyph unicode="&#xc4;" horiz-adv-x="860" d="M840 0h-378v76h69l-56 117q-19 -3 -35.5 -4.5t-31.5 -1.5q-18 0 -33.5 2t-29.5 5q-19 4 -35.5 10.5t-31.5 13.5l-69 -142h51v-76h-224v76h88l87 178q-9 4 -19 8t-21 7q-8 2 -16.5 3.5t-16.5 1.5q-15 0 -27.5 -6t-20.5 -20q-1 -2 -1.5 -4.5t-0.5 -6.5v-4t1 -5q1 -4 2.5 -8 t2.5 -7l-64 -41q-8 12 -12.5 26t-6.5 29v5.5v4.5q0 13 3 25.5t9 22.5q18 32 46 47.5t64 16.5q26 1 53.5 -6t57.5 -21l205 433l342 -679h49v-76v0zM440 265l-70 143l-59 -122q12 -6 24.5 -10.5t25.5 -7.5q11 -2 22.5 -3.5t24.5 -1.5q8 0 16 0.5t16 1.5v0zM444 782 q0 -18 -13 -31t-31 -13t-31 13t-13 31t13 30.5t31 12.5t31 -12.5t13 -30.5v0zM548 782q0 -18 -12.5 -31t-30.5 -13t-31 13t-13 31t13 30.5t31 12.5t30.5 -12.5t12.5 -30.5v0z" />
<glyph unicode="&#xc5;" horiz-adv-x="860" d="M840 0h-378v76h69l-56 117q-19 -3 -35.5 -4.5t-31.5 -1.5q-18 0 -33.5 2t-29.5 5q-19 4 -35.5 10.5t-31.5 13.5l-69 -142h51v-76h-224v76h88l87 178q-9 4 -19 8t-21 7q-8 2 -16.5 3.5t-16.5 1.5q-15 0 -27.5 -6t-20.5 -20q-1 -2 -1.5 -4.5t-0.5 -6.5v-4t1 -5q1 -4 2.5 -8 t2.5 -7l-64 -41q-8 12 -12.5 26t-6.5 29v5.5v4.5q0 13 3 25.5t9 22.5q18 32 46 47.5t64 16.5q26 1 53.5 -6t57.5 -21l205 433l342 -679h49v-76v0zM440 265l-70 143l-59 -122q12 -6 24.5 -10.5t25.5 -7.5q11 -2 22.5 -3.5t24.5 -1.5q8 0 16 0.5t16 1.5v0zM535 800 q0 -17 -6.5 -32.5t-18.5 -26.5h1q-12 -11 -27 -17.5t-33 -6.5q-34 0 -58.5 24.5t-24.5 58.5q0 17 6.5 32.5t17.5 26.5q12 11 27.5 18t31.5 7q35 0 59.5 -24.5t24.5 -59.5v0zM484 800q0 14 -9.5 23.5t-23.5 9.5q-7 0 -12.5 -2t-10.5 -7q-4 -4 -6.5 -10.5t-2.5 -13.5 q0 -13 9.5 -23t22.5 -10q8 0 14 3t10 7q5 5 7 10.5t2 12.5v0z" />
<glyph unicode="&#xc6;" horiz-adv-x="1277" d="M1270 188q0 -6 -0.5 -12.5t-1.5 -13.5q-4 -30 -20.5 -58.5t-42.5 -51.5q-27 -23 -64 -37.5t-83 -14.5h-505v76h83v40q-35 53 -78 102t-90 91q-8 -13 -16.5 -27t-16.5 -27t-15 -25l-14 -24q-21 -34 -42 -67t-45 -63h86v-76h-260v76h73q24 24 45 52t40 57q14 22 27 44 t25 42q13 20 26 41.5t27 43.5q-4 3 -9 6t-10 5q-27 16 -61.5 29.5t-70.5 20.5q-14 3 -28 4.5t-27 1.5q-35 0 -65 -12.5t-47 -43.5l-6 -12t-4 -12q-2 -7 -3 -13t-1 -12q0 -25 15 -45t43 -28l-21 -73q-34 11 -61.5 33t-40.5 57q-4 13 -6.5 26.5t-2.5 27.5q0 6 0.5 11.5 t0.5 11.5q3 17 8 33.5t13 31.5q1 3 3 5.5t3 4.5q22 32 68.5 58t115.5 26q44 0 96 -14t112 -48q7 -4 13.5 -8t13.5 -9q43 62 92.5 118.5t109.5 104.5q16 13 30.5 22t29.5 16q34 16 71.5 20t88.5 4h184l90 -152l-65 -39l-68 115h-124v-176h47v57h76v-189h-76v56h-47v-300h170 q31 0 55.5 9t41.5 24q14 12 23 26.5t13 29.5q2 6 2.5 11.5t0.5 11.5q0 5 -0.5 11t-1.5 11q-5 27 -21.5 49t-47.5 22q-3 0 -7 -0.5t-8 -0.5q-11 -3 -20.5 -9.5t-9.5 -19.5q0 -7 4.5 -11t11.5 -4v-76q-43 0 -67.5 29t-24.5 65v4.5v4.5q2 18 11 35.5t26 30.5q16 13 37 20.5 t47 7.5q70 1 108 -51.5t39 -117.5v0zM636 243v289q-35 -36 -66 -76.5t-60 -82.5q35 -29 66.5 -62t59.5 -68v0z" />
<glyph unicode="&#xc7;" horiz-adv-x="681" d="M429 -65q0 -1 0.5 -3t0.5 -4q1 -2 1 -4v-4v-5.5t-1 -4.5q-2 -11 -7 -21t-13 -18q-16 -16 -34 -23t-38 -7h-2.5h-3.5q-1 1 -2.5 1h-3.5q-21 2 -44 10.5t-48 21.5l28 51q20 -10 37.5 -16.5t31.5 -7.5q3 -1 6 -1h5q8 0 14 2.5t11 7.5q2 1 3 3.5t1 4.5q0 3 -1.5 5.5t-5.5 4.5 q-1 1 -2.5 1h-3.5q-4 0 -9 -2t-12 -6l-45 31l19 70l61 -1l-9 -33q23 -1 42 -15.5t24 -36.5v-1zM676 171q-52 -85 -138 -128.5t-179 -43.5h-6h-6q-65 1 -128 26.5t-113 74.5q-52 52 -78.5 118.5t-26.5 136.5q0 71 27 137.5t80 118.5q50 48 116.5 76t143.5 28q9 0 18 -0.5 t18 -1.5q88 -9 161 -62.5t72 -152.5q-1 -69 -49.5 -119.5t-118.5 -50.5q-55 0 -97 32.5t-42 90.5q0 37 29.5 63.5t64.5 27.5h1.5h1.5v-76q-2 0 -4.5 -0.5t-4.5 -2.5q-5 -2 -8.5 -5t-3.5 -7q0 -25 19 -35.5t41 -11.5h1.5h1.5q39 0 65 28.5t27 65.5q1 62 -44 94.5t-99 42.5 q-13 2 -25.5 3t-24.5 1q-22 0 -42.5 -3t-40.5 -8v-545q19 -4 39 -6.5t40 -2.5q74 0 141 36t106 100l65 -39v0z" />
<glyph unicode="&#xc8;" horiz-adv-x="712" d="M707 188q0 -6 -0.5 -12.5t-1.5 -13.5q-5 -30 -21 -58.5t-43 -51.5t-64 -37.5t-83 -14.5h-484v76h15.5h15.5h15.5h15.5v552h-63v76h483l90 -152l-65 -39l-68 115h-125v-176h48v57h76v-189h-76v56h-48v-300h42.5h42.5h42.5h42.5q32 0 56 9t42 24q14 12 23 26.5t13 29.5 q1 6 2 11.5t1 11.5q0 5 -0.5 11t-1.5 11q-5 27 -22 49t-47 22q-4 0 -8 -0.5t-8 -1.5q-11 -2 -20.5 -8.5t-9.5 -19.5q0 -7 4.5 -11t11.5 -4v-76q-43 0 -67 28.5t-24 64.5v5.5t1 4.5q2 18 11 35t25 31q15 13 36 20t47 8q71 1 109 -51.5t39 -117.5v0zM350 774l-28 -52l-217 102 l95 40l150 -90v0z" />
<glyph unicode="&#xc9;" horiz-adv-x="712" d="M707 188q0 -6 -0.5 -12.5t-1.5 -13.5q-5 -30 -21 -58.5t-43 -51.5t-64 -37.5t-83 -14.5h-484v76h15.5h15.5h15.5h15.5v552h-63v76h483l90 -152l-65 -39l-68 115h-125v-176h48v57h76v-189h-76v56h-48v-300h42.5h42.5h42.5h42.5q32 0 56 9t42 24q14 12 23 26.5t13 29.5 q1 6 2 11.5t1 11.5q0 5 -0.5 11t-1.5 11q-5 27 -22 49t-47 22q-4 0 -8 -0.5t-8 -1.5q-11 -2 -20.5 -8.5t-9.5 -19.5q0 -7 4.5 -11t11.5 -4v-76q-43 0 -67 28.5t-24 64.5v5.5t1 4.5q2 18 11 35t25 31q15 13 36 20t47 8q71 1 109 -51.5t39 -117.5v0zM459 821l-217 -102l-28 52 l150 90l95 -40v0z" />
<glyph unicode="&#xca;" horiz-adv-x="712" d="M707 188q0 -6 -0.5 -12.5t-1.5 -13.5q-5 -30 -21 -58.5t-43 -51.5t-64 -37.5t-83 -14.5h-484v76h15.5h15.5h15.5h15.5v552h-63v76h483l90 -152l-65 -39l-68 115h-125v-176h48v57h76v-189h-76v56h-48v-300h42.5h42.5h42.5h42.5q32 0 56 9t42 24q14 12 23 26.5t13 29.5 q1 6 2 11.5t1 11.5q0 5 -0.5 11t-1.5 11q-5 27 -22 49t-47 22q-4 0 -8 -0.5t-8 -1.5q-11 -2 -20.5 -8.5t-9.5 -19.5q0 -7 4.5 -11t11.5 -4v-76q-43 0 -67 28.5t-24 64.5v5.5t1 4.5q2 18 11 35t25 31q15 13 36 20t47 8q71 1 109 -51.5t39 -117.5v0zM396 764l-33 -49l-95 64 l-94 -64l-33 49l127 86l128 -86v0z" />
<glyph unicode="&#xcb;" horiz-adv-x="712" d="M707 188q0 -6 -0.5 -12.5t-1.5 -13.5q-5 -30 -21 -58.5t-43 -51.5t-64 -37.5t-83 -14.5h-484v76h15.5h15.5h15.5h15.5v552h-63v76h483l90 -152l-65 -39l-68 115h-125v-176h48v57h76v-189h-76v56h-48v-300h42.5h42.5h42.5h42.5q32 0 56 9t42 24q14 12 23 26.5t13 29.5 q1 6 2 11.5t1 11.5q0 5 -0.5 11t-1.5 11q-5 27 -22 49t-47 22q-4 0 -8 -0.5t-8 -1.5q-11 -2 -20.5 -8.5t-9.5 -19.5q0 -7 4.5 -11t11.5 -4v-76q-43 0 -67 28.5t-24 64.5v5.5t1 4.5q2 18 11 35t25 31q15 13 36 20t47 8q71 1 109 -51.5t39 -117.5v0zM270 762q0 -18 -13 -31 t-31 -13t-31 13t-13 31t13 30.5t31 12.5t31 -12.5t13 -30.5v0zM374 762q0 -18 -12.5 -31t-30.5 -13t-31 13t-13 31t13 30.5t31 12.5t30.5 -12.5t12.5 -30.5v0z" />
<glyph unicode="&#xcc;" horiz-adv-x="413" d="M393 0h-391v76h69v552h-69v76h391v-76h-70v-552h70v-76v0zM272 768l-28 -52l-217 102l95 40l150 -90v0z" />
<glyph unicode="&#xcd;" horiz-adv-x="413" d="M393 0h-391v76h69v552h-69v76h391v-76h-70v-552h70v-76v0zM423 818l-217 -102l-28 52l150 90l95 -40v0z" />
<glyph unicode="&#xce;" horiz-adv-x="413" d="M393 0h-391v76h69v552h-69v76h391v-76h-70v-552h70v-76v0zM327 769l-33 -49l-95 64l-94 -64l-33 49l127 86l128 -86v0z" />
<glyph unicode="&#xcf;" horiz-adv-x="413" d="M393 0h-391v76h69v552h-69v76h391v-76h-70v-552h70v-76v0zM192 766q0 -18 -13 -31t-31 -13t-31 13t-13 31t13 30.5t31 12.5t31 -12.5t13 -30.5v0zM296 766q0 -18 -12.5 -31t-30.5 -13t-31 13t-13 31t13 30.5t31 12.5t30.5 -12.5t12.5 -30.5v0z" />
<glyph unicode="&#xd0;" horiz-adv-x="788" d="M752 309q0 -82 -23 -141t-69 -97q-45 -37 -108.5 -54t-146.5 -17h-344v76h47v204h-72v76h72v272h-47v76h293q8 0 15.5 -0.5t14.5 -0.5q68 -7 133 -38.5t116 -82.5q53 -52 86 -122.5t33 -150.5v0zM676 309q0 64 -26.5 120t-70.5 99q-39 39 -88.5 65t-101.5 33 q-7 1 -14.5 1.5t-14.5 0.5v-272h106v-76h-106v-204h45q69 0 120.5 12.5t85.5 40.5q32 27 48.5 71.5t16.5 108.5v0z" />
<glyph unicode="&#xd1;" horiz-adv-x="853" d="M833 630h-71v-630h-117l-330 444v-368h78v-76h-391v76h61v552h-61v76h214l314 -422v348h-71v75h374v-75v0zM537 757l-49 -34q-8 12 -20.5 18t-26.5 6q-8 0 -16 -2.5t-16 -7.5q-12 -8 -25.5 -12.5t-27.5 -6.5h-7.5h-6.5q-27 0 -52 12t-42 36l49 34q8 -12 21 -18t26 -6 q8 0 16.5 2.5t15.5 7.5q15 10 32 14.5t34 4.5q27 0 52.5 -12.5t42.5 -35.5v0z" />
<glyph unicode="&#xd2;" />
<glyph unicode="&#xd3;" horiz-adv-x="708" d="M703 352q0 -145 -103 -248.5t-249 -103.5q-145 0 -248 103.5t-103 248.5q0 146 103 249t248 103q146 0 249 -103t103 -249v0zM627 352q0 113 -80.5 194.5t-195.5 81.5q-16 0 -32.5 -2t-32.5 -6v-536q16 -4 32.5 -6t32.5 -2q114 0 195 81t81 195v0zM552 818l-217 -102 l-28 52l150 90l95 -40v0z" />
<glyph unicode="&#xd4;" horiz-adv-x="708" d="M703 352q0 -145 -103 -248.5t-249 -103.5q-145 0 -248 103.5t-103 248.5q0 146 103 249t248 103q146 0 249 -103t103 -249v0zM627 352q0 113 -80.5 194.5t-195.5 81.5q-16 0 -32.5 -2t-32.5 -6v-536q16 -4 32.5 -6t32.5 -2q114 0 195 81t81 195v0zM483 757l-33 -49 l-95 64l-94 -64l-33 49l127 86l128 -86v0z" />
<glyph unicode="&#xd5;" horiz-adv-x="708" d="M703 352q0 -145 -103 -248.5t-249 -103.5q-145 0 -248 103.5t-103 248.5q0 146 103 249t248 103q146 0 249 -103t103 -249v0zM627 352q0 113 -80.5 194.5t-195.5 81.5q-16 0 -32.5 -2t-32.5 -6v-536q16 -4 32.5 -6t32.5 -2q114 0 195 81t81 195v0zM498 756l-49 -34 q-8 12 -20.5 18t-26.5 6q-8 0 -16 -2.5t-16 -7.5q-12 -8 -25.5 -12.5t-27.5 -6.5h-7.5h-6.5q-27 0 -52 12t-42 36l49 34q8 -12 21 -18t26 -6q8 0 16.5 2.5t15.5 7.5q15 10 32 14.5t34 4.5q27 0 52.5 -12.5t42.5 -35.5v0z" />
<glyph unicode="&#xd6;" horiz-adv-x="708" d="M703 352q0 -145 -103 -248.5t-249 -103.5q-145 0 -248 103.5t-103 248.5q0 146 103 249t248 103q146 0 249 -103t103 -249v0zM627 352q0 113 -80.5 194.5t-195.5 81.5q-16 0 -32.5 -2t-32.5 -6v-536q16 -4 32.5 -6t32.5 -2q114 0 195 81t81 195v0zM345 767q0 -18 -13 -31 t-31 -13t-31 13t-13 31t13 30.5t31 12.5t31 -12.5t13 -30.5v0zM449 767q0 -18 -12.5 -31t-30.5 -13t-31 13t-13 31t13 30.5t31 12.5t30.5 -12.5t12.5 -30.5v0z" />
<glyph unicode="&#xd7;" />
<glyph unicode="&#xd8;" horiz-adv-x="774" d="M739 352q0 -145 -103 -248.5t-249 -103.5q-62 0 -118.5 20.5t-101.5 57.5l-61 -61l-53 54l60 61q-37 45 -57.5 101.5t-20.5 118.5q0 146 103.5 249t248.5 103q62 0 118.5 -20.5t102.5 -57.5l60 61l54 -54l-61 -61q37 -45 57.5 -101.5t20.5 -118.5v0zM663 352 q0 47 -15 89.5t-41 76.5l-285 -285v-149q16 -4 32.5 -6t32.5 -2q114 0 195 81t81 195v0zM554 572q-35 26 -77.5 41t-89.5 15q-16 0 -32.5 -2t-32.5 -6v-280l232 232v0z" />
<glyph unicode="&#xd9;" horiz-adv-x="747" d="M730 -11q-53 1 -94 31.5t-58 78.5q-40 -49 -99.5 -78t-127.5 -29q-61 0 -114 23t-94 63q-40 40 -63 93.5t-23 114.5v344h-57v76h365v-76h-60v-558q11 -2 22.5 -3.5t23.5 -1.5q91 0 155 64t64 155v9v335h-68v76h203v-76h-59v-344v-137q0 -34 25 -59t59 -25v-76v0zM482 768 l-28 -52l-217 102l95 40l150 -90v0z" />
<glyph unicode="&#xda;" horiz-adv-x="747" d="M730 -11q-53 1 -94 31.5t-58 78.5q-40 -49 -99.5 -78t-127.5 -29q-61 0 -114 23t-94 63q-40 40 -63 93.5t-23 114.5v344h-57v76h365v-76h-60v-558q11 -2 22.5 -3.5t23.5 -1.5q91 0 155 64t64 155v9v335h-68v76h203v-76h-59v-344v-137q0 -34 25 -59t59 -25v-76v0zM594 818 l-217 -102l-28 52l150 90l95 -40v0z" />
<glyph unicode="&#xdb;" horiz-adv-x="747" d="M730 -11q-53 1 -94 31.5t-58 78.5q-40 -49 -99.5 -78t-127.5 -29q-61 0 -114 23t-94 63q-40 40 -63 93.5t-23 114.5v344h-57v76h365v-76h-60v-558q11 -2 22.5 -3.5t23.5 -1.5q91 0 155 64t64 155v9v335h-68v76h203v-76h-59v-344v-137q0 -34 25 -59t59 -25v-76v0zM510 766 l-33 -49l-95 64l-94 -64l-33 49l127 86l128 -86v0z" />
<glyph unicode="&#xdc;" horiz-adv-x="747" d="M730 -11q-53 1 -94 31.5t-58 78.5q-40 -49 -99.5 -78t-127.5 -29q-61 0 -114 23t-94 63q-40 40 -63 93.5t-23 114.5v344h-57v76h365v-76h-60v-558q11 -2 22.5 -3.5t23.5 -1.5q91 0 155 64t64 155v9v335h-68v76h203v-76h-59v-344v-137q0 -34 25 -59t59 -25v-76v0zM372 759 q0 -18 -13 -31t-31 -13t-31 13t-13 31t13 30.5t31 12.5t31 -12.5t13 -30.5v0zM476 759q0 -18 -12.5 -31t-30.5 -13t-31 13t-13 31t13 30.5t31 12.5t30.5 -12.5t12.5 -30.5v0z" />
<glyph unicode="&#xdd;" />
<glyph unicode="&#xde;" horiz-adv-x="771" d="M736 317v-10.5t-1 -10.5q-8 -84 -73 -153t-151 -68q-49 0 -86 27.5t-37 81.5q0 41 33.5 71t72.5 32h3.5h2.5q18 0 34.5 -6t32.5 -16l-42 -64q-4 3 -7.5 5t-6.5 3t-6 1.5t-6 0.5q-13 0 -24.5 -10t-11.5 -22q0 -4 2.5 -8.5t7.5 -9.5q6 -4 15.5 -7t23.5 -4q50 0 90 40t53 89 q3 9 4 18.5t1 18.5q0 51 -17 89t-45 63q-33 31 -77.5 46t-91.5 15h-21h-44v-453h91v-76h-420v76h77v554h-75v75h416v-75h-89v-25h44h21h9.5t9.5 -1q56 -2 108.5 -22.5t93.5 -57.5q38 -36 61.5 -87.5t24.5 -119.5v0z" />
<glyph unicode="&#xdf;" horiz-adv-x="797" d="M761 189q0 -98 -60.5 -146t-154.5 -48h-8t-8 1q-51 4 -94.5 36t-43.5 90q0 46 33.5 77t74.5 31h6.5t6.5 -1q14 -2 27 -8t24 -16q14 -12 21.5 -28.5t7.5 -36.5h-76q0 7 -4.5 10t-12.5 3q-2 0 -4 -0.5t-4 -0.5q-9 -2 -16.5 -10t-7.5 -20q0 -21 16.5 -33t35.5 -16 q7 -2 13.5 -2.5t12.5 -0.5q62 0 100.5 26t38.5 93q0 54 -41 82t-91 39q-21 4 -41.5 6t-37.5 2v76q29 1 51.5 24.5t31.5 51.5q2 7 3 13.5t1 12.5q2 89 -53.5 117t-132.5 26v-639h-332v76h55v59.5v59.5v59.5v59.5h-62v76h62v14v14v14v14q0 62 14 111t49 85q34 35 90.5 53.5 t118.5 20.5h6h6q56 0 106.5 -14.5t83.5 -43.5q31 -27 47 -65.5t18 -79.5v-4v-4q0 -34 -10.5 -67t-33.5 -59q66 -19 117 -66.5t51 -123.5v0z" />
<glyph unicode="&#xe0;" />
<glyph unicode="&#xe1;" />
<glyph unicode="&#xe2;" />
<glyph unicode="&#xe3;" />
<glyph unicode="&#xe4;" />
<glyph unicode="&#xe5;" />
<glyph unicode="&#xe6;" />
<glyph unicode="&#xe7;" />
<glyph unicode="&#xe8;" />
<glyph unicode="&#xe9;" />
<glyph unicode="&#xea;" />
<glyph unicode="&#xeb;" />
<glyph unicode="&#xec;" />
<glyph unicode="&#xed;" />
<glyph unicode="&#xee;" />
<glyph unicode="&#xef;" />
<glyph unicode="&#xf0;" />
<glyph unicode="&#xf1;" />
<glyph unicode="&#xf2;" />
<glyph unicode="&#xf3;" />
<glyph unicode="&#xf4;" />
<glyph unicode="&#xf5;" />
<glyph unicode="&#xf6;" />
<glyph unicode="&#xf7;" />
<glyph unicode="&#xf8;" />
<glyph unicode="&#xf9;" />
<glyph unicode="&#xfa;" />
<glyph unicode="&#xfb;" />
<glyph unicode="&#xfc;" />
<glyph unicode="&#xfd;" />
<glyph unicode="&#xfe;" />
<glyph unicode="&#xff;" />
<glyph unicode="&#x152;" horiz-adv-x="1072" d="M1060 188q1 -82 -63 -133.5t-141 -54.5h-4h-4h-485q-146 0 -250 103.5t-104 248.5q0 146 104 249t249 103h483l90 -152l-65 -39l-68 115h-125v-176h48v57h76v-189h-76v56h-48v-300h85.5h85.5q7 0 14 0.5t14 2.5q41 7 75 35.5t33 73.5q0 5 -0.5 11t-1.5 11q-5 27 -21.5 49 t-47.5 22q-3 0 -7 -0.5t-8 -0.5q-11 -3 -20.5 -9.5t-9.5 -19.5q0 -7 4.5 -11t11.5 -4v-76q-43 0 -67.5 29t-24.5 65v4.5v4.5q2 18 11 35.5t26 30.5q16 13 37 20.5t47 7.5q70 1 108 -51.5t39 -117.5v0zM425 76v552h-63q-8 0 -16.5 -0.5t-16.5 -1.5q-9 -1 -17.5 -2.5 t-16.5 -3.5v-536q17 -4 34 -6t34 -2h31.5h30.5v0z" />
<glyph unicode="&#x153;" />
<glyph unicode="&#x178;" horiz-adv-x="858" d="M842 591l-75 -7q0 2 -0.5 3.5t-0.5 2.5q-4 12 -14.5 22.5t-22.5 13.5q-3 1 -6 1h-6t-6 -0.5t-7 -0.5q-14 -4 -28.5 -13.5t-25.5 -19.5l-6 -6l-6 -6q-25 -28 -43.5 -67t-28.5 -80q-4 -18 -6.5 -36t-2.5 -35v-72v-71v-24v-24v-48v-48h95v-76h-425v76h79v80.5v80.5v80.5 v80.5v22.5t-1 23.5q-3 73 -22.5 133.5t-75.5 59.5q-47 -1 -86.5 -31.5t-38.5 -82.5q0 -29 17.5 -52.5t48.5 -23.5h3.5h3.5q16 1 29 9t13 26q0 1 -0.5 1.5l-1.5 1.5t-2 1.5l-3 1.5t-3.5 1.5t-2.5 0.5v76q33 0 60.5 -24.5t27.5 -59.5q0 -52 -37 -81.5t-87 -29.5 q-64 0 -102.5 45t-39.5 106q-1 95 70 143.5t156 49.5h1.5h1.5q95 0 170 -49t115 -132q4 9 8.5 18.5t10.5 19.5q29 49 75 90.5t103 41.5q8 0 15.5 -1t14.5 -3q37 -8 64 -39.5t31 -69.5v0z" />
<glyph unicode="&#x2c6;" horiz-adv-x="317" d="M309 742l-49 -34q-8 12 -20.5 18t-26.5 6q-8 0 -16 -2.5t-16 -7.5q-12 -8 -25.5 -12.5t-27.5 -6.5h-7.5h-6.5q-27 0 -52 12t-42 36l49 34q8 -12 21 -18t26 -6q8 0 16.5 2.5t15.5 7.5q15 10 32 14.5t34 4.5q27 0 52.5 -12.5t42.5 -35.5v0z" />
<glyph unicode="&#x2dc;" horiz-adv-x="317" d="M288 712l-33 -49l-95 64l-94 -64l-33 49l127 86l128 -86v0z" />
<glyph unicode="&#x2000;" horiz-adv-x="453" />
<glyph unicode="&#x2001;" horiz-adv-x="906" />
<glyph unicode="&#x2002;" horiz-adv-x="453" />
<glyph unicode="&#x2003;" horiz-adv-x="906" />
<glyph unicode="&#x2004;" horiz-adv-x="302" />
<glyph unicode="&#x2005;" horiz-adv-x="226" />
<glyph unicode="&#x2006;" horiz-adv-x="151" />
<glyph unicode="&#x2007;" horiz-adv-x="151" />
<glyph unicode="&#x2008;" horiz-adv-x="113" />
<glyph unicode="&#x2009;" horiz-adv-x="181" />
<glyph unicode="&#x200a;" horiz-adv-x="50" />
<glyph unicode="&#x2010;" />
<glyph unicode="&#x2011;" />
<glyph unicode="&#x2012;" />
<glyph unicode="&#x2013;" />
<glyph unicode="&#x2014;" />
<glyph unicode="&#x2018;" horiz-adv-x="162" d="M155 725l-69 -147l-76 36l69 147l76 -36v0z" />
<glyph unicode="&#x2019;" horiz-adv-x="162" d="M155 725l-69 -147l-76 36l69 147l76 -36v0z" />
<glyph unicode="&#x201a;" />
<glyph unicode="&#x201c;" horiz-adv-x="272" d="M155 725l-69 -147l-76 36l69 147l76 -36v0zM275 725l-69 -147l-76 36l69 147l76 -36v0z" />
<glyph unicode="&#x201d;" horiz-adv-x="272" d="M155 725l-69 -147l-76 36l69 147l76 -36v0zM275 725l-69 -147l-76 36l69 147l76 -36v0z" />
<glyph unicode="&#x201e;" />
<glyph unicode="&#x2022;" horiz-adv-x="414" d="M360 268q0 -61 -43.5 -104.5t-105.5 -43.5q-61 0 -105 43.5t-44 104.5q0 62 44 105.5t105 43.5q62 0 105.5 -43.5t43.5 -105.5v0z" />
<glyph unicode="&#x2026;" />
<glyph unicode="&#x202f;" horiz-adv-x="181" />
<glyph unicode="&#x2039;" horiz-adv-x="246" d="M230 244l-52 -55l-165 160l165 160l52 -54l-108 -106l108 -105v0z" />
<glyph unicode="&#x203a;" horiz-adv-x="246" d="M233 349l-165 -160l-52 55l108 105l-108 106l52 54l165 -160v0z" />
<glyph unicode="&#x205f;" horiz-adv-x="226" />
<glyph unicode="&#x2122;" />
<glyph unicode="&#xe000;" horiz-adv-x="790" d="M0 790h790v-790h-790v790z" />
</font>
</defs>
</svg>
