<?xml version="1.0" standalone="no"?>
<!DOCTYPE svg PUBLIC "-//W3C//DTD SVG 1.1//EN" "http://www.w3.org/Graphics/SVG/1.1/DTD/svg11.dtd" >
<svg xmlns="http://www.w3.org/2000/svg">
<metadata></metadata>
<defs>
<font id="hamburgerheavenregular" horiz-adv-x="478" >
<font-face units-per-em="1000" ascent="800" descent="-200" />
<missing-glyph horiz-adv-x="200" />
<glyph horiz-adv-x="1000" />
<glyph horiz-adv-x="1000" />
<glyph unicode="&#xd;" horiz-adv-x="200" />
<glyph unicode=" "  horiz-adv-x="200" />
<glyph unicode="&#x09;" horiz-adv-x="200" />
<glyph unicode="&#xa0;" horiz-adv-x="200" />
<glyph unicode="!" horiz-adv-x="223" d="M248 737l-68 -475q-1 -8 -1 -14q0 -29 31 -29l-6 -71q-75 0 -101 35q-20 28 -17 97l16 386h-39l6 71h179zM202 65q0 -27 -19 -46t-46 -19t-46 19t-19 46t19 46t46 19t46 -19t19 -46z" />
<glyph unicode="&#x22;" horiz-adv-x="293" d="M336 683q-2 -19 -22.5 -64.5t-23.5 -75.5h-56q3 30 -10 75.5t-12 64.5q2 25 22 43.5t46 18.5q25 0 41.5 -18t14.5 -44zM196 683q-2 -19 -22.5 -64.5t-23.5 -75.5h-56q3 30 -10 75.5t-12 64.5q2 25 22 43.5t46 18.5q25 0 41.5 -18t14.5 -44z" />
<glyph unicode="#" horiz-adv-x="472" d="M487 381h-142l-28 -151h-68l28 151h-56l-28 -151h-68l28 151h-102v67h114l11 59h-125v67h138l30 163h68l-30 -163h56l30 163h68l-30 -163h106v-67h-119l-11 -59h130v-67zM300 507h-56l-11 -59h56z" />
<glyph unicode="$" horiz-adv-x="390" d="M395 738l-6 -67h-73l-44 -224l72 -93q45 -58 45 -136q0 -102 -78 -164q-52 -41 -126 -50l-13 -66h-67l12 63h-78l6 66l85 1l49 248l-95 131q-28 39 -28 91q0 91 74 151q51 41 132 48l7 37h68l-7 -36h65zM248 666q-57 -16 -57 -74q0 -37 28 -75zM232 242l-32 -161 q55 26 55 86q0 37 -23 75z" />
<glyph unicode="%" horiz-adv-x="927" d="M928 365l-20 -223q-5 -59 -60.5 -101t-127.5 -42h-21q-68 0 -116 36q-53 41 -47 107l19 223q6 66 66 106q54 36 122 36h21q69 0 117 -36q53 -40 47 -106zM702 737l-356 -737h-72l356 737h72zM439 594l-19 -223q-5 -58 -60.5 -100t-127.5 -42h-21q-69 0 -116 36 q-53 40 -47 106l19 223q6 66 66 107q54 36 122 36h21q69 0 116 -36q53 -41 47 -107zM794 365q3 35 -11 55t-35 20t-38.5 -20t-20.5 -55l-20 -223q-3 -35 11 -55t35 -21t38.5 19t20.5 57zM306 594q3 35 -11 55t-35 20t-38.5 -20t-20.5 -55l-20 -223q-3 -35 11 -55t35 -21 t38.5 19t20.5 57z" />
<glyph unicode="&#x26;" horiz-adv-x="531" d="M532 508l-6 -67h-102l-23 -267l57 -107h50l-6 -67h-148l-21 39q-54 -39 -144 -39q-87 0 -132 51v-1q-31 34 -31 81v11l19 224q5 58 59 102q-25 46 -29 55q-12 29 -12 60q0 69 56 113q51 41 122 41h193l-6 -67h-163q-73 0 -73 -74q0 -29 13 -54l81 -153l10 119h236z M266 164l-90 169l-16 -191v-11q0 -63 45 -63q26 0 43 25q13 21 16 49z" />
<glyph unicode="'" horiz-adv-x="162" d="M196 683q-2 -19 -22.5 -64.5t-23.5 -75.5h-56q3 30 -10 75.5t-12 64.5q2 25 22 43.5t46 18.5q25 0 41.5 -18t14.5 -44z" />
<glyph unicode="(" horiz-adv-x="272" d="M300 737l-6 -67h-46q-18 0 -32 -16.5t-16 -42.5l-61 -706q-2 -26 8.5 -42.5t27.5 -16.5h47l-6 -67h-63q-67 0 -108 36q-45 40 -39 107l59 672q6 67 57 107q48 36 114 36h64z" />
<glyph unicode=")" horiz-adv-x="263" d="M-12 -221l6 67h46q18 0 32 16.5t16 42.5l61 706q2 26 -8.5 42.5t-27.5 16.5h-47l6 67h63q67 0 108 -36q45 -40 39 -107l-59 -672q-6 -67 -57 -107q-48 -36 -114 -36h-64z" />
<glyph unicode="*" horiz-adv-x="333" d="M356 631l-85 -49l84 -49l-33 -58l-84 48v-97h-66v99l-85 -49l-33 58l83 48l-84 48l34 58l85 -49v98h66v-97l84 49z" />
<glyph unicode="+" horiz-adv-x="592" d="M354 237v-237h-85v237h-237v85h237v237h85v-237h237v-85h-237z" />
<glyph unicode="," horiz-adv-x="155" d="M136 42q0 -58 -39 -91q-23 -20 -60 -21v40q31 -2 41 26q-10 -2 -19 0q-25 4 -39.5 25.5t-10.5 46.5q5 25 26 40t46 10q55 -10 55 -76z" />
<glyph unicode="-" horiz-adv-x="216" d="M224 420l-9 -100h-177l9 100h177z" />
<glyph unicode="." horiz-adv-x="157" d="M136 57q0 -25 -18 -43t-44 -18q-25 0 -43 18t-18 43q0 26 17.5 44t43.5 18t44 -18t18 -44z" />
<glyph unicode="/" horiz-adv-x="418" d="M459 737l-454 -940h-92l454 940h92z" />
<glyph unicode="0" horiz-adv-x="409" d="M415 366l-20 -224q-5 -59 -60 -100.5t-128 -41.5h-20q-69 0 -117 36q-53 40 -47 106l20 224q6 66 66 106q53 36 122 36h21q68 0 116 -36q53 -41 47 -106zM281 366q3 35 -12 56q-13 18 -34 18q-22 0 -38 -18q-18 -21 -21 -56l-19 -224q-3 -38 10.5 -59t35.5 -21 q21 0 38.5 21t20.5 59z" />
<glyph unicode="1" horiz-adv-x="284" d="M263 67l-6 -67h-244l6 67h55l33 374h-57l6 67h190l-38 -441h55z" />
<glyph unicode="2" horiz-adv-x="381" d="M387 383q0 -82 -74 -160l-148 -156h176l-6 -67h-327l6 66l210 215q51 52 42 109t-71 51q-28 -3 -50.5 -23.5t-25.5 -51.5l-2 -22h-67l2 22q6 69 59 107q47 35 117 35q68 0 110 -29q49 -33 49 -96z" />
<glyph unicode="3" horiz-adv-x="363" d="M378 508l-141 -245q48 -14 76 -48q31 -38 27 -87l-14 -162q-5 -58 -60.5 -100t-127.5 -42h-21q-59 0 -97 42t-33 100h67q-3 -33 17 -53l1 -1q22 -22 51 -22q62 0 69 76l17 188q5 50 -38 50h-106l138 237h-160l6 67h329z" />
<glyph unicode="4" horiz-adv-x="507" d="M491 67l-6 -67h-77l-16 -176h-133l15 176h-271l305 508h144l-38 -441h77zM297 259l-116 -192h99z" />
<glyph unicode="5" horiz-adv-x="358" d="M343 508l-5 -67h-153l-14 -170q70 0 119 -35q55 -40 49 -108l-15 -162q-5 -59 -60 -100.5t-128 -41.5h-21q-58 0 -96.5 41.5t-33.5 100.5h67q-2 -31 18 -53.5t51 -22.5q64 0 70 76l15 179q5 59 -37 59h-139l27 304h286z" />
<glyph unicode="6" horiz-adv-x="416" d="M416 366l-20 -224q-5 -59 -60 -100.5t-128 -41.5h-20q-69 0 -117 36q-53 40 -47 106l31 354q8 89 86 146q72 53 164 53h82l-6 -67h-82q-43 0 -73 -26.5t-33 -63.5l-3 -34q17 4 42 4h21q68 0 116 -36q53 -41 47 -106zM282 366q3 35 -10.5 55t-34.5 20t-38 -18 q-18 -21 -21 -56l-20 -225q-3 -34 11 -53t35 -19t38.5 19t20.5 53z" />
<glyph unicode="7" horiz-adv-x="404" d="M423 508l-246 -684h-135l222 617h-220l6 67h373z" />
<glyph unicode="8" horiz-adv-x="423" d="M416 324l-16 -182q-5 -59 -60 -100.5t-128 -41.5h-21q-68 0 -116 36q-53 40 -47 106l16 182q6 69 69 108q-7 5 -19 17q-32 34 -32 85q0 66 49 110q56 51 151 51q96 0 143 -51q31 -34 31 -85q0 -66 -48 -110q-3 -3 -22 -17q56 -40 50 -108zM257 629q-26 0 -45 -35 q-16 -30 -16 -58q0 -23 12 -45q13 -26 34 -26q13 0 29 14q32 29 32 78q0 22 -12 45q-13 27 -34 27zM282 324q3 35 -12 56q-13 18 -34 18t-37 -18q-18 -21 -21 -56l-16 -182q-3 -35 11 -54.5t35 -19.5q22 0 39 19.5t20 54.5z" />
<glyph unicode="9" horiz-adv-x="411" d="M415 366l-30 -344q-8 -89 -86 -146q-71 -52 -164 -52h-82l6 66h82q43 0 73.5 26.5t33.5 63.5l2 24q-19 -4 -43 -4h-21q-68 0 -116 36q-53 41 -47 106l20 224q5 59 60 100.5t128 41.5h21q68 0 116 -36q53 -40 47 -106zM281 366q3 34 -11 53t-35 19t-38.5 -19t-20.5 -53 l-19 -224q-3 -35 10.5 -55t34.5 -20t39 19.5t21 54.5z" />
<glyph unicode=":" horiz-adv-x="157" d="M164 300q0 -25 -18 -43t-44 -18q-25 0 -43 18t-18 43q0 26 17.5 44t43.5 18t44 -18t18 -44zM138 57q0 -25 -18 -43t-44 -18q-25 0 -43 18t-18 43q0 26 17.5 44t43.5 18t44 -18t18 -44z" />
<glyph unicode=";" horiz-adv-x="157" d="M164 300q0 -25 -18 -43t-44 -18q-25 0 -43 18t-18 43q0 26 17.5 44t43.5 18t44 -18t18 -44zM141 42q0 -58 -39 -91q-23 -20 -60 -21v40q31 -2 41 26q-10 -2 -19 0q-25 4 -39.5 25.5t-10.5 46.5q5 25 26 40t46 10q55 -10 55 -76z" />
<glyph unicode="&#x3c;" horiz-adv-x="575" d="M29 333v70l535 212v-85l-410 -162l410 -161v-85z" />
<glyph unicode="=" horiz-adv-x="611" d="M599 345h-559v85h559v-85zM599 123h-559v85h559v-85z" />
<glyph unicode="&#x3e;" horiz-adv-x="575" d="M589 333v70l-535 212v-85l410 -162l-410 -161v-85z" />
<glyph unicode="?" horiz-adv-x="389" d="M412 566q0 -98 -106 -174q-29 -16 -95 -57q-40 -26 -48 -34q-21 -22 -24 -56l-8 -85h-72l12 128q5 52 27 86q18 28 59.5 57.5t58.5 50.5q29 36 33 88q3 40 -21 68t-64 28h-97l6 71h115q88 0 151 -41q73 -48 73 -130zM160 65q0 -27 -19 -46t-46 -19t-46 19t-19 46t19 46 t46 19t46 -19t19 -46z" />
<glyph unicode="@" horiz-adv-x="823" d="M823 368q-18 -213 -202 -213q-62 0 -106 27q-44 -27 -99 -27h-16q-61 0 -102 30q-48 35 -43 93l15 182q5 57 59 92q48 30 108 30h173l-25 -281q-6 -72 34 -72q8 0 17 2q28 7 52 38q30 40 35 99q1 16 1 32q0 117 -65 190q-70 80 -195 80q-129 0 -215 -104 q-80 -97 -80 -228q0 -114 69.5 -192.5t172.5 -78.5h166l-6 -67h-166q-159 0 -264.5 94.5t-105.5 241.5q0 173 133 289q127 112 302 112q162 0 258.5 -86t96.5 -241q0 -20 -2 -42zM470 516q-37 0 -47 -6q-16 -9 -19 -47l-16 -185q-5 -59 26 -60q30 -1 35 60z" />
<glyph unicode="A" horiz-adv-x="447" d="M449 582l-42 -478q-3 -36 29 -37l-6 -67h-53q-50 0 -78 25q-31 28 -26 79l15 170h-121l-24 -274h-133l51 582q7 80 77 121q56 34 130 34t125 -34q63 -42 56 -121zM317 601q3 29 -12 49t-43 20q-27 0 -45 -20t-21 -49l-23 -260h121z" />
<glyph unicode="B" horiz-adv-x="442" d="M455 582l-6 -69q-6 -66 -61 -115q63 -45 56 -127l-10 -116q-5 -64 -54.5 -109.5t-113.5 -45.5h-222l58 670h-38l5 67h245q64 0 105.5 -45.5t35.5 -109.5zM323 601q2 28 -16 48.5t-46 20.5h-26l-21 -245h34q26 4 45 23.5t21 44.5zM313 290q2 27 -15 47.5t-43 20.5h-47 l-26 -292h43q28 0 49.5 20.5t24.5 48.5z" />
<glyph unicode="C" horiz-adv-x="377" d="M408 737l-6 -67h-155q-18 0 -32 -16.5t-16 -42.5l-41 -469q-4 -40 18 -61q18 -17 49 -15q30 2 53.5 23t26.5 53h67q-5 -58 -50.5 -100t-104.5 -42q-46 0 -64 3q-57 9 -93 44q-40 39 -35 95l39 452q6 67 57 107q48 36 114 36h173z" />
<glyph unicode="D" horiz-adv-x="453" d="M474 582l-37 -427q-6 -64 -55 -109.5t-113 -45.5h-223l59 670h-39l6 67h261q64 0 105.5 -45.5t35.5 -109.5zM343 601q3 28 -15.5 48.5t-47.5 20.5h-42l-53 -604h42q28 0 50 20.5t25 48.5z" />
<glyph unicode="E" horiz-adv-x="366" d="M408 737l-6 -67h-135q-29 0 -51 -20.5t-24 -48.5l-17 -199h167l-5 -67h-168l-18 -200q-3 -28 15.5 -48.5t47.5 -20.5h135l-6 -66h-182q-64 0 -105.5 45.5t-35.5 109.5l37 427q6 64 55.5 109.5t113.5 45.5h182z" />
<glyph unicode="F" horiz-adv-x="381" d="M424 737l-5 -67h-211l-24 -268h146l-6 -67h-146l-29 -335h-134l65 737h344z" />
<glyph unicode="G" horiz-adv-x="453" d="M490 737l-6 -67h-238q-18 0 -31.5 -16.5t-15.5 -42.5l-41 -469q-4 -40 17 -61q19 -17 49 -15t53.5 23t26.5 53l23 260h134l-42 -478q-5 -59 -60.5 -101t-127.5 -42h-135l6 67h109q29 0 50 22t24 54l9 98q-36 -22 -78 -22q-46 0 -64 3q-57 9 -93 44q-40 39 -35 95l39 452 q6 67 58 107q47 36 114 36h255z" />
<glyph unicode="H" horiz-adv-x="489" d="M498 737l-55 -633q-3 -37 33 -37l-6 -67h-57q-49 0 -78 26.5t-25 77.5l20 231h-127l-29 -335h-134l59 670h-38l6 67h171l-29 -335h126l29 335h134z" />
<glyph unicode="I" horiz-adv-x="164" d="M205 737l-64 -737h-134l64 737h134z" />
<glyph unicode="J" horiz-adv-x="197" d="M220 737l-71 -813q-5 -61 -53 -102t-119 -41h-151l6 67h109q67 0 74 76l71 813h134z" />
<glyph unicode="K" horiz-adv-x="472" d="M497 737l-205 -314h47q45 0 73 -21q32 -23 32 -64q0 -9 -2 -19l-1 -6h1l-18 -209q-3 -36 30 -37l-6 -67h-55q-49 0 -78 26.5t-25 77.5l18 215q3 37 -34 37h-71l-31 -356h-134l59 670h-39l6 67h172l-24 -281l184 281h101z" />
<glyph unicode="L" horiz-adv-x="389" d="M372 67l-5 -67h-210q-49 0 -78 26.5t-25 77.5l49 566h-37l6 67h170l-54 -633q-3 -37 34 -37h150z" />
<glyph unicode="M" horiz-adv-x="737" d="M731 579l-40 -475q-3 -36 30 -37l-6 -67h-55q-49 0 -78 26t-25 78l41 483q7 78 -51 78h-58l-59 -665h-134l52 587q7 78 -53 78h-58l-58 -665h-134l59 670h-39l6 67h482q79 0 129 -39q55 -43 49 -119z" />
<glyph unicode="N" horiz-adv-x="491" d="M484 579l-41 -475q-3 -36 29 -37l-6 -67h-54q-49 0 -77 25q-32 28 -27 79l42 475q4 41 -11.5 64t-39.5 23l-58 -1l-58 -665h-134l58 670h-40l6 67h232q80 0 130 -39q56 -43 49 -119z" />
<glyph unicode="O" horiz-adv-x="448" d="M473 582l-38 -427q-6 -66 -57 -109q-54 -46 -136 -46h-44q-81 0 -127 46q-45 43 -39 109l37 427q6 66 59.5 110.5t134.5 44.5h43q81 0 127 -44.5t40 -110.5zM341 601q2 28 -16 48.5t-46 20.5t-50 -20.5t-25 -48.5l-41 -466q-3 -28 15.5 -48.5t47.5 -20.5t51 20t24 49z " />
<glyph unicode="P" horiz-adv-x="450" d="M470 582l-10 -120q-5 -64 -54.5 -109t-113.5 -45h-90l-26 -308h-134l59 670h-39l6 67h261q64 0 105 -45.5t36 -109.5zM339 601q3 28 -15.5 48.5t-47.5 20.5h-42l-26 -296h42q28 0 50 20.5t25 48.5z" />
<glyph unicode="Q" horiz-adv-x="450" d="M469 582l-38 -427q-5 -57 -45.5 -99t-105.5 -53l-6 -59q-3 -28 15.5 -48.5t47.5 -20.5h17l-6 -66h-64q-64 0 -105.5 45t-35.5 109l4 42q-60 13 -92 54t-27 96l37 427q6 66 59.5 110.5t134.5 44.5h43q81 0 127 -44.5t40 -110.5zM337 601q2 28 -16 48.5t-46 20.5t-50 -20.5 t-25 -48.5l-41 -466q-3 -28 15.5 -48.5t47.5 -20.5t51 20t24 49z" />
<glyph unicode="R" horiz-adv-x="483" d="M417 402q32 -24 32 -72l-1 -17l-18 -209v-8q0 -29 33 -29l-6 -67h-57q-104 0 -104 92q0 6 1 12l17 207v9q0 36 -33 36h-72l-31 -356h-133l58 670h-39l6 66h241q69 0 113 -29q51 -34 51 -99q0 -154 -58 -206zM342 623q1 20 -12 33.5t-34 13.5h-59l-22 -247h68q43 0 47 50z " />
<glyph unicode="S" horiz-adv-x="398" d="M371 737l-6 -67h-64q-50 0 -70 -13q-38 -25 -38 -66q0 -39 30 -78l123 -160q45 -58 45 -135q0 -103 -79 -165q-67 -53 -172 -53h-99l7 67h86q59 0 91 27.5t32 70.5q0 45 -33 90l-138 191q-29 40 -29 92q0 92 74 150q62 49 152 49h88z" />
<glyph unicode="T" horiz-adv-x="352" d="M395 736l-6 -66h-96l-58 -670h-134l59 670h-96l6 66h325z" />
<glyph unicode="U" horiz-adv-x="502" d="M494 737l-54 -625v-10q0 -35 42 -35l-6 -67h-59q-55 0 -86 29q-53 -29 -115 -29q-65 0 -111 32q-52 36 -52 99v11l46 528h-36l6 66h169l-51 -586v-11q0 -67 55 -67q29 0 48 26q17 23 19 52l50 587h135z" />
<glyph unicode="V" horiz-adv-x="445" d="M479 737l-43 -495q-9 -99 -84.5 -170.5t-174.5 -72.5h-134l58 671h-35l6 67h170l-59 -671q42 1 75 30t37 70l50 571h134z" />
<glyph unicode="W" horiz-adv-x="755" d="M742 737l-58 -670h53l-5 -67h-498q-79 0 -129 39q-56 43 -49 119l44 512h-38l6 67h172l-51 -588q-7 -77 52 -77h58l58 665h134l-51 -588q-7 -77 52 -77h58l58 665h134z" />
<glyph unicode="X" horiz-adv-x="498" d="M512 737l-21 -239q-7 -80 -78 -124q63 -44 56 -124l-13 -146q-3 -36 27 -37l-6 -67h-50q-50 0 -78 25q-31 28 -26 79l15 165q3 28 -15.5 48.5t-47.5 20.5q-28 0 -50 -20.5t-25 -48.5l-24 -269h-133l22 250q7 80 78 124q-63 44 -56 124l15 172h-39l6 67h172l-23 -259 q-3 -28 15.5 -48t47.5 -20t51 20t24 48l22 259h134z" />
<glyph unicode="Y" horiz-adv-x="477" d="M510 737l-21 -230q-5 -55 -43.5 -96t-101.5 -54l-31 -357h-133l31 356q-63 11 -96.5 52.5t-28.5 98.5l14 163h-37l6 67h170l-22 -250q-2 -28 16.5 -48t46.5 -20t50.5 20t24.5 48l21 250h134z" />
<glyph unicode="Z" horiz-adv-x="461" d="M492 736l-316 -669h262l-6 -67h-432l315 670h-202l6 66h373z" />
<glyph unicode="[" horiz-adv-x="251" d="M291 737l-6 -67h-80l-72 -823h80l-8 -67h-211l84 957h213z" />
<glyph unicode="\" horiz-adv-x="418" d="M474 -203h-92l-324 940h92z" />
<glyph unicode="]" horiz-adv-x="255" d="M-12 -221l6 67h80l72 823h-80l8 67h211l-84 -957h-213z" />
<glyph unicode="^" horiz-adv-x="514" d="M266 583l-173 -413l-78 32l211 504h80l212 -504l-78 -32zM266 583z" />
<glyph unicode="_" horiz-adv-x="500" d="M500 -72h-500v50h500v-50z" />
<glyph unicode="`" horiz-adv-x="229" d="M264 594l-29 -60l-181 84l28 61z" />
<glyph unicode="a" d="M465 67l-6 -67h-47q-70 0 -102 41q-44 -41 -103 -41h-21q-68 0 -116 36q-53 40 -47 106l19 224q6 65 66 106q54 36 122 36h231l-34 -396q-4 -43 38 -45zM321 441h-96q-43 0 -47 -50l-22 -257q-6 -67 57 -67q31 0 55 22t27 53z" />
<glyph unicode="b" horiz-adv-x="483" d="M487 366l-20 -224q-6 -70 -71 -109q-54 -33 -127 -33q-69 0 -106 41q-41 -41 -109 -41h-49l6 67q43 2 47 45l55 625h185l-5 -67h-51l-14 -162h96q68 0 116 -36q53 -41 47 -106zM356 391q4 50 -38 50h-96l-27 -299q-3 -31 17.5 -53t51.5 -22q63 0 69 67z" />
<glyph unicode="c" horiz-adv-x="365" d="M368 508l-6 -67h-142q-19 0 -32 -18.5t-15 -39.5l-23 -263q-1 -22 17 -37.5t41 -15.5q31 0 55 22t27 53h67q-5 -58 -50.5 -100t-104.5 -42h-21q-65 0 -111 32q-52 36 -52 99v11l20 224q6 65 65 106q54 36 123 36h142z" />
<glyph unicode="d" horiz-adv-x="484" d="M481 737l-55 -625q-4 -45 42 -45l-6 -67h-50q-69 0 -103 41q-44 -41 -113 -41q-73 0 -122 33q-57 38 -51 109l19 224q6 65 66 106q54 36 122 36h96l15 162h-38l6 67h172zM321 441h-97q-42 0 -46 -50l-22 -257q-6 -67 56 -67q31 0 55 22t27 53z" />
<glyph unicode="e" horiz-adv-x="369" d="M377 366h-67q3 31 -16 51.5t-46 23.5q-37 3 -58.5 -25t-21.5 -65q0 -64 47 -64h124l-6 -66h-123q-27 0 -43.5 -25.5t-16.5 -58.5q0 -31 16.5 -52t48.5 -19q27 2 49.5 22.5t25.5 53.5h67q-6 -68 -58 -107q-48 -35 -117 -35q-66 0 -115 40q-52 41 -48 102q5 70 69 112 q-55 52 -50 112q6 65 66 105q54 37 122 37q70 0 111 -35q46 -38 40 -107z" />
<glyph unicode="f" horiz-adv-x="343" d="M384 737l-6 -67h-76q-17 0 -31 -17t-16 -42l-9 -103h73l-6 -67h-73l-45 -517q-5 -60 -56.5 -101.5t-123.5 -41.5h-76l6 67h68q42 0 47 59l46 534h-63l6 67h63l8 86q6 67 57 107q47 36 114 36h93z" />
<glyph unicode="g" horiz-adv-x="417" d="M434 508l-6 -67h-56q11 -21 8 -50l-15 -172q-5 -56 -58 -89q80 -54 71 -147h43l-6 -67h-43l-3 -38q-4 -55 -57 -89q-46 -29 -104 -29h-66q-59 0 -99 29q-47 33 -42 89l9 105h235q3 37 -18 75q-23 43 -58 43q-57 0 -97 30q-46 33 -41 88l15 172q5 55 57 88q46 29 104 29 h227zM247 391q2 25 -7 38t-22 13q-34 -1 -38 -51l-15 -172q-4 -51 29 -52q32 -1 37 52zM239 -84h-101l-3 -38q-2 -27 11.5 -42.5t33.5 -15.5t36 15.5t19 42.5z" />
<glyph unicode="h" horiz-adv-x="480" d="M463 65l-6 -67h-52q-49 0 -79 25q-34 28 -30 77l22 262q6 76 -48 76h-54l-38 -438h-134l59 670h-39l6 67h172l-20 -229h54q80 0 127 -35q55 -40 48 -119l-21 -254q-2 -22 7 -30q6 -5 26 -5z" />
<glyph unicode="i" horiz-adv-x="241" d="M232 669q0 -28 -20 -48.5t-48 -20.5t-48 20t-20 49q0 28 20 48t48 20t48 -20t20 -48zM226 67l-6 -67h-20q-73 0 -113 33.5t-35 91.5l28 316h-38l6 67h171l-33 -383q-4 -52 40 -58z" />
<glyph unicode="j" horiz-adv-x="201" d="M229 669q0 -28 -20 -48.5t-49 -20.5q-28 0 -48 20.5t-20 48.5t20 48t48 20t48.5 -20t20.5 -48zM217 508l-51 -584q-5 -59 -60.5 -101t-128.5 -42h-67l6 67h67q42 0 47 59l47 534h-36l6 67h170z" />
<glyph unicode="k" horiz-adv-x="472" d="M493 508l-183 -181q57 -13 88 -49q35 -40 31 -99l-5 -69q-3 -41 34 -43l-5 -67h-46q-52 0 -83 20q-38 25 -35 73l6 86q2 33 -10 58q-15 29 -47 29q-21 0 -45 -16l-22 -250h-133l58 670h-38l6 67h172l-34 -386l158 157h133z" />
<glyph unicode="l" horiz-adv-x="242" d="M239 737l-53 -612q-5 -54 41 -58l-5 -67h-22q-73 0 -113 33.5t-35 91.5l48 545h-36l6 67h169z" />
<glyph unicode="m" horiz-adv-x="727" d="M711 67l-6 -67h-62q-49 0 -80 24q-34 28 -30 78l24 277q2 23 -11 42.5t-38 19.5h-54l-39 -441h-134l33 379q2 23 -11 42.5t-38 19.5h-54l-39 -441h-133l38 441h-35l6 67h466q84 0 130 -34q52 -37 46 -111l-22 -253q-3 -30 8 -38q6 -5 35 -5z" />
<glyph unicode="n" horiz-adv-x="480" d="M465 67l-6 -67h-57q-50 0 -80 24q-34 28 -30 78l24 277q2 23 -10 41q-15 21 -39 21h-54l-39 -441h-134l39 441h-38l6 67h226q83 0 129 -33q52 -38 46 -112l-21 -253q-2 -29 7 -37q6 -6 31 -6z" />
<glyph unicode="o" horiz-adv-x="406" d="M413 366l-20 -224q-5 -59 -60 -100.5t-128 -41.5h-20q-69 0 -117 36q-53 40 -47 106l20 224q6 66 66 106q53 36 122 36h21q68 0 116 -36q53 -41 47 -106zM279 366q3 36 -10.5 55t-35.5 19q-21 0 -38 -18q-18 -21 -21 -56l-19 -224q-3 -34 11 -54t35 -21t38.5 18.5 t20.5 56.5z" />
<glyph unicode="p" horiz-adv-x="440" d="M445 366l-20 -224q-6 -66 -66 -106q-54 -36 -122 -36h-21q-25 0 -42 4l-19 -223h-134l58 660h-38l5 67h235q69 0 117 -36q53 -40 47 -106zM312 383q5 58 -45 58h-54l-27 -299q-3 -35 11 -55t35 -20q22 0 39 19.5t20 55.5z" />
<glyph unicode="q" horiz-adv-x="441" d="M465 508l-6 -67h-38l-58 -660h-133l19 223q-17 -4 -42 -4h-21q-69 0 -116 36q-53 40 -47 106l19 224q6 65 66 106q54 36 122 36h235zM287 441h-62q-43 0 -47 -50l-22 -249q-3 -35 11 -55t35 -20t38.5 20t20.5 55z" />
<glyph unicode="r" horiz-adv-x="378" d="M395 508l-13 -139h-73l5 66q-46 -17 -78 -62t-36 -95l-24 -278h-134l39 441h-38l6 67h171l-3 -43q52 43 133 43h45z" />
<glyph unicode="s" horiz-adv-x="354" d="M340 143q0 59 -45 115l-98 121q-13 16 -13 32q0 30 50 30h79l6 67h-110q-68 0 -116 -33q-55 -37 -55 -103q0 -52 39 -97l80 -91q22 -25 22 -58q0 -59 -62 -59h-107l-6 -67h159q72 0 121 35q56 40 56 108z" />
<glyph unicode="t" horiz-adv-x="268" d="M291 508l-6 -67h-57l-28 -317q-5 -51 41 -56l-6 -68h-47q-58 0 -91 31q-36 33 -31 93l28 317h-53l6 67h53l10 118h134l-11 -118h58z" />
<glyph unicode="u" horiz-adv-x="466" d="M451 67l-6 -67h-239q-75 0 -118 38q-47 41 -40 116l25 287h-35l6 67h168l-31 -371q-2 -28 10.5 -49t37.5 -21h48l39 441h134l-38 -441h39z" />
<glyph unicode="v" horiz-adv-x="439" d="M454 508l-23 -266q-9 -99 -84.5 -170.5t-174.5 -72.5h-134l38 442h-35l6 67h170l-39 -442q42 0 75 29.5t37 70.5l30 342h134z" />
<glyph unicode="w" horiz-adv-x="737" d="M719 67l-6 -67h-482q-84 0 -130 34q-52 37 -46 111l26 296h-39l5 67h175l-34 -379q-2 -23 10 -41q15 -21 39 -21h55l38 441h134l-33 -379q-2 -23 10 -41q15 -21 39 -21h54l39 441h134l-39 -441h51z" />
<glyph unicode="x" horiz-adv-x="465" d="M481 508l-6 -67h-26l-5 -55q-5 -54 -49 -101q-12 -13 -29 -25q13 -9 25 -25q36 -47 31 -101l-6 -67h34l-6 -67h-168l12 134q4 43 -9.5 67t-35.5 24q-21 0 -38.5 -24t-21.5 -67l-11 -134h-163l5 67h30l6 67q5 56 48 101q16 16 29 25q-18 16 -25 25q-34 44 -30 101l4 55 h-31l6 67h165l-11 -122q-4 -42 9.5 -66t34.5 -24q22 0 39.5 24t21.5 66l11 122h160z" />
<glyph unicode="y" horiz-adv-x="435" d="M451 508l-51 -584q-5 -59 -60.5 -101t-128.5 -42h-135l6 67h127q50 0 55 59l8 93h-44q-78 0 -127 38q-54 42 -48 116l25 287h-36l6 67h170l-33 -379q-5 -62 49 -62h44l39 441h134z" />
<glyph unicode="z" horiz-adv-x="444" d="M482 508l-283 -441h229l-6 -67h-431l283 441h-227l6 67h429z" />
<glyph unicode="{" horiz-adv-x="329" d="M368 737l-6 -67h-47q-17 0 -31 -16.5t-16 -42.5l-19 -219q-7 -82 -82 -133q66 -49 59 -132l-20 -222q-2 -26 9 -42.5t28 -16.5h47l-6 -67h-63q-67 0 -108 36q-45 40 -39 107l22 244q3 29 -17 50.5t-49 21.5l3 40q30 1 53 22t26 50l21 244q6 67 57 107q48 36 114 36h64z " />
<glyph unicode="|" horiz-adv-x="150" d="M138 -252h-85v1002h85v-1002z" />
<glyph unicode="}" horiz-adv-x="320" d="M-16 -221l6 67h47q17 0 31 16.5t16 42.5l19 219q7 82 82 133q-66 49 -59 132l20 222q2 26 -9 42.5t-28 16.5h-47l6 67h63q67 0 108 -36q45 -40 39 -107l-22 -244q-3 -29 17 -50.5t49 -21.5l-3 -40q-30 -1 -53 -22t-26 -50l-21 -244q-6 -67 -57 -107q-48 -36 -114 -36h-64 z" />
<glyph unicode="~" horiz-adv-x="700" d="M720 435q-11 -81 -86 -131q-53 -36 -113 -36q-46 0 -87 23l-167 92q-27 15 -58 15q-39 0 -67 -23t-35 -72l-84 10q9 83 65 128q52 42 121 42q53 0 100 -26l167 -92q22 -12 46 -12q33 0 64 21q45 31 50 71z" />
<glyph unicode="&#xa1;" horiz-adv-x="175" d="M-5 -202l68 475q1 8 1 14q0 29 -31 29l6 71q75 0 101 -35q20 -28 17 -97l-16 -386h39l-6 -71h-179zM41 470q0 27 19 46t46 19t46 -19t19 -46t-19 -46t-46 -19t-46 19t-19 46z" />
<glyph unicode="&#xa2;" horiz-adv-x="362" d="M375 622l-6 -67h-87l-32 -366q42 22 47 67h67q-4 -49 -38 -87.5t-82 -50.5l-10 -118h-67l10 114q-62 4 -104 36q-48 36 -48 95v11l20 224q6 63 60 103q50 36 116 39l10 115h67l-10 -115h87zM215 553q-31 -13 -35 -56l-23 -262q-1 -28 26 -45z" />
<glyph unicode="&#xa3;" horiz-adv-x="449" d="M476 594h-67q4 37 -19 59q-20 19 -52 19t-55 -19q-27 -22 -30 -59l-19 -217h102l-5 -67h-103l-14 -168q-3 -40 -32 -75h214l-6 -67h-382l6 67h17q43 0 47 50l17 193h-59l5 67h60l19 217q6 66 66 107q54 36 122 36h38q59 0 97 -42t33 -101z" />
<glyph unicode="&#xa4;" horiz-adv-x="451" d="M478 594h-66q3 35 -18.5 55t-52.5 20q-32 0 -56 -18q-26 -21 -29 -57l-12 -146h172l-43 -67h-135l-2 -26h121l-43 -66h-84l-15 -164q-2 -25 9 -41.5t28 -16.5h88l-6 -67h-88q-68 0 -116 36q-53 41 -47 106l13 147h-73l42 66h37l2 26h-73l43 67h36l11 130q7 77 67 121 q53 38 123 38h37q59 0 97 -42t33 -101z" />
<glyph unicode="&#xa5;" horiz-adv-x="502" d="M516 461l-6 -67h-89q-18 -15 -40 -26h127l-6 -67h-168l-26 -301h-134l26 301h-171l6 67h131q-20 10 -36 26h-93l6 67h51q-4 24 -2 42l15 167h-41l5 67h176l-21 -234q-4 -41 13 -66q14 -22 38 -22t43 23t23 64l21 235h133l-21 -235q-2 -23 -8 -41h48z" />
<glyph unicode="&#xa6;" horiz-adv-x="148" d="M138 269h-85v480h85v-480zM138 -251h-85v480h85v-480z" />
<glyph unicode="&#xa7;" horiz-adv-x="438" d="M447 359q0 63 -56 127l-108 122q-17 19 -17 35q0 27 48 27h79v67h-110q-64 0 -108 -30q-51 -34 -51 -95q0 -56 45 -106q-55 -6 -91 -36q-40 -34 -40 -86q0 -58 49 -109l87 -91q28 -29 28 -65q0 -52 -58 -52h-107v-67h159q67 0 113 31q53 35 53 98q0 51 -36 103 q53 10 85 41q36 35 36 86zM287 347q0 28 -18 52q-7 10 -38 42h-2q-48 0 -48 -27q0 -16 17 -35l66 -75q23 14 23 43z" />
<glyph unicode="&#xa8;" horiz-adv-x="186" d="M214 534h-67v67h67v-67zM116 534h-67v67h67v-67z" />
<glyph unicode="&#xa9;" horiz-adv-x="794" d="M804 367q0 -158 -112.5 -270t-270.5 -112t-270.5 112t-112.5 270t112.5 270.5t270.5 112.5t270.5 -112.5t112.5 -270.5zM737 367q0 131 -92.5 223.5t-223.5 92.5q-130 0 -223 -92.5t-93 -223.5q0 -130 93 -223t223 -93q131 0 223.5 93t92.5 223zM542 210q0 -41 -29 -70.5 t-70 -29.5q-32 0 -45 2q-40 6 -69 32.5t-29 65.5v315q0 47 34 74q31 25 77 25h120v-47h-109q-29 0 -29 -40v-327q0 -28 15 -42t36 -12t36 16.5t15 37.5h47z" />
<glyph unicode="&#xaa;" horiz-adv-x="287" d="M308 464l-4 -40h-28q-42 0 -61 25q-26 -25 -62 -25h-12q-41 0 -70 21q-32 24 -28 64l11 135q4 39 40 63q32 22 73 22h139l-21 -238q-2 -26 23 -27zM222 689h-58q-26 0 -28 -30l-13 -155q-4 -40 34 -40q18 0 32.5 13.5t16.5 31.5z" />
<glyph unicode="&#xab;" horiz-adv-x="275" d="M287 249h-81l-82 119l82 120h81l-82 -120zM187 249h-81l-82 119l82 120h81l-82 -120z" />
<glyph unicode="&#xac;" horiz-adv-x="494" d="M497 202h-85v109h-386v85h471v-194z" />
<glyph unicode="&#xad;" horiz-adv-x="216" d="M224 420l-9 -100h-177l9 100h177z" />
<glyph unicode="&#xae;" horiz-adv-x="391" d="M413 555q0 -75 -53.5 -128.5t-128.5 -53.5t-128.5 53.5t-53.5 128.5t53.5 128.5t128.5 53.5t128.5 -53.5t53.5 -128.5zM368 555q0 56 -40.5 96t-96.5 40t-96 -40t-40 -96t40 -96.5t96 -40.5t96.5 40.5t40.5 96.5zM302 454h-14q-32 0 -40 28l-20 67h-3v-95h-38v190h-17v19 h74q50 0 50 -40v-26q0 -29 -31 -38l23 -74q4 -12 16 -12v-19zM256 590v43q0 11 -12 11h-19v-69h19q12 0 12 15z" />
<glyph unicode="&#xaf;" horiz-adv-x="173" d="M190 534h-129v55h129v-55z" />
<glyph unicode="&#xb0;" horiz-adv-x="171" d="M213 659q0 -32 -23 -55t-55 -23t-54.5 23t-22.5 55t22.5 54.5t54.5 22.5t55 -22.5t23 -54.5zM178 659q0 17 -13 29.5t-30 12.5t-29.5 -12.5t-12.5 -29.5t12.5 -30t29.5 -13t30 13t13 30z" />
<glyph unicode="&#xb1;" horiz-adv-x="615" d="M598 0h-559v85h559v-85zM361 339v-196h-85v196h-237v85h237v198h85v-198h237v-85h-237z" />
<glyph unicode="&#xb2;" horiz-adv-x="225" d="M263 671q0 -49 -44 -96l-89 -94h106l-4 -40h-196l3 40l126 129q31 31 26 65q-6 34 -43 31q-42 -5 -46 -45l-1 -14h-40l1 14q4 41 34 63t72 22q95 0 95 -75z" />
<glyph unicode="&#xb3;" horiz-adv-x="218" d="M262 745l-85 -147q67 -19 62 -81l-8 -97q-3 -35 -36.5 -60.5t-76.5 -25.5h-13q-35 0 -58 25.5t-20 60.5h40q-1 -19 11 -32.5t31 -13.5q37 0 41 46l10 112q3 30 -22 30h-64l83 143h-96l3 40h198z" />
<glyph unicode="&#xb4;" horiz-adv-x="215" d="M252 618l-181 -84l-29 60l182 85z" />
<glyph unicode="&#xb5;" horiz-adv-x="512" d="M494 67l-6 -67h-76q-58 0 -94 28q-44 -28 -93 -28q-28 0 -52 6l-11 -130h-134l49 565h-35l6 66h168l-30 -353v-11q0 -29 12 -50q16 -25 43 -25q20 0 42 14l37 425h133l-34 -397v-8q0 -28 26 -34q4 -1 49 -1z" />
<glyph unicode="&#xb6;" d="M500 670h-51v-792h-66v792h-35v-792h-66v432h-18q-97 0 -156 59.5t-59 154.5t59 154t156 59h236v-67z" />
<glyph unicode="&#xb7;" horiz-adv-x="157" d="M157 300q0 -25 -18 -43t-44 -18q-25 0 -43 18t-18 43q0 26 17.5 44t43.5 18t44 -18t18 -44z" />
<glyph unicode="&#xb8;" horiz-adv-x="311" d="M230 -128q0 -38 -25.5 -63t-63.5 -25h-102v66h102q22 0 22 22t-22 22h-75l56 132h73l-29 -68q29 -7 46.5 -31.5t17.5 -54.5z" />
<glyph unicode="&#xb9;" horiz-adv-x="177" d="M190 484l-4 -40h-146l3 40h33l20 225h-34l4 40h114l-23 -265h33z" />
<glyph unicode="&#xba;" horiz-adv-x="244" d="M283 663l-12 -135q-3 -35 -36 -60t-77 -25h-12q-41 0 -70 21q-32 25 -28 64l12 135q3 39 39 63q32 22 73 22h13q41 0 69 -22q32 -24 29 -63zM202 663q4 44 -27 44q-32 0 -36 -44l-11 -135q-4 -44 28 -45q31 -1 35 45z" />
<glyph unicode="&#xbb;" horiz-adv-x="281" d="M24 249zM287 249h-81l-82 119l82 120h81l-82 -120zM187 249h-81l-82 119l82 120h81l-82 -120z" />
<glyph unicode="&#xbc;" horiz-adv-x="495" d="M531 737l-437 -737h-92l438 737h91zM219 440l-4 -45h-164l4 45h37l22 250h-38l4 45h127l-25 -295h37zM476 46l-4 -45h-51l-11 -118h-89l10 118h-181l204 340h96l-25 -295h51zM346 174l-77 -128h66z" />
<glyph unicode="&#xbd;" horiz-adv-x="507" d="M525 737l-437 -737h-92l438 737h91zM211 438l-4 -45h-164l4 45h37l22 250h-38l4 45h127l-25 -295h37zM508 259q0 -54 -49 -107l-99 -104h117l-4 -45h-219l4 44l141 144q34 35 28 73q-6 39 -47 34q-19 -2 -34 -15.5t-17 -34.5l-2 -15h-44l1 15q4 46 39 72q32 23 79 23 q45 0 74 -19q32 -22 32 -65z" />
<glyph unicode="&#xbe;" horiz-adv-x="553" d="M609 737l-437 -737h-92l438 737h91zM293 730l-94 -164q32 -9 52 -33t17 -57l-10 -109q-3 -39 -40 -67t-85 -28h-15q-39 0 -64.5 28t-22.5 67h45q-2 -21 12 -36t34 -15q42 0 47 51l11 126q3 33 -25 33h-71l92 159h-107l4 45h220zM540 47l-4 -45h-51l-11 -118h-89l10 118 h-181l204 340h96l-25 -295h51zM410 175l-77 -128h66z" />
<glyph unicode="&#xbf;" horiz-adv-x="368" d="M4 -28q0 98 106 174q30 17 95 57q40 26 48 34q21 22 24 56l8 85h72l-12 -128q-5 -52 -27 -86q-18 -28 -59.5 -57.5t-58.5 -50.5q-29 -36 -33 -88q-3 -40 21 -68t64 -28h97l-6 -71h-115q-88 0 -151 41q-73 48 -73 130zM256 473q0 27 19 46t46 19t46 -19t19 -46t-19 -46 t-46 -19t-46 19t-19 46z" />
<glyph unicode="&#xc0;" horiz-adv-x="447" d="M10 0zM449 582l-42 -478q-3 -36 29 -37l-6 -67h-53q-50 0 -78 25q-31 28 -26 79l15 170h-121l-24 -274h-133l51 582q7 80 77 121q56 34 130 34t125 -34q63 -42 56 -121zM317 601q3 29 -12 49t-43 20q-27 0 -45 -20t-21 -49l-23 -260h121zM316 810l-29 -60l-181 84l28 61z " />
<glyph unicode="&#xc1;" horiz-adv-x="447" d="M10 0zM449 582l-42 -478q-3 -36 29 -37l-6 -67h-53q-50 0 -78 25q-31 28 -26 79l15 170h-121l-24 -274h-133l51 582q7 80 77 121q56 34 130 34t125 -34q63 -42 56 -121zM317 601q3 29 -12 49t-43 20q-27 0 -45 -20t-21 -49l-23 -260h121zM462 832l-181 -84l-29 60l182 85 z" />
<glyph unicode="&#xc2;" horiz-adv-x="447" d="M10 0zM449 582l-42 -478q-3 -36 29 -37l-6 -67h-53q-50 0 -78 25q-31 28 -26 79l15 170h-121l-24 -274h-133l51 582q7 80 77 121q56 34 130 34t125 -34q63 -42 56 -121zM317 601q3 29 -12 49t-43 20q-27 0 -45 -20t-21 -49l-23 -260h121zM404 801l-39 -54l-92 67l-93 -67 l-39 54l132 96z" />
<glyph unicode="&#xc3;" horiz-adv-x="447" d="M10 0zM449 582l-42 -478q-3 -36 29 -37l-6 -67h-53q-50 0 -78 25q-31 28 -26 79l15 170h-121l-24 -274h-133l51 582q7 80 77 121q56 34 130 34t125 -34q63 -42 56 -121zM317 601q3 29 -12 49t-43 20q-27 0 -45 -20t-21 -49l-23 -260h121zM416 815q-29 -63 -100 -63 q-24 0 -45 10l-21 10q-8 4 -17 4q-28 0 -40 -25l-60 28q29 62 99 62q24 0 46 -9l21 -9q9 -4 18 -4q27 0 38 24z" />
<glyph unicode="&#xc4;" horiz-adv-x="447" d="M10 0zM449 582l-42 -478q-3 -36 29 -37l-6 -67h-53q-50 0 -78 25q-31 28 -26 79l15 170h-121l-24 -274h-133l51 582q7 80 77 121q56 34 130 34t125 -34q63 -42 56 -121zM317 601q3 29 -12 49t-43 20q-27 0 -45 -20t-21 -49l-23 -260h121zM358 750h-67v67h67v-67zM260 750 h-67v67h67v-67z" />
<glyph unicode="&#xc5;" horiz-adv-x="447" d="M10 0zM449 582l-42 -478q-3 -36 29 -37l-6 -67h-53q-50 0 -78 25q-31 28 -26 79l15 170h-121l-24 -274h-133l51 582q7 80 77 121q56 34 130 34t125 -34q63 -42 56 -121zM317 601q3 29 -12 49t-43 20q-27 0 -45 -20t-21 -49l-23 -260h121zM380 846q0 -40 -28 -68t-68 -28 q-39 0 -67.5 28t-28.5 68t28.5 68t67.5 28q40 0 68 -28t28 -68zM339 846q0 22 -16 38t-39 16q-22 0 -38 -16t-16 -38t16 -38t38 -16q23 0 39 16t16 38z" />
<glyph unicode="&#xc6;" horiz-adv-x="631" d="M669 737l-5 -67h-211l-24 -272h146l-6 -63h-145l-24 -268h211l-6 -67h-344l29 335h-117l-29 -335h-134l51 578q7 76 70 120q56 39 135 39h403zM311 579q4 41 -11.5 64t-39.5 23t-42 -22q-21 -25 -24 -66l-15 -180h116z" />
<glyph unicode="&#xc7;" horiz-adv-x="377" d="M25 0zM408 737l-6 -67h-155q-18 0 -32 -16.5t-16 -42.5l-41 -469q-4 -40 18 -61q18 -17 49 -15q30 2 53.5 23t26.5 53h67q-5 -58 -50.5 -100t-104.5 -42q-46 0 -64 3q-57 9 -93 44q-40 39 -35 95l39 452q6 67 57 107q48 36 114 36h173zM270 -128q0 -38 -25.5 -63 t-63.5 -25h-102v66h102q22 0 22 22t-22 22h-75l56 132h73l-29 -68q29 -7 46.5 -31.5t17.5 -54.5z" />
<glyph unicode="&#xc8;" horiz-adv-x="366" d="M20 0zM408 737l-6 -67h-135q-29 0 -51 -20.5t-24 -48.5l-17 -199h167l-5 -67h-168l-18 -200q-3 -28 15.5 -48.5t47.5 -20.5h135l-6 -66h-182q-64 0 -105.5 45.5t-35.5 109.5l37 427q6 64 55.5 109.5t113.5 45.5h182zM347 808l-29 -60l-181 84l28 61z" />
<glyph unicode="&#xc9;" horiz-adv-x="366" d="M20 0zM408 737l-6 -67h-135q-29 0 -51 -20.5t-24 -48.5l-17 -199h167l-5 -67h-168l-18 -200q-3 -28 15.5 -48.5t47.5 -20.5h135l-6 -66h-182q-64 0 -105.5 45.5t-35.5 109.5l37 427q6 64 55.5 109.5t113.5 45.5h182zM465 833l-181 -84l-29 60l182 85z" />
<glyph unicode="&#xca;" horiz-adv-x="366" d="M20 0zM408 737l-6 -67h-135q-29 0 -51 -20.5t-24 -48.5l-17 -199h167l-5 -67h-168l-18 -200q-3 -28 15.5 -48.5t47.5 -20.5h135l-6 -66h-182q-64 0 -105.5 45.5t-35.5 109.5l37 427q6 64 55.5 109.5t113.5 45.5h182zM416 803l-39 -54l-92 67l-93 -67l-39 54l132 96z" />
<glyph unicode="&#xcb;" horiz-adv-x="366" d="M20 0zM408 737l-6 -67h-135q-29 0 -51 -20.5t-24 -48.5l-17 -199h167l-5 -67h-168l-18 -200q-3 -28 15.5 -48.5t47.5 -20.5h135l-6 -66h-182q-64 0 -105.5 45.5t-35.5 109.5l37 427q6 64 55.5 109.5t113.5 45.5h182zM383 750h-67v67h67v-67zM285 750h-67v67h67v-67z" />
<glyph unicode="&#xcc;" horiz-adv-x="164" d="M4 0zM205 737l-64 -737h-134l64 737h134zM214 809l-29 -60l-181 84l28 61z" />
<glyph unicode="&#xcd;" horiz-adv-x="164" d="M7 0zM205 737l-64 -737h-134l64 737h134zM311 833l-181 -84l-29 60l182 85z" />
<glyph unicode="&#xce;" horiz-adv-x="164" d="M7 0zM205 737l-64 -737h-134l64 737h134zM270 799l-39 -54l-92 67l-93 -67l-39 54l132 96z" />
<glyph unicode="&#xcf;" horiz-adv-x="164" d="M7 0zM205 737l-64 -737h-134l64 737h134zM225 751h-67v67h67v-67zM127 751h-67v67h67v-67z" />
<glyph unicode="&#xd0;" horiz-adv-x="452" d="M478 594l-40 -452q-5 -61 -48 -100q-45 -42 -115 -42h-227l30 335h-37l5 63h37l24 272h-40l5 67h268q58 0 100.5 -42.5t37.5 -100.5zM344 594q2 20 -13 45q-18 31 -48 31h-42l-24 -272h58l-6 -63h-58l-23 -268h43q29 0 50 22t24 53z" />
<glyph unicode="&#xd1;" horiz-adv-x="491" d="M49 0zM484 579l-41 -475q-3 -36 29 -37l-6 -67h-54q-49 0 -77 25q-32 28 -27 79l42 475q4 41 -11.5 64t-39.5 23l-58 -1l-58 -665h-134l58 670h-40l6 67h232q80 0 130 -39q56 -43 49 -119zM435 813q-29 -63 -100 -63q-24 0 -45 10l-21 10q-8 4 -17 4q-28 0 -40 -25 l-60 28q29 62 99 62q24 0 46 -9l21 -9q9 -4 18 -4q27 0 38 24z" />
<glyph unicode="&#xd2;" horiz-adv-x="448" d="M32 0zM473 582l-38 -427q-6 -66 -57 -109q-54 -46 -136 -46h-44q-81 0 -127 46q-45 43 -39 109l37 427q6 66 59.5 110.5t134.5 44.5h43q81 0 127 -44.5t40 -110.5zM341 601q2 28 -16 48.5t-46 20.5t-50 -20.5t-25 -48.5l-41 -466q-3 -28 15.5 -48.5t47.5 -20.5t51 20 t24 49zM344 809l-29 -60l-181 84l28 61z" />
<glyph unicode="&#xd3;" horiz-adv-x="448" d="M32 0zM473 582l-38 -427q-6 -66 -57 -109q-54 -46 -136 -46h-44q-81 0 -127 46q-45 43 -39 109l37 427q6 66 59.5 110.5t134.5 44.5h43q81 0 127 -44.5t40 -110.5zM341 601q2 28 -16 48.5t-46 20.5t-50 -20.5t-25 -48.5l-41 -466q-3 -28 15.5 -48.5t47.5 -20.5t51 20 t24 49zM465 833l-181 -84l-29 60l182 85z" />
<glyph unicode="&#xd4;" horiz-adv-x="448" d="M32 0zM473 582l-38 -427q-6 -66 -57 -109q-54 -46 -136 -46h-44q-81 0 -127 46q-45 43 -39 109l37 427q6 66 59.5 110.5t134.5 44.5h43q81 0 127 -44.5t40 -110.5zM341 601q2 28 -16 48.5t-46 20.5t-50 -20.5t-25 -48.5l-41 -466q-3 -28 15.5 -48.5t47.5 -20.5t51 20 t24 49zM422 800l-39 -54l-92 67l-93 -67l-39 54l132 96z" />
<glyph unicode="&#xd5;" horiz-adv-x="448" d="M32 0zM473 582l-38 -427q-6 -66 -57 -109q-54 -46 -136 -46h-44q-81 0 -127 46q-45 43 -39 109l37 427q6 66 59.5 110.5t134.5 44.5h43q81 0 127 -44.5t40 -110.5zM341 601q2 28 -16 48.5t-46 20.5t-50 -20.5t-25 -48.5l-41 -466q-3 -28 15.5 -48.5t47.5 -20.5t51 20 t24 49zM440 816q-29 -63 -100 -63q-24 0 -45 10l-21 10q-8 4 -17 4q-28 0 -40 -25l-60 28q29 62 99 62q24 0 46 -9l21 -9q9 -4 18 -4q27 0 38 24z" />
<glyph unicode="&#xd6;" horiz-adv-x="448" d="M32 0zM473 582l-38 -427q-6 -66 -57 -109q-54 -46 -136 -46h-44q-81 0 -127 46q-45 43 -39 109l37 427q6 66 59.5 110.5t134.5 44.5h43q81 0 127 -44.5t40 -110.5zM341 601q2 28 -16 48.5t-46 20.5t-50 -20.5t-25 -48.5l-41 -466q-3 -28 15.5 -48.5t47.5 -20.5t51 20 t24 49zM379 752h-67v67h67v-67zM281 752h-67v67h67v-67z" />
<glyph unicode="&#xd7;" horiz-adv-x="557" d="M295 338l199 199l60 -60l-199 -199l199 -199l-60 -60l-198 199l-199 -199l-60 60l198 199q-53 54 -198 199l60 60zM295 338zM296 218zM235 278zM355 278z" />
<glyph unicode="&#xd8;" horiz-adv-x="428" d="M471 737l-37 -68q22 -35 18 -75l-40 -452q-5 -59 -60 -100.5t-128 -41.5h-38q-53 0 -96 23l-13 -23h-73l36 68q-21 32 -17 74l40 452q6 66 66 107q53 36 122 36h37q54 0 97 -24l13 24h73zM318 594q5 36 -13 58q-16 19 -41 19t-45 -20t-23 -57l-24 -280zM303 423 l-146 -281q-4 -34 14 -56q15 -20 40 -21t44.5 18.5t22.5 58.5z" />
<glyph unicode="&#xd9;" horiz-adv-x="506" d="M53 0zM494 737l-54 -625v-10q0 -35 42 -35l-6 -67h-59q-55 0 -86 29q-53 -29 -115 -29q-65 0 -111 32q-52 36 -52 99v11l46 528h-36l6 66h169l-51 -586v-11q0 -67 55 -67q29 0 48 26q17 23 19 52l50 587h135zM360 809l-29 -60l-181 84l28 61z" />
<glyph unicode="&#xda;" horiz-adv-x="506" d="M53 0zM494 737l-54 -625v-10q0 -35 42 -35l-6 -67h-59q-55 0 -86 29q-53 -29 -115 -29q-65 0 -111 32q-52 36 -52 99v11l46 528h-36l6 66h169l-51 -586v-11q0 -67 55 -67q29 0 48 26q17 23 19 52l50 587h135zM470 833l-181 -84l-29 60l182 85z" />
<glyph unicode="&#xdb;" horiz-adv-x="506" d="M53 0zM494 737l-54 -625v-10q0 -35 42 -35l-6 -67h-59q-55 0 -86 29q-53 -29 -115 -29q-65 0 -111 32q-52 36 -52 99v11l46 528h-36l6 66h169l-51 -586v-11q0 -67 55 -67q29 0 48 26q17 23 19 52l50 587h135zM438 802l-39 -54l-92 67l-93 -67l-39 54l132 96z" />
<glyph unicode="&#xdc;" horiz-adv-x="506" d="M53 0zM494 737l-54 -625v-10q0 -35 42 -35l-6 -67h-59q-55 0 -86 29q-53 -29 -115 -29q-65 0 -111 32q-52 36 -52 99v11l46 528h-36l6 66h169l-51 -586v-11q0 -67 55 -67q29 0 48 26q17 23 19 52l50 587h135zM391 749h-67v67h67v-67zM293 749h-67v67h67v-67z" />
<glyph unicode="&#xdd;" horiz-adv-x="474" d="M63 0zM510 737l-21 -230q-5 -55 -43.5 -96t-101.5 -54l-31 -357h-133l31 356q-63 11 -96.5 52.5t-28.5 98.5l14 163h-37l6 67h170l-22 -250q-2 -28 16.5 -48t46.5 -20t50.5 20t24.5 48l21 250h134zM489 834l-181 -84l-29 60l182 85z" />
<glyph unicode="&#xde;" horiz-adv-x="444" d="M472 621l-18 -207q-7 -79 -58.5 -142.5t-128.5 -87.5q-37 -12 -71 -12h-2l-15 -172h-134l59 670h-39l6 67h173l-11 -116h239zM332 554h-104l-28 -314q40 5 73 32q37 29 40 66z" />
<glyph unicode="&#xdf;" horiz-adv-x="575" d="M559 125q-18 -73 -75 -102q-45 -23 -135 -23h-114l6 67h108q32 0 51 22t19 54q0 36 -25 57l-84 70q-39 32 -39 83q0 57 43 111l40 51q23 29 23 69q0 35 -18.5 60.5t-48.5 25.5q-28 0 -50 -25q-24 -29 -28 -78l-56 -643q-6 -69 -57.5 -106t-130.5 -37h-68l6 67h51 q59 0 64 59l46 534h-46l5 67h47l5 59q6 70 70 120t148 50q73 0 121 -29q56 -33 63 -100q6 -53 -23 -89q-22 -28 -74 -55q-27 -14 -27 -43q0 -23 18 -39l118 -106q52 -47 52 -111q0 -20 -5 -40z" />
<glyph unicode="&#xe0;" d="M23 0zM465 67l-6 -67h-47q-70 0 -102 41q-44 -41 -103 -41h-21q-68 0 -116 36q-53 40 -47 106l19 224q6 65 66 106q54 36 122 36h231l-34 -396q-4 -43 38 -45zM321 441h-96q-43 0 -47 -50l-22 -257q-6 -67 57 -67q31 0 55 22t27 53zM334 594l-29 -60l-181 84l28 61z" />
<glyph unicode="&#xe1;" d="M23 0zM465 67l-6 -67h-47q-70 0 -102 41q-44 -41 -103 -41h-21q-68 0 -116 36q-53 40 -47 106l19 224q6 65 66 106q54 36 122 36h231l-34 -396q-4 -43 38 -45zM321 441h-96q-43 0 -47 -50l-22 -257q-6 -67 57 -67q31 0 55 22t27 53zM452 618l-181 -84l-29 60l182 85z" />
<glyph unicode="&#xe2;" d="M23 0zM465 67l-6 -67h-47q-70 0 -102 41q-44 -41 -103 -41h-21q-68 0 -116 36q-53 40 -47 106l19 224q6 65 66 106q54 36 122 36h231l-34 -396q-4 -43 38 -45zM321 441h-96q-43 0 -47 -50l-22 -257q-6 -67 57 -67q31 0 55 22t27 53zM407 584l-39 -54l-92 67l-93 -67 l-39 54l132 96z" />
<glyph unicode="&#xe3;" d="M23 0zM465 67l-6 -67h-47q-70 0 -102 41q-44 -41 -103 -41h-21q-68 0 -116 36q-53 40 -47 106l19 224q6 65 66 106q54 36 122 36h231l-34 -396q-4 -43 38 -45zM321 441h-96q-43 0 -47 -50l-22 -257q-6 -67 57 -67q31 0 55 22t27 53zM422 598q-29 -63 -100 -63 q-24 0 -45 10l-21 10q-8 4 -17 4q-28 0 -40 -25l-60 28q29 62 99 62q24 0 46 -9l21 -9q9 -4 18 -4q27 0 38 24z" />
<glyph unicode="&#xe4;" d="M23 0zM465 67l-6 -67h-47q-70 0 -102 41q-44 -41 -103 -41h-21q-68 0 -116 36q-53 40 -47 106l19 224q6 65 66 106q54 36 122 36h231l-34 -396q-4 -43 38 -45zM321 441h-96q-43 0 -47 -50l-22 -257q-6 -67 57 -67q31 0 55 22t27 53zM374 534h-67v67h67v-67zM276 534h-67 v67h67v-67z" />
<glyph unicode="&#xe5;" d="M23 0zM465 67l-6 -67h-47q-70 0 -102 41q-44 -41 -103 -41h-21q-68 0 -116 36q-53 40 -47 106l19 224q6 65 66 106q54 36 122 36h231l-34 -396q-4 -43 38 -45zM321 441h-96q-43 0 -47 -50l-22 -257q-6 -67 57 -67q31 0 55 22t27 53zM390 627q0 -40 -28 -68t-68 -28 q-39 0 -67.5 28t-28.5 68t28.5 68t67.5 28q40 0 68 -28t28 -68zM349 627q0 22 -16 38t-39 16q-22 0 -38 -16t-16 -38t16 -38t38 -16q23 0 39 16t16 38z" />
<glyph unicode="&#xe6;" horiz-adv-x="640" d="M647 366h-66v6q1 29 -20 49t-50 20q-63 0 -69 -75l-6 -79h173l-6 -66h-173q-7 -84 -7 -90q0 -65 58 -65q31 0 54 22t26 54h67q-5 -58 -50.5 -100t-104.5 -42h-21q-93 0 -140 60q-50 -60 -133 -60q-69 0 -115 37q-49 39 -49 107q0 17 11 42q21 47 74 75q48 25 104 25h98 q7 85 7 90q0 65 -55 65q-32 0 -56.5 -22t-26.5 -53h-67q4 58 50 100t104 42h21q60 0 106 -29q52 29 133 29q54 0 92 -37.5t38 -90.5q0 -7 -1 -14zM294 219h-71q-33 0 -53.5 -27.5t-20.5 -61.5q0 -63 56 -63q31 0 55 22t27 53z" />
<glyph unicode="&#xe7;" horiz-adv-x="365" d="M18 0zM368 508l-6 -67h-142q-19 0 -32 -18.5t-15 -39.5l-23 -263q-1 -22 17 -37.5t41 -15.5q31 0 55 22t27 53h67q-5 -58 -50.5 -100t-104.5 -42h-21q-65 0 -111 32q-52 36 -52 99v11l20 224q6 65 65 106q54 36 123 36h142zM270 -118q0 -38 -25.5 -63t-63.5 -25h-102v66 h102q22 0 22 22t-22 22h-75l56 132h73l-29 -68q29 -7 46.5 -31.5t17.5 -54.5z" />
<glyph unicode="&#xe8;" horiz-adv-x="369" d="M19 0zM377 366h-67q3 31 -16 51.5t-46 23.5q-37 3 -58.5 -25t-21.5 -65q0 -64 47 -64h124l-6 -66h-123q-27 0 -43.5 -25.5t-16.5 -58.5q0 -31 16.5 -52t48.5 -19q27 2 49.5 22.5t25.5 53.5h67q-6 -68 -58 -107q-48 -35 -117 -35q-66 0 -115 40q-52 41 -48 102 q5 70 69 112q-55 52 -50 112q6 65 66 105q54 37 122 37q70 0 111 -35q46 -38 40 -107zM274 594l-29 -60l-181 84l28 61z" />
<glyph unicode="&#xe9;" horiz-adv-x="369" d="M19 0zM377 366h-67q3 31 -16 51.5t-46 23.5q-37 3 -58.5 -25t-21.5 -65q0 -64 47 -64h124l-6 -66h-123q-27 0 -43.5 -25.5t-16.5 -58.5q0 -31 16.5 -52t48.5 -19q27 2 49.5 22.5t25.5 53.5h67q-6 -68 -58 -107q-48 -35 -117 -35q-66 0 -115 40q-52 41 -48 102 q5 70 69 112q-55 52 -50 112q6 65 66 105q54 37 122 37q70 0 111 -35q46 -38 40 -107zM412 618l-181 -84l-29 60l182 85z" />
<glyph unicode="&#xea;" horiz-adv-x="369" d="M19 0zM377 366h-67q3 31 -16 51.5t-46 23.5q-37 3 -58.5 -25t-21.5 -65q0 -64 47 -64h124l-6 -66h-123q-27 0 -43.5 -25.5t-16.5 -58.5q0 -31 16.5 -52t48.5 -19q27 2 49.5 22.5t25.5 53.5h67q-6 -68 -58 -107q-48 -35 -117 -35q-66 0 -115 40q-52 41 -48 102 q5 70 69 112q-55 52 -50 112q6 65 66 105q54 37 122 37q70 0 111 -35q46 -38 40 -107zM363 577l-39 -54l-92 67l-93 -67l-39 54l132 96z" />
<glyph unicode="&#xeb;" horiz-adv-x="369" d="M19 0zM377 366h-67q3 31 -16 51.5t-46 23.5q-37 3 -58.5 -25t-21.5 -65q0 -64 47 -64h124l-6 -66h-123q-27 0 -43.5 -25.5t-16.5 -58.5q0 -31 16.5 -52t48.5 -19q27 2 49.5 22.5t25.5 53.5h67q-6 -68 -58 -107q-48 -35 -117 -35q-66 0 -115 40q-52 41 -48 102 q5 70 69 112q-55 52 -50 112q6 65 66 105q54 37 122 37q70 0 111 -35q46 -38 40 -107zM324 534h-67v67h67v-67zM226 534h-67v67h67v-67z" />
<glyph unicode="&#xec;" horiz-adv-x="241" d="M0 0zM226 67l-6 -67h-20q-73 0 -113 33.5t-35 91.5l28 316h-38l6 67h171l-33 -383q-4 -52 40 -58zM194 594l-29 -60l-181 84l28 61z" />
<glyph unicode="&#xed;" horiz-adv-x="241" d="M42 0zM226 67l-6 -67h-20q-73 0 -113 33.5t-35 91.5l28 316h-38l6 67h171l-33 -383q-4 -52 40 -58zM332 618l-181 -84l-29 60l182 85z" />
<glyph unicode="&#xee;" horiz-adv-x="241" d="M10 0zM226 67l-6 -67h-20q-73 0 -113 33.5t-35 91.5l28 316h-38l6 67h171l-33 -383q-4 -52 40 -58zM273 577l-39 -54l-92 67l-93 -67l-39 54l132 96z" />
<glyph unicode="&#xef;" horiz-adv-x="241" d="M42 0zM226 67l-6 -67h-20q-73 0 -113 33.5t-35 91.5l28 316h-38l6 67h171l-33 -383q-4 -52 40 -58zM234 534h-67v67h67v-67zM136 534h-67v67h67v-67z" />
<glyph unicode="&#xf0;" horiz-adv-x="409" d="M476 683l-53 -30q11 -30 9 -59l-39 -452q-5 -53 -48 -92v1q-53 -51 -141 -51h-20q-69 0 -117 36q-53 40 -47 106l20 224q5 66 65 106q54 36 123 36h21q23 0 42 -4l7 80l-67 -37l-29 58l82 45q-16 20 -30 20h-67l6 67h76q65 0 112 -33l66 36zM278 366q3 35 -11 55t-35 20 t-38 -20t-20 -55l-20 -224q-4 -35 10 -54.5t36 -19.5q21 0 38.5 19.5t20.5 54.5z" />
<glyph unicode="&#xf1;" horiz-adv-x="484" d="M40 0zM465 67l-6 -67h-57q-50 0 -80 24q-34 28 -30 78l24 277q2 23 -10 41q-15 21 -39 21h-54l-39 -441h-134l39 441h-38l6 67h226q83 0 129 -33q52 -38 46 -112l-21 -253q-2 -29 7 -37q6 -6 31 -6zM412 598q-29 -63 -100 -63q-24 0 -45 10l-21 10q-8 4 -17 4 q-28 0 -40 -25l-60 28q29 62 99 62q24 0 46 -9l21 -9q9 -4 18 -4q27 0 38 24z" />
<glyph unicode="&#xf2;" horiz-adv-x="406" d="M21 0zM413 366l-20 -224q-5 -59 -60 -100.5t-128 -41.5h-20q-69 0 -117 36q-53 40 -47 106l20 224q6 66 66 106q53 36 122 36h21q68 0 116 -36q53 -41 47 -106zM279 366q3 36 -10.5 55t-35.5 19q-21 0 -38 -18q-18 -21 -21 -56l-19 -224q-3 -34 11 -54t35 -21t38.5 18.5 t20.5 56.5zM294 594l-29 -60l-181 84l28 61z" />
<glyph unicode="&#xf3;" horiz-adv-x="406" d="M21 0zM413 366l-20 -224q-5 -59 -60 -100.5t-128 -41.5h-20q-69 0 -117 36q-53 40 -47 106l20 224q6 66 66 106q53 36 122 36h21q68 0 116 -36q53 -41 47 -106zM279 366q3 36 -10.5 55t-35.5 19q-21 0 -38 -18q-18 -21 -21 -56l-19 -224q-3 -34 11 -54t35 -21t38.5 18.5 t20.5 56.5zM422 618l-181 -84l-29 60l182 85z" />
<glyph unicode="&#xf4;" horiz-adv-x="406" d="M21 0zM413 366l-20 -224q-5 -59 -60 -100.5t-128 -41.5h-20q-69 0 -117 36q-53 40 -47 106l20 224q6 66 66 106q53 36 122 36h21q68 0 116 -36q53 -41 47 -106zM279 366q3 36 -10.5 55t-35.5 19q-21 0 -38 -18q-18 -21 -21 -56l-19 -224q-3 -34 11 -54t35 -21t38.5 18.5 t20.5 56.5zM383 577l-39 -54l-92 67l-93 -67l-39 54l132 96z" />
<glyph unicode="&#xf5;" horiz-adv-x="406" d="M21 0zM413 366l-20 -224q-5 -59 -60 -100.5t-128 -41.5h-20q-69 0 -117 36q-53 40 -47 106l20 224q6 66 66 106q53 36 122 36h21q68 0 116 -36q53 -41 47 -106zM279 366q3 36 -10.5 55t-35.5 19q-21 0 -38 -18q-18 -21 -21 -56l-19 -224q-3 -34 11 -54t35 -21t38.5 18.5 t20.5 56.5zM382 598q-29 -63 -100 -63q-24 0 -45 10l-21 10q-8 4 -17 4q-28 0 -40 -25l-60 28q29 62 99 62q24 0 46 -9l21 -9q9 -4 18 -4q27 0 38 24z" />
<glyph unicode="&#xf6;" horiz-adv-x="406" d="M21 0zM413 366l-20 -224q-5 -59 -60 -100.5t-128 -41.5h-20q-69 0 -117 36q-53 40 -47 106l20 224q6 66 66 106q53 36 122 36h21q68 0 116 -36q53 -41 47 -106zM279 366q3 36 -10.5 55t-35.5 19q-21 0 -38 -18q-18 -21 -21 -56l-19 -224q-3 -34 11 -54t35 -21t38.5 18.5 t20.5 56.5zM334 534h-67v67h67v-67zM236 534h-67v67h67v-67z" />
<glyph unicode="&#xf7;" horiz-adv-x="596" d="M374 456q0 -27 -19 -46t-46 -19q-26 0 -45.5 19t-19.5 46q0 26 19.5 45.5t45.5 19.5q27 0 46 -19.5t19 -45.5zM589 235h-559v85h559v-85zM374 101q0 -27 -19 -46t-46 -19q-26 0 -45.5 19t-19.5 46t19.5 46t45.5 19q27 0 46 -19t19 -46z" />
<glyph unicode="&#xf8;" horiz-adv-x="412" d="M435 508l-43 -62q25 -33 21 -80l-19 -224q-5 -58 -60.5 -100t-127.5 -42h-21q-50 0 -92 21l-15 -21h-78l43 62q-25 33 -21 80l19 224q6 65 66 106q54 36 122 36h21q52 0 92 -21l15 21h78zM278 396q-7 44 -44 44q-21 0 -38 -18q-18 -21 -21 -56l-12 -133zM272 275 l-115 -163q9 -44 44 -45q21 0 38.5 19t20.5 56z" />
<glyph unicode="&#xf9;" horiz-adv-x="473" d="M38 0zM451 67l-6 -67h-239q-75 0 -118 38q-47 41 -40 116l25 287h-35l6 67h168l-31 -371q-2 -28 10.5 -49t37.5 -21h48l39 441h134l-38 -441h39zM304 594l-29 -60l-181 84l28 61z" />
<glyph unicode="&#xfa;" horiz-adv-x="473" d="M38 0zM451 67l-6 -67h-239q-75 0 -118 38q-47 41 -40 116l25 287h-35l6 67h168l-31 -371q-2 -28 10.5 -49t37.5 -21h48l39 441h134l-38 -441h39zM452 618l-181 -84l-29 60l182 85z" />
<glyph unicode="&#xfb;" horiz-adv-x="473" d="M38 0zM451 67l-6 -67h-239q-75 0 -118 38q-47 41 -40 116l25 287h-35l6 67h168l-31 -371q-2 -28 10.5 -49t37.5 -21h48l39 441h134l-38 -441h39zM403 577l-39 -54l-92 67l-93 -67l-39 54l132 96z" />
<glyph unicode="&#xfc;" horiz-adv-x="473" d="M38 0zM451 67l-6 -67h-239q-75 0 -118 38q-47 41 -40 116l25 287h-35l6 67h168l-31 -371q-2 -28 10.5 -49t37.5 -21h48l39 441h134l-38 -441h39zM344 534h-67v67h67v-67zM246 534h-67v67h67v-67z" />
<glyph unicode="&#xfd;" horiz-adv-x="442" d="M42 0zM451 508l-51 -584q-5 -59 -60.5 -101t-128.5 -42h-135l6 67h127q50 0 55 59l8 93h-44q-78 0 -127 38q-54 42 -48 116l25 287h-36l6 67h170l-33 -379q-5 -62 49 -62h44l39 441h134zM452 618l-181 -84l-29 60l182 85z" />
<glyph unicode="&#xfe;" horiz-adv-x="437" d="M458 508l-32 -366q-6 -66 -66 -106q-54 -36 -123 -36h-62l-19 -219h-134l78 889h-40l6 67h173l-20 -229h239zM318 442h-105l-32 -375h52q21 0 38.5 20t20.5 55z" />
<glyph unicode="&#xff;" horiz-adv-x="442" d="M42 0zM451 508l-51 -584q-5 -59 -60.5 -101t-128.5 -42h-135l6 67h127q50 0 55 59l8 93h-44q-78 0 -127 38q-54 42 -48 116l25 287h-36l6 67h170l-33 -379q-5 -62 49 -62h44l39 441h134zM364 534h-67v67h67v-67zM266 534h-67v67h67v-67z" />
<glyph unicode="&#x131;" horiz-adv-x="241" d="M226 67l-6 -67h-20q-73 0 -113 33.5t-35 91.5l28 316h-38l6 67h171l-33 -383q-4 -52 40 -58z" />
<glyph unicode="&#x152;" horiz-adv-x="630" d="M672 737l-5 -67h-211l-24 -268h146l-6 -67h-145l-24 -268h211l-6 -67h-424q-69 0 -116 36q-53 40 -47 106l39 452q6 66 66 107q54 36 122 36h424zM316 597q3 35 -15 56q-15 18 -40 18t-43 -19q-21 -21 -24 -58l-40 -452q-3 -34 13.5 -55t40.5 -22q25 -1 45 18t23 56z" />
<glyph unicode="&#x153;" horiz-adv-x="595" d="M616 366h-67q2 31 -16.5 51.5t-45.5 23.5q-29 3 -49 -15q-24 -20 -27 -60l-7 -79h174l-6 -66h-174l-6 -79q-3 -39 15 -58.5t47 -17.5q28 2 50.5 22.5t25.5 53.5h67q-6 -58 -51.5 -100t-103.5 -42h-21q-62 0 -107 30q-51 -30 -111 -30h-20q-70 0 -117 36q-53 40 -47 106 l20 224q5 65 66 106q53 36 122 36h21q60 0 106 -29q51 29 112 29h20q56 0 95.5 -43.5t34.5 -98.5zM278 366q3 35 -12 56q-13 18 -34 18q-22 0 -38 -18q-18 -21 -21 -56l-20 -224q-3 -34 10.5 -54t35.5 -21q21 -1 38 18.5t21 56.5z" />
<glyph unicode="&#x178;" horiz-adv-x="472" d="M63 0zM510 737l-21 -230q-5 -55 -43.5 -96t-101.5 -54l-31 -357h-133l31 356q-63 11 -96.5 52.5t-28.5 98.5l14 163h-37l6 67h170l-22 -250q-2 -28 16.5 -48t46.5 -20t50.5 20t24.5 48l21 250h134zM401 750h-67v67h67v-67zM303 750h-67v67h67v-67z" />
<glyph unicode="&#x2c6;" horiz-adv-x="268" d="M303 577l-39 -54l-92 67l-93 -67l-39 54l132 96z" />
<glyph unicode="&#x2da;" horiz-adv-x="239" d="M261 633q0 -40 -28 -68t-68 -28q-39 0 -67.5 28t-28.5 68t28.5 68t67.5 28q40 0 68 -28t28 -68zM220 633q0 22 -16 38t-39 16q-22 0 -38 -16t-16 -38t16 -38t38 -16q23 0 39 16t16 38z" />
<glyph unicode="&#x2dc;" horiz-adv-x="311" d="M332 598q-29 -63 -100 -63q-24 0 -45 10l-21 10q-8 4 -17 4q-28 0 -40 -25l-60 28q29 62 99 62q24 0 46 -9l21 -9q9 -4 18 -4q27 0 38 24z" />
<glyph unicode="&#x2000;" horiz-adv-x="471" />
<glyph unicode="&#x2001;" horiz-adv-x="942" />
<glyph unicode="&#x2002;" horiz-adv-x="471" />
<glyph unicode="&#x2003;" horiz-adv-x="942" />
<glyph unicode="&#x2004;" horiz-adv-x="314" />
<glyph unicode="&#x2005;" horiz-adv-x="235" />
<glyph unicode="&#x2006;" horiz-adv-x="157" />
<glyph unicode="&#x2007;" horiz-adv-x="157" />
<glyph unicode="&#x2008;" horiz-adv-x="117" />
<glyph unicode="&#x2009;" horiz-adv-x="188" />
<glyph unicode="&#x200a;" horiz-adv-x="52" />
<glyph unicode="&#x2010;" horiz-adv-x="216" d="M224 420l-9 -100h-177l9 100h177z" />
<glyph unicode="&#x2011;" horiz-adv-x="216" d="M224 420l-9 -100h-177l9 100h177z" />
<glyph unicode="&#x2012;" horiz-adv-x="216" d="M224 420l-9 -100h-177l9 100h177z" />
<glyph unicode="&#x2013;" horiz-adv-x="500" d="M514 420l-9 -100h-467l9 100h467z" />
<glyph unicode="&#x2014;" horiz-adv-x="1000" d="M1004 420l-9 -100h-957l9 100h957z" />
<glyph unicode="&#x2018;" horiz-adv-x="145" d="M55 636q0 58 39 91q23 20 60 21v-40q-31 2 -41 -26q10 2 19 0q25 -4 39.5 -25.5t10.5 -46.5q-5 -25 -26 -40t-46 -10q-55 10 -55 76z" />
<glyph unicode="&#x2019;" horiz-adv-x="145" d="M183 672q0 -58 -39 -91q-23 -20 -60 -21v40q31 -2 41 26q-10 -2 -19 0q-25 4 -39.5 25.5t-10.5 46.5q5 25 26 40t46 10q55 -10 55 -76z" />
<glyph unicode="&#x201a;" horiz-adv-x="155" d="M136 42q0 -58 -39 -91q-23 -20 -60 -21v40q31 -2 41 26q-10 -2 -19 0q-25 4 -39.5 25.5t-10.5 46.5q5 25 26 40t46 10q55 -10 55 -76z" />
<glyph unicode="&#x201c;" horiz-adv-x="281" d="M193 636q0 58 39 91q23 20 60 21v-40q-31 2 -41 -26q10 2 19 0q25 -4 39.5 -25.5t10.5 -46.5q-5 -25 -26 -40t-46 -10q-55 10 -55 76zM53 636q0 58 39 91q23 20 60 21v-40q-31 2 -41 -26q10 2 19 0q25 -4 39.5 -25.5t10.5 -46.5q-5 -25 -26 -40t-46 -10q-55 10 -55 76z " />
<glyph unicode="&#x201d;" horiz-adv-x="281" d="M181 672q0 -58 -39 -91q-23 -20 -60 -21v40q31 -2 41 26q-10 -2 -19 0q-25 4 -39.5 25.5t-10.5 46.5q5 25 26 40t46 10q55 -10 55 -76zM321 672q0 -58 -39 -91q-23 -20 -60 -21v40q31 -2 41 26q-10 -2 -19 0q-25 4 -39.5 25.5t-10.5 46.5q5 25 26 40t46 10q55 -10 55 -76 z" />
<glyph unicode="&#x201e;" horiz-adv-x="281" d="M129 42q0 -58 -39 -91q-23 -20 -60 -21v40q31 -2 41 26q-10 -2 -19 0q-25 4 -39.5 25.5t-10.5 46.5q5 25 26 40t46 10q55 -10 55 -76zM269 42q0 -58 -39 -91q-23 -20 -60 -21v40q31 -2 41 26q-10 -2 -19 0q-25 4 -39.5 25.5t-10.5 46.5q5 25 26 40t46 10q55 -10 55 -76z " />
<glyph unicode="&#x2022;" horiz-adv-x="222" d="M136 489q41 0 69.5 -28.5t28.5 -69.5q0 -40 -29 -68.5t-69 -28.5t-69 28.5t-29 68.5q0 41 29 69.5t69 28.5z" />
<glyph unicode="&#x2026;" horiz-adv-x="424" d="M130 57q0 -25 -18 -43t-44 -18q-25 0 -43 18t-18 43q0 26 17.5 44t43.5 18t44 -18t18 -44zM270 57q0 -25 -18 -43t-44 -18q-25 0 -43 18t-18 43q0 26 17.5 44t43.5 18t44 -18t18 -44zM410 57q0 -25 -18 -43t-44 -18q-25 0 -43 18t-18 43q0 26 17.5 44t43.5 18t44 -18 t18 -44z" />
<glyph unicode="&#x202f;" horiz-adv-x="188" />
<glyph unicode="&#x2039;" horiz-adv-x="190" d="M194 249h-81l-82 119l82 120h81l-82 -120z" />
<glyph unicode="&#x203a;" horiz-adv-x="197" d="M45 487h81l82 -119l-82 -120h-81l82 120z" />
<glyph unicode="&#x205f;" horiz-adv-x="235" />
<glyph unicode="&#x2122;" horiz-adv-x="452" d="M475 492l-2 -24h-40q-37 0 -37 34q0 29 7.5 91t7.5 91q0 27 -19 27q-21 0 -24 -32l-18 -211h-49l18 216q1 20 -11 25q-5 2 -29 2l-21 -243h-49l21 244h-28l2 25h99q27 0 44 -13q20 13 47 13t46.5 -13.5t19.5 -39.5q0 -27 -7.5 -90t-7.5 -91q0 -10 11 -11q-3 0 19 0z M185 737l-2 -25h-35l-21 -244h-49l21 244h-34l2 25h118z" />
<glyph unicode="&#xe000;" horiz-adv-x="510" d="M0 510h510v-510h-510v510z" />
<glyph horiz-adv-x="526" d="M0 0z" />
</font>
</defs>
</svg>
