<?xml version="1.0" standalone="no"?>
<!DOCTYPE svg PUBLIC "-//W3C//DTD SVG 1.1//EN" "http://www.w3.org/Graphics/SVG/1.1/DTD/svg11.dtd" >
<svg xmlns="http://www.w3.org/2000/svg">
<metadata></metadata>
<defs>
<font id="holy-ravioliregular" horiz-adv-x="500" >
<font-face units-per-em="1000" ascent="800" descent="-200" />
<missing-glyph horiz-adv-x="500" />
<glyph horiz-adv-x="1000" />
<glyph horiz-adv-x="1000" />
<glyph unicode="&#xd;" horiz-adv-x="1000" />
<glyph unicode=" " />
<glyph unicode="!" horiz-adv-x="320" d="M290 38q0 -37 -36 -62.5t-86 -25.5h-4h-4h-4h-4v177h4t4 1h4h4q50 0 86 -26t36 -64v0zM266 35l-90 55v-111l90 56v0zM105 -39q-26 13 -42.5 32.5t-16.5 44.5t16.5 45t42.5 32v-154v0zM105 168h-21l-69 459h90v-459v0zM306 627l-43 -459h-111v459h154v0zM266 262l-90 55 v-109l90 54v0zM266 395l-90 55v-111l90 56v0zM266 522l-90 55v-111l90 56v0z" />
<glyph unicode="&#x22;" />
<glyph unicode="#" />
<glyph unicode="$" horiz-adv-x="612" d="M559 370q-29 14 -46 23t-32 13q-7 2 -13.5 3t-13.5 1q-17 0 -25.5 -5t-8.5 -14q0 -6 11.5 -18t31.5 -29q26 -22 46.5 -41.5t32.5 -35.5q18 -24 29 -56.5t13 -65.5v-5.5v-4.5q0 -40 -16.5 -76.5t-54.5 -56.5q-16 -8 -41.5 -15.5t-54.5 -11.5v-67h-180v62h-83v208 q22 -10 46 -15.5t53 -5.5q18 0 27.5 6t9.5 19q0 10 -18 27t-50 39q-19 13 -36 25t-32 22v308q18 4 39 6.5t44 3.5v60h180v-59h142v-244v0zM268 61l-90 55v-109l90 54v0zM268 379l-90 54v-109l90 55v0zM268 506l-90 54v-109l90 55v0zM107 -30h-58v266q16 -9 30.5 -18 t27.5 -17v-231v0zM107 330l-7 7l-5 5q-25 22 -42 51.5t-22 60.5q-2 7 -2.5 14t-0.5 14q0 33 18 62t58 46h0.5h0.5h1.5h0.5v-260v0z" />
<glyph unicode="%" />
<glyph unicode="&#x26;" horiz-adv-x="784" d="M748 -37h-320l-45 65q-25 -36 -65.5 -58t-88.5 -23v663q18 8 37 12.5t40 4.5q74 0 126.5 -52.5t52.5 -126.5q0 -17 -4 -33.5t-9 -32.5q43 32 95 49.5t110 17.5l1 -0.5t2 -0.5v0h1q0 -1 1 -1h1v-211h-1h-1h-2h-2q-25 0 -48.5 -9t-41.5 -25l161 -239v0zM343 29l-90 55v-109 l90 54v0zM343 167l-90 54v-109l90 55v0zM343 300l-90 54v-110l90 56v0zM343 432l-90 54v-109l90 55v0zM343 559l-90 54v-109l90 55v0zM182 -49q-63 15 -104.5 67t-41.5 119t40.5 118.5t101.5 67.5q-24 24 -37.5 56t-13.5 69q0 38 15 72t40 58v-627v0z" />
<glyph unicode="'" />
<glyph unicode="(" />
<glyph unicode=")" />
<glyph unicode="*" />
<glyph unicode="+" />
<glyph unicode="," />
<glyph unicode="-" />
<glyph unicode="." horiz-adv-x="320" d="M270 38q0 -37 -36 -62.5t-86 -25.5h-4h-4h-4h-4v177h4t4 1h4h4q50 0 86 -26t36 -64v0zM246 35l-90 55v-111l90 56v0zM85 -39q-26 13 -42.5 32.5t-16.5 44.5t16.5 45t42.5 32v-154v0z" />
<glyph unicode="/" />
<glyph unicode="0" horiz-adv-x="625" d="M597 290q0 -146 -83.5 -249.5t-200.5 -103.5q-37 0 -71.5 11t-65.5 32l65 39l-89 55v-76q-3 2 -6 4.5t-6 5.5t-6.5 6t-6.5 6v539q3 3 6.5 6t6.5 6t6 5.5t6 5.5v-89l89 56l-74 45q32 24 69 37.5t77 13.5q117 0 200.5 -104.5t83.5 -250.5v0zM241 157l-89 55v-111l89 56v0z M373 290q0 58 -17.5 98.5t-42.5 40.5t-43 -40.5t-18 -98.5q0 -57 18 -97.5t43 -40.5t42.5 40.5t17.5 97.5v0zM241 289l-89 54v-109l89 55v0zM241 422l-89 54v-110l89 56v0zM81 85q-25 44 -39 95.5t-14 109.5t14 110t39 95v-410v0z" />
<glyph unicode="1" horiz-adv-x="376" d="M154 -38h-56v378q-10 -15 -24 -28t-28 -22q-8 -5 -15 -9t-14 -7v227q36 9 70 24t67 35v-598v0zM359 -38h-158v630q3 2 6.5 4.5t6.5 5.5q3 2 6.5 4.5t6.5 5.5v-93l87 56l-72 46h117v-659v0zM314 46l-87 54v-110l87 56v0zM314 184l-87 54v-110l87 56v0zM314 315l-87 55 v-109l87 54v0zM314 448l-87 55v-111l87 56v0z" />
<glyph unicode="2" horiz-adv-x="537" d="M170 -38h-146l146 288v-288v0zM513 184l-1 -222h-295v675q5 1 9.5 1.5t9.5 0.5q5 1 9.5 1h9.5q87 0 157 -50.5t70 -145.5q0 -32 -12.5 -71.5t-35.5 -85.5q-4 -7 -26 -44t-61 -101q39 0 81 10.5t85 31.5v0zM331 35l-88 55v-111l88 56v0zM331 173l-88 54v-110l88 56v0z M331 305l-88 54v-109l88 55v0zM331 438l-88 54v-110l88 56v0zM331 565l-88 54v-110l88 56v0zM170 421q-23 -1 -50.5 -19.5t-59.5 -55.5l-30 214q34 25 69 42t71 27v-208v0z" />
<glyph unicode="3" horiz-adv-x="515" d="M129 -110h-13.5h-14.5h-6.5h-7.5l-62 185q17 -4 35 -6t37 -2q8 0 16 0.5t16 1.5v-179v0zM491 178q0 -70 -34 -126t-102 -95q-40 -23 -84.5 -38.5t-94.5 -22.5v185l4 2l4 2l4 2l4 2q19 11 30.5 31.5t12.5 42.5v2.5v2.5q0 17 -7.5 33t-24.5 26q-6 3 -12.5 6t-14.5 4v384 h314l-126 -267q63 -21 95 -65.5t32 -110.5v0zM290 19l-88 54v-109l88 55v0zM290 289l-88 55v-111l88 56v0zM290 421l-88 54v-108l88 54v0zM290 548l-88 54v-108l88 54v0zM129 243h-5.5h-4.5q-11 -1 -21 -2.5t-18 -3.5l49 106v-100v0zM129 428h-106l1 193h105v-193v0z" />
<glyph unicode="4" horiz-adv-x="581" d="M328 -38h-44v145h-258l67 514h224l-74 -399h43v111l42 22v-393v0zM554 104h-50v-142h-129v419l130 70v-233h49v-114v0zM488 46l-87 54v-110l87 56v0zM488 184l-87 54v-110l87 56v0zM488 315l-87 55v-109l87 54v0z" />
<glyph unicode="5" horiz-adv-x="536" d="M511 181q0 -72 -34 -128t-100 -96q-49 -29 -104.5 -45.5t-120.5 -20.5v185q44 4 66.5 26t22.5 62q0 37 -27 58t-62 28v371h301v-167h-143l-28 -90h6t7 1h8.5h8.5q99 0 149 -46t50 -138v0zM266 -18l-90 55v-111l90 56v0zM266 321l-90 55v-111l90 56v0zM266 442l-90 55 v-109l90 54v0zM266 559l-90 54v-109l90 55v0zM105 -104l-81 197q22 -7 42.5 -11t38.5 -6v-180v0zM105 255q-22 0 -42 -4t-38 -11l61 381h19v-366v0z" />
<glyph unicode="6" horiz-adv-x="590" d="M563 184q0 -53 -18 -97.5t-50 -76.5q-32 -31 -77 -48t-98 -17q-58 0 -105 17.5t-82 48.5v528q44 43 102 70t125 37l114 -198q-30 0 -57.5 -5t-52.5 -14q-28 -11 -49 -28t-34 -40q23 14 47.5 20.5t50.5 6.5q41 0 75.5 -16t59.5 -46q23 -28 35.5 -64t13.5 -78v0zM247 77 l-89 54v-109l89 55v0zM375 175q0 26 -11.5 43t-28.5 17t-29 -17t-12 -43q0 -24 12 -41.5t29 -17.5t28.5 17.5t11.5 41.5v0zM247 209l-89 55v-110l89 55v0zM247 342l-89 54v-110l89 56v0zM247 469l-89 54v-110l89 56v0zM87 65q-31 44 -45.5 99t-14.5 114t15.5 110.5 t44.5 94.5v-418v0zM563 184h-1h1v0z" />
<glyph unicode="7" horiz-adv-x="528" d="M290 621l-116 -659h-47l77 445h-180l63 214h203v0zM504 621l-150 -659h-133l118 659h165v0zM346 14l-79 70l-18 -109l97 39v0zM369 150l-77 70l-20 -109l97 39v0zM393 280l-79 70l-18 -109l97 39v0zM416 410l-77 70l-20 -109l97 39v0zM437 536l-77 70l-18 -109l95 39v0z " />
<glyph unicode="8" horiz-adv-x="592" d="M565 129q0 -87 -63 -130.5t-139 -54.5q-16 -3 -32 -4t-31 -1q-13 0 -27 1l-28 2q-23 3 -45.5 8.5t-44.5 13.5v649q26 16 57 24.5t65 8.5q9 0 17.5 -0.5t17.5 -0.5q86 -8 158.5 -56t72.5 -148q0 -51 -18 -91t-53 -69q47 -26 70 -64t23 -88v0zM268 24l-89 54v-108l89 54v0z M341 162q0 28 -12.5 48t-29.5 20t-29.5 -17t-14.5 -43l-76 46v-109l76 47q2 -26 14.5 -43.5t29.5 -17.5t29.5 20.5t12.5 48.5v0zM268 295l-89 54v-110l89 56v0zM335 443q0 27 -10.5 46.5t-25.5 19.5q-16 0 -27 -19.5t-11 -46.5v-4v-4v-2v-2l-82 50v-109l84 51q3 -20 13 -33 t23 -13q15 0 25.5 19.5t10.5 46.5v0zM268 553l-89 55v-109l89 54v0zM108 -13q-36 23 -58.5 59.5t-22.5 88.5q0 44 20.5 79.5t60.5 60.5v-288v0zM108 299q-27 29 -41 62t-14 69q0 44 14.5 81t40.5 65v-277v0z" />
<glyph unicode="9" horiz-adv-x="590" d="M563 311q0 -149 -94 -248t-239 -118l-112 192v4q29 0 56 5.5t52 14.5q28 11 49 28t34 39q-22 -13 -47 -19.5t-51 -6.5t-49.5 6t-43.5 19v372q30 22 68.5 34.5t83.5 12.5q143 0 218 -101t75 -234v0zM231 289l-89 54v-109l89 55v0zM301 414q0 25 -12 42t-29 17 q-14 0 -25 -12.5t-15 -31.5l-78 47v-110l78 48q0 -25 12 -42.5t28 -17.5q17 0 29 17.5t12 42.5v0zM231 549l-89 54v-110l89 56v0zM71 269q-21 28 -32 62.5t-11 74.5q-1 42 10.5 79t32.5 66v-282v0zM28 406l-1 -1l1 1v0z" />
<glyph unicode=":" />
<glyph unicode=";" />
<glyph unicode="&#x3c;" />
<glyph unicode="=" />
<glyph unicode="&#x3e;" />
<glyph unicode="?" horiz-adv-x="487" d="M382 38q0 -37 -35.5 -62.5t-86.5 -25.5h-10.5t-11.5 1v175q6 1 11.5 1.5t10.5 0.5q51 0 86.5 -26t35.5 -64v0zM352 35l-88 55v-111l88 56v0zM191 -36q-23 13 -37.5 32t-14.5 42t14.5 42.5t37.5 31.5v-148v0zM464 445q0 -57 -36.5 -93t-83.5 -59q-19 -10 -30.5 -18.5 t-11.5 -14.5q0 -10 7.5 -15t20.5 -5l-34 -97q-16 0 -30 1l-28 2v495h5.5t5.5 1h4.5h5.5q80 0 142.5 -47t62.5 -150v0zM352 368l-88 55v-109l88 54v0zM352 495l-88 55v-109l88 54v0zM191 154q-36 10 -54 28t-18 45q0 12 3 23.5t9 23.5t15 23.5t21 23.5q7 7 13.5 14.5 t10.5 14.5v-196v0zM191 447q-1 1 -3 1.5t-3 0.5q-2 1 -3.5 1h-3.5q-9 0 -17 -5.5t-13 -18.5v-25h-126v34q0 39 12 72t27 52q2 3 4.5 5.5l4.5 4.5q24 24 55.5 40.5t65.5 24.5v-187v0z" />
<glyph unicode="@" />
<glyph unicode="A" horiz-adv-x="843" d="M697 -38h-215l-27 67h-200l-23 -67h-194l219 561l-60 147h215l285 -708v0zM642 24l-41 99l-62 -83l103 -16v0zM590 149l-42 103l-62 -83l104 -20v0zM399 174l-55 132l-41 -132h96v0zM542 272l-44 101l-60 -82l104 -19v0zM490 396l-40 99l-62 -81l102 -18v0zM442 514 l-39 101l-62 -83l101 -18v0zM804 -38h-58l-283 708h55l286 -708v0z" />
<glyph unicode="B" horiz-adv-x="783" d="M94 -38h-58v708h58v-708v0zM747 173q0 -60 -22 -100.5t-57 -64.5q-36 -24 -82.5 -34.5t-96.5 -10.5l-348 -1v708h321q62 0 110 -13.5t75 -33.5q32 -22 46 -58t14 -75q0 -20 -3.5 -40t-10.5 -38q-4 -9 -10.5 -19t-13.5 -21q-6 -7 -12 -14.5t-13 -14.5q49 -24 76 -69.5 t27 -100.5v0zM254 50l-89 55v-109l89 54v0zM444 163q0 20 -8 38.5t-22 32.5l-84 -28v-108q3 0 7 -0.5t8 -0.5q4 -1 8 -1.5t7 -0.5q21 0 37 5t26 13q11 8 16 21t5 29v0zM254 188l-89 54v-109l89 55v0zM254 321l-89 54v-110l89 56v0zM413 464v5.5t-1 5.5q-2 12 -8 23t-17 16 q-3 1 -8 2.5t-11 3.5q-4 1 -8.5 2t-8.5 2q-5 1 -10.5 1.5t-10.5 0.5v-150q2 0 5 0.5t5 0.5l6 2l6 2q4 1 7 2t5 2q3 1 5.5 3t5.5 4q9 7 17.5 19.5t14.5 25.5q3 7 4.5 14t1.5 13v0zM254 452l-89 55v-109l89 54v0zM254 579l-89 55v-109l89 54v0z" />
<glyph unicode="C" horiz-adv-x="627" d="M599 626l-94 -276q-2 4 -4.5 8.5t-4.5 8.5q-14 23 -34.5 42t-45.5 19q-37 0 -61 -32t-24 -96q0 -15 3.5 -28t8.5 -25q2 -4 3.5 -9t3.5 -9q8 -25 28 -39.5t42 -14.5q14 0 28 6.5t24 19.5q5 6 11.5 14.5t12.5 19.5q3 5 5.5 10.5t5.5 11.5l86 -257q-51 -30 -104.5 -45.5 t-109.5 -15.5q-59 0 -111 16t-95 47v630q43 30 95.5 46t113.5 16t115 -17t102 -51v0zM286 51l-89 54v-110l89 56v0zM286 188l-89 55v-110l89 55v0zM286 320l-89 54v-108l89 54v0zM286 453l-89 55v-111l89 56v0zM286 580l-89 55v-111l89 56v0zM126 44q-49 50 -73 122.5 t-24 150.5t24 151t73 122v-546v0z" />
<glyph unicode="D" horiz-adv-x="786" d="M93 -38h-57v708h57v-708v0zM727 474q11 -36 17.5 -75t6.5 -79v-10t-1 -10q-2 -35 -8.5 -69t-18.5 -65q-13 -34 -34.5 -63.5t-48.5 -52.5q-41 -34 -93 -53.5t-107 -27.5q-22 -3 -44 -4.5t-43 -1.5l-213 -1v708h255q42 0 80 -6.5t69 -16.5q59 -19 111.5 -66t71.5 -107v0z M254 51l-88 54v-110l88 56v0zM254 188l-88 55v-110l88 55v0zM437 349v1q0 62 -31 99t-78 47v-348q54 23 81.5 73.5t27.5 127.5v0zM254 320l-88 54v-108l88 54v0zM254 453l-88 55v-111l88 56v0zM254 580l-88 55v-111l88 56v0z" />
<glyph unicode="E" horiz-adv-x="653" d="M87 -38h-57v708h57v-708v0zM623 -38h-489v708h489v-210l-314 49v-110l257 39v-225l-257 41v-113l314 43v-222v0zM247 51l-87 54v-110l87 56v0zM247 188l-87 55v-110l87 55v0zM247 320l-87 54v-108l87 54v0zM247 453l-87 55v-111l87 56v0zM247 580l-87 55v-111l87 56v0z " />
<glyph unicode="F" horiz-adv-x="635" d="M88 -38h-58h-1v708h59v-708v0zM606 415l-275 49v-111l211 28v-263l-211 42v-198h-196v708h471v-255v0zM248 51l-88 54v-110l88 56v0zM248 188l-88 55v-110l88 55v0zM248 320l-88 54v-108l88 54v0zM248 453l-88 55v-111l88 56v0zM248 580l-88 55v-111l88 56v0z" />
<glyph unicode="G" horiz-adv-x="802" d="M765 63q-79 -59 -170.5 -88.5t-186.5 -29.5q-64 0 -118.5 15t-99.5 43v638q47 33 107 49t130 16q82 0 154 -22.5t134 -67.5l-136 -198q-23 32 -53 49t-65 17q-55 0 -82.5 -40.5t-27.5 -121.5q0 -25 4 -48.5t11 -44.5q11 -27 28 -41t39 -14q26 0 38.5 16t12.5 48 q0 7 -1 18t-3 25q-14 0 -27.5 -4.5t-27.5 -12.5v130h340v-331v0zM303 64l-87 55v-109l87 54v0zM303 202l-87 55v-109l87 54v0zM303 335l-87 55v-111l87 56v0zM303 467l-87 54v-109l87 55v0zM303 594l-87 54v-109l87 55v0zM143 41q-54 54 -80.5 124.5t-26.5 146.5 q0 10 0.5 20t1.5 20q5 69 30.5 135t74.5 115v-561v0z" />
<glyph unicode="H" horiz-adv-x="747" d="M92 -38h-58v708h58v-708v0zM713 -38h-278v248h-126v-248h-170v708h170v-254h126v254h278v-708v0zM252 49l-89 55v-111l89 56v0zM252 187l-89 54v-110l89 56v0zM252 319l-89 54v-109l89 55v0zM252 452l-89 54v-110l89 56v0zM252 579l-89 54v-110l89 56v0z" />
<glyph unicode="I" horiz-adv-x="335" d="M74 -38h-59v708h59v-708v0zM320 -38h-199v708h199v-708v0zM235 49l-88 55v-111l88 56v0zM235 187l-88 54v-110l88 56v0zM235 319l-88 54v-109l88 55v0zM235 452l-88 54v-110l88 56v0zM235 579l-88 54v-110l88 56v0z" />
<glyph unicode="J" horiz-adv-x="642" d="M379 -66q-5 0 -10.5 -0.5t-11.5 -0.5h-5.5h-5.5q-76 0 -155.5 26.5t-161.5 78.5l166 223q14 -37 34 -56.5t46 -19.5q29 0 40 21t11 63v131h-288l123 270h218v-736v0zM613 215q0 -50 -7.5 -87.5t-16.5 -60.5q-12 -32 -38 -58t-64 -45q-13 -8 -28.5 -13t-32.5 -9v728h187 v-455v0zM540 49l-90 55v-111l90 56v0zM540 187l-90 54v-110l90 56v0zM540 319l-90 54v-109l90 55v0zM540 452l-90 54v-110l90 56v0zM540 579l-90 54v-110l90 56v0z" />
<glyph unicode="K" horiz-adv-x="825" d="M96 -38h-59v708h59v-708v0zM788 -38h-308l-138 212v-212h-199v708h201v-326q41 26 69.5 64t42.5 80q9 26 15 55t9 58q2 17 2.5 34.5t0.5 34.5h148h148q-4 -30 -11.5 -61.5t-18.5 -63.5q-8 -23 -17 -45t-19 -44q-25 -52 -59.5 -101t-77.5 -86l212 -307v0zM257 49l-89 55 v-111l89 56v0zM257 187l-89 54v-110l89 56v0zM257 319l-89 54v-109l89 55v0zM257 452l-89 54v-110l89 56v0zM257 579l-89 54v-110l89 56v0z" />
<glyph unicode="L" horiz-adv-x="580" d="M85 -38h-57h-2v708h59v-708v0zM553 -38h-421v708h210v-471l211 62v-299v0zM246 49l-88 54v-109l88 55v0zM246 186l-88 55v-109l88 54v0zM246 319l-88 55v-111l88 56v0zM246 451l-88 54v-109l88 55v0zM246 578l-88 54v-109l88 55v0z" />
<glyph unicode="M" horiz-adv-x="824" d="M95 -38h-58v708h58v-708v0zM787 -38h-291v214l-80 -159l-90 159v-214h-184v708h199l78 -253l90 253h278v-708v0zM255 49l-89 55v-111l89 56v0zM255 187l-89 54v-110l89 56v0zM255 319l-89 54v-109l89 55v0zM255 452l-89 54v-110l89 56v0zM255 579l-89 54v-110l89 56v0z " />
<glyph unicode="N" horiz-adv-x="785" d="M749 -38h-276l-161 203v-203h-176v708h178l131 -286v286h304v-708v0zM250 51l-88 54v-110l88 56v0zM250 188l-88 55v-111l88 56v0zM250 320l-88 54v-109l88 55v0zM250 453l-88 54v-110l88 56v0zM250 580l-88 54v-110l88 56v0zM89 -37h-53v707h53v-707v0z" />
<glyph unicode="O" horiz-adv-x="844" d="M806 316q0 -156 -113 -266t-271 -110q-58 0 -111 16t-99 44l81 50l-88 54v-100q-3 2 -6 4.5t-6 5.5q-4 2 -7 4.5t-6 4.5v586q3 2 6 4.5t7 4.5q3 2 6 4.5t6 4.5v-102l88 54l-82 52q46 29 99.5 45.5t111.5 16.5q158 0 271 -110.5t113 -266.5v0zM293 187l-88 55v-109l88 54 v0zM486 316q0 52 -19 88.5t-45 36.5t-45 -36.5t-19 -88.5t19 -89t45 -37t45 37t19 89v0zM293 320l-88 55v-110l88 55v0zM293 452l-88 54v-108l88 54v0zM133 67q-44 50 -69.5 114t-25.5 135t25.5 134.5t69.5 113.5v-497v0z" />
<glyph unicode="P" horiz-adv-x="775" d="M96 -36h-59v-2h-2v708h61v-706v0zM740 376q0 -25 -3.5 -47t-10.5 -42q-22 -60 -63 -102t-100 -65q-40 -15 -93.5 -22.5t-116.5 -7.5h-8.5t-8.5 1h-8.5h-8.5v-129h-176v708h253q77 0 138.5 -17.5t104.5 -49.5q49 -37 74.5 -94t25.5 -133h1v0zM256 50l-89 54v-109l89 55v0z M256 187l-89 55v-109l89 54v0zM256 320l-89 55v-110l89 55v0zM408 300q8 11 13.5 24.5t8.5 27.5q0 4 0.5 9t0.5 9q0 18 -6 35t-18 31t-31 23t-42 13v-207q24 0 42 8t32 27v0zM256 452l-89 54v-108l89 54v0zM256 579l-89 55v-109l89 54v0z" />
<glyph unicode="Q" horiz-adv-x="861" d="M822 144l-53 -194q-37 10 -72.5 21t-69.5 27q-44 -28 -96 -43t-108 -15q-60 0 -114.5 16.5t-100.5 47.5l75 46l-88 54v-92q-3 2 -6.5 4.5t-6.5 5.5q-3 2 -6.5 4.5t-6.5 5.5v567q3 3 6.5 5.5t6.5 4.5q3 3 6.5 5.5t6.5 4.5v-94l88 54l-77 48q47 31 101.5 48.5t115.5 17.5 q158 0 271 -110.5t113 -266.5q0 -43 -10 -83.5t-27 -77.5l52 -11v0zM283 187l-88 55v-109l88 54v0zM487 316q0 52 -19 88.5t-45 36.5t-45 -36.5t-19 -88.5t19 -89t45 -37q9 0 18 5t16 14q-1 3 -2.5 5.5t-2.5 5.5q-1 1 -1 1.5v1.5q-7 14 -15.5 26.5t-29.5 18.5q11 11 26.5 15 t33.5 4h9.5t9.5 -1q0 3 0.5 5t0.5 5q0 5 0.5 10t0.5 10v0zM283 320l-88 55v-110l88 55v0zM283 452l-88 54v-108l88 54v0zM122 81q-39 48 -61 108t-22 127q0 66 22 126t61 108v-469v0z" />
<glyph unicode="R" horiz-adv-x="804" d="M768 -38h-283l-160 169v-169h-188v708h285q62 0 110 -7.5t78 -18.5q44 -16 78.5 -50.5t53.5 -81.5q8 -21 12.5 -44.5t4.5 -47.5q-1 -34 -8.5 -67.5t-22.5 -60.5q-7 -12 -16 -23.5t-20 -23.5q-12 -12 -25.5 -23.5t-28.5 -23.5l130 -236v0zM251 50l-88 54v-109l88 55v0z M251 187l-88 55v-109l88 54v0zM251 320l-88 55v-110l88 55v0zM409 326q12 12 19.5 28t9.5 33q1 4 1 7.5v6.5q0 20 -7.5 38t-24.5 30q-12 10 -33 16.5t-48 10.5v-210q2 0 3.5 0.5t3.5 1.5q22 5 42 14.5t34 23.5v0zM251 452l-88 54v-108l88 54v0zM251 579l-88 55v-109l88 54v0 zM90 -36h-53v706h53v-706v0z" />
<glyph unicode="S" horiz-adv-x="673" d="M113 -37h-57v-1h-2v292q16 -9 30.5 -18t28.5 -17v-256v0zM615 402q-31 16 -51 26t-37 14q-7 2 -13.5 3t-14.5 1q-18 0 -27 -5.5t-9 -15.5q0 -7 12 -20.5t34 -31.5q29 -23 52 -45.5t36 -39.5q19 -25 31 -58.5t14 -68.5q1 -4 1 -8.5v-8.5q0 -45 -18.5 -84.5t-59.5 -61.5 q-26 -15 -73.5 -24.5t-99.5 -10.5h-3.5h-2.5l-226 -1v232q26 -12 54.5 -19t63.5 -7q20 0 30 7t10 20q0 11 -18.5 29.5t-55.5 43.5q-24 16 -45 30.5t-39 27.5v331q26 6 58 9.5t69 3.5h328v-268v0zM274 76l-88 55v-109l88 54v0zM274 415l-88 54v-108l88 54v0zM274 542l-88 54 v-108l88 54v0zM113 362l-4.5 4.5l-4.5 4.5q-27 24 -46 57t-25 68q-1 7 -1.5 14t-0.5 14q0 37 19 68.5t63 50.5v-281v0z" />
<glyph unicode="T" horiz-adv-x="695" d="M664 355l-179 50v-443h-179v708h358v-315v0zM420 51l-90 54v-110l90 56v0zM420 188l-90 55v-111l90 56v0zM420 320l-90 54v-109l90 55v0zM420 453l-90 54v-110l90 56v0zM420 580l-90 54v-110l90 56v0zM259 -37h-57v442l-170 -50v315h227v-707v0z" />
<glyph unicode="U" horiz-adv-x="806" d="M769 211q0 -76 -27.5 -133t-74.5 -88q-40 -28 -101 -42.5t-141 -14.5q-91 0 -158.5 12t-108.5 35q-4 2 -7.5 4.5t-8.5 5.5v680h198v-368q0 -58 16 -77t45 -19t40 21t11 74v369h317v-459v0zM256 51l-88 54v-110l88 56v0zM256 188l-88 55v-111l88 56v0zM256 320l-88 54 v-109l88 55v0zM256 453l-88 54v-110l88 56v0zM256 580l-88 54v-110l88 56v0zM96 30q-28 33 -43.5 78.5t-15.5 103.5v458h59v-640v0z" />
<glyph unicode="V" horiz-adv-x="727" d="M273 -38h-62l-178 708h64l176 -708v0zM694 670q-10 -159 -62.5 -336t-147.5 -371l-161 -1l-177 708h221l55 -347q26 61 39 130.5t13 145.5q0 12 -0.5 24t-1.5 24q0 6 -0.5 11.5t-0.5 11.5h223v0zM409 82l-100 32l27 -106l73 74v0zM374 217l-98 32l27 -108l71 76v0z M342 345l-98 31l27 -106l71 75v0zM311 474l-99 30l27 -106l72 76v0zM280 596l-98 32l26 -107l72 75v0z" />
<glyph unicode="W" horiz-adv-x="1184" d="M297 -38h-75l-168 708h66l177 -708v0zM1131 670q-4 -86 -18.5 -177t-40.5 -186q-25 -93 -58 -179.5t-72 -164.5l-280 -1l-64 238l-94 -238h-158l-177 708h216l58 -362l63 273l-18 89h320l56 -365q24 59 36.5 131.5t12.5 156.5v21.5t1 20.5v18v17h217v0zM431 82l-98 32 l26 -106l72 74v0zM398 217l-98 32l25 -108l73 76v0zM366 345l-100 31l28 -106l72 75v0zM334 474l-99 30l27 -106l72 76v0zM304 596l-100 32l26 -107l74 75v0z" />
<glyph unicode="X" horiz-adv-x="836" d="M494 -38h-64l-80 149l-62 -149h-250l227 310l-215 398h68l376 -708v0zM798 670l-244 -312l239 -396h-245l-376 708h194l92 -151l62 151h278v0zM581 141l-104 8l51 -97l53 89v0zM516 264l-104 4l52 -96l52 92v0zM454 380l-104 6l51 -95l53 89v0zM390 497l-102 6l51 -97 l51 91v0zM333 609l-104 7l51 -97l53 90v0z" />
<glyph unicode="Y" horiz-adv-x="830" d="M489 -77q-30 -22 -72.5 -33.5t-98.5 -11.5q-21 0 -63 2t-105 7l-82 269q43 -24 87 -36.5t89 -12.5q22 0 40 4.5t33 11.5l-279 547h69l382 -747v0zM792 670l-206 -591q-13 -38 -29 -68t-34 -52l-363 711h239l91 -265l63 265h239v0zM551 152l-104 9l50 -98l54 89v0z M488 276l-103 7l50 -98l53 91v0zM427 392l-101 9l50 -98l51 89v0zM367 510l-103 9l51 -96l52 87v0zM309 624l-103 9l50 -97l53 88v0z" />
<glyph unicode="Z" horiz-adv-x="716" d="M448 670l-344 -708h-71l235 471l-218 -61v298h398v0zM684 670l-197 -465l175 30v-273h-505l344 708h183v0zM318 38l-54 89l-47 -98l101 9v0zM380 163l-57 86l-47 -98l104 12v0zM438 283l-56 87l-47 -98l103 11v0zM497 401l-58 87l-47 -96l105 9v0zM553 511l-56 91 l-49 -99l105 8v0z" />
<glyph unicode="[" />
<glyph unicode="\" />
<glyph unicode="]" />
<glyph unicode="^" />
<glyph unicode="_" />
<glyph unicode="`" />
<glyph unicode="a" horiz-adv-x="840" d="M802 -39h-278l-27 113h-179l-28 -114h-252l161 503h-78v197h455l226 -699v0zM463 216l-55 223l-54 -223h109v0z" />
<glyph unicode="b" horiz-adv-x="716" d="M684 160q0 -82 -71 -140.5t-171 -58.5l-410 -1v700h420q88 0 149.5 -50.5t61.5 -123.5q0 -48 -27.5 -87.5t-74.5 -62.5q55 -26 89 -72.5t34 -103.5v0zM393 184q0 23 -22 40t-54 17h-20v-114h20q32 0 54 17t22 40v0zM408 465q0 21 -19.5 35.5t-46.5 14.5h-45v-96h45 q27 0 46.5 13.5t19.5 32.5v0z" />
<glyph unicode="c" horiz-adv-x="688" d="M656 -40h-292q-138 1 -235.5 103.5t-97.5 247.5q0 144 97.5 246.5t235.5 102.5h292v-228h-204q-49 0 -84.5 -35.5t-35.5 -85.5t35.5 -86t84.5 -36h204v-229v0z" />
<glyph unicode="d" horiz-adv-x="764" d="M730 311q0 -145 -97.5 -247.5t-235.5 -102.5l-362 -1v700h362q138 0 235.5 -102.5t97.5 -246.5v0zM429 311q0 48 -33.5 83.5t-80.5 36.5v-242q47 3 80.5 38t33.5 84v0z" />
<glyph unicode="e" horiz-adv-x="498" d="M476 -40h-453v700h442v-191h-192v-63h192v-140h-192v-93h203v-213v0z" />
<glyph unicode="f" horiz-adv-x="487" d="M465 266h-192v-306h-251v700h443v-191h-192v-63h192v-140v0z" />
<glyph unicode="g" horiz-adv-x="694" d="M662 -40h-298q-138 1 -235.5 103.5t-97.5 247.5q0 144 97.5 246.5t235.5 102.5h292v-228h-204q-49 0 -84.5 -35.5t-35.5 -85.5q0 -47 29.5 -81t72.5 -40v94l-32 59l260 1v-384v0z" />
<glyph unicode="h" horiz-adv-x="678" d="M647 -39h-266v276h-84v-277h-267v700h267v-185h84v186h266v-700v0z" />
<glyph unicode="i" horiz-adv-x="308" d="M294 -40h-277v700h277v-700v0z" />
<glyph unicode="j" horiz-adv-x="546" d="M521 300q0 -148 -106 -254t-255 -106h-4h-4h-4h-4l-119 212q10 -3 20.5 -3.5t21.5 -0.5q74 0 125 51t51 123v338h278v-360v0z" />
<glyph unicode="k" horiz-adv-x="719" d="M686 526l-170 -170q0 -33 19 -53.5t41 -35.5l1.5 -1.5t1.5 -0.5q14 -9 30.5 -17t34.5 -15l20 -8t19 -8v-256q-68 1 -130.5 20t-113.5 55q-50 35 -86 88t-53 122v-286h-268v700h268v-218l232 237l154 -153v0z" />
<glyph unicode="l" horiz-adv-x="506" d="M483 -39l-460 -1v700h258v-468h202v-231v0z" />
<glyph unicode="m" horiz-adv-x="843" d="M805 -40h-284v332l-108 -137l-141 137v-332h-234v700h3l-2 1h233l120 -167l129 166h284v-700v0z" />
<glyph unicode="n" horiz-adv-x="689" d="M657 -39h-245l-135 291v-292h-246v700h246l135 -223v224h245v-700v0z" />
<glyph unicode="o" horiz-adv-x="816" d="M779 308q0 -149 -109 -254t-262 -105q-152 0 -261.5 105t-109.5 254q0 150 109.5 256t261.5 106q153 0 262 -106t109 -256v0zM501 308q0 67 -27.5 115t-65.5 48t-65 -48t-27 -115t27 -113.5t65 -46.5t65.5 46.5t27.5 113.5v0z" />
<glyph unicode="p" horiz-adv-x="672" d="M642 395q0 -113 -96.5 -194t-231.5 -81q-2 0 -4 0.5t-4 0.5q-3 0 -5 0.5t-4 0.5v-152h-267v700h284q135 0 231.5 -79.5t96.5 -195.5v0zM386 403q0 35 -22 58.5t-55 23.5h-12v-167h12q33 0 55 24.5t22 60.5v0z" />
<glyph unicode="q" horiz-adv-x="871" d="M831 135l-18 -209q-1 0 -1.5 -0.5t-1.5 -0.5q-2 -1 -3.5 -2.5t-4.5 -1.5q-19 -9 -38.5 -14.5t-39.5 -9.5q-13 -2 -26 -3t-26 -1q-54 0 -105.5 18.5t-93.5 53.5q-7 -1 -15 -2t-15 -2q-8 0 -15.5 -0.5t-15.5 -0.5q-154 0 -263.5 105t-109.5 253q0 150 109.5 256.5 t263.5 106.5q152 0 260 -106.5t108 -256.5q0 -60 -19 -114.5t-53 -98.5q4 -1 8 -1.5t8 -0.5q4 -1 8 -1h8q8 0 15.5 1t15.5 2q7 2 15 4.5t15 5.5q3 1 5.5 2.5t4.5 2.5q6 3 11 6.5t9 8.5v0zM503 318q0 67 -26.5 115t-64.5 48q-40 0 -67 -48t-27 -115q0 -65 27 -112.5t67 -47.5 q38 0 64.5 47.5t26.5 112.5v0z" />
<glyph unicode="r" horiz-adv-x="692" d="M661 -20q-10 -1 -20 -2.5t-19 -3.5l-20 -2t-20 -1q-88 0 -160 41t-117 108q-1 0 -2 0.5l-1 0.5q-1 0 -2 0.5t-2 0.5v-152h-267v701h284q135 0 231 -80t96 -196q0 -54 -23 -102t-64 -85q11 -10 25 -17t30 -7q15 0 28 5t23 15v-224v0zM387 403q0 35 -22 58.5t-55 23.5h-12 v-167h12q33 0 55 24.5t22 60.5v0z" />
<glyph unicode="s" horiz-adv-x="664" d="M634 449q-7 2 -16 3t-19 1q-7 0 -13.5 -0.5t-13.5 -1.5q-34 -4 -62.5 -18t-31.5 -36l-34 -193q-19 -110 -99.5 -179.5t-182.5 -69.5q-6 0 -12.5 0.5t-12.5 0.5q-6 1 -12.5 2t-12.5 2q-1 1 -19.5 3.5t-40.5 7.5q-3 0 -6 0.5t-6 1.5l-10 255q1 -1 18 -5t39 -8q1 0 2 -0.5 t2 -0.5q22 -4 41 -8t20 -4q3 -1 5.5 -1h4.5q19 0 34 13t18 33l35 193q18 110 99.5 180t184.5 70q11 0 23 -1t24 -3l54 -237v0z" />
<glyph unicode="t" horiz-adv-x="612" d="M584 464h-152v-494h-248v494h-156v205h556v-205v0z" />
<glyph unicode="u" horiz-adv-x="746" d="M711 -31h-267l-42 50q-12 -12 -25 -19.5t-26 -13.5q-23 -9 -45 -12t-37 -3q-110 0 -173 78t-63 190v431h264v-434q0 -21 15 -36.5t37 -15.5q14 0 26.5 7.5t19.5 17.5v460h268v-592l48 -108v0z" />
<glyph unicode="v" horiz-adv-x="899" d="M858 669l-246 -487l49 -96l-256 -130l-364 713h322l102 -199l101 199h292v0z" />
<glyph unicode="w" horiz-adv-x="1362" d="M1299 669l-270 -504l55 -79l-237 -130l-151 292l-88 -88l45 -87l-234 -117l-357 714h291l130 -259l84 91l-84 167h301l99 -208l125 208h291v0z" />
<glyph unicode="x" horiz-adv-x="923" d="M881 -31h-318l-101 141l-93 -140h-281l221 338l-8 17q-20 51 -65 81t-98 30q-16 0 -32.5 -3t-32.5 -9q-5 -2 -10.5 -4.5t-10.5 -5.5q-3 -1 -5.5 -2.5t-4.5 -2.5l157 267h6h6q74 0 143.5 -29t120.5 -83l70 106h279l-222 -343l279 -358v0z" />
<glyph unicode="y" horiz-adv-x="808" d="M770 669l-372 -700h-296l153 265l-218 436h300l88 -166l89 165h256v0z" />
<glyph unicode="z" horiz-adv-x="713" d="M682 -31h-650v141l290 330h-253v229h566v-210l-251 -259h298v-231v0z" />
<glyph unicode="{" />
<glyph unicode="|" />
<glyph unicode="}" />
<glyph unicode="~" />
<glyph unicode="&#xa0;" />
<glyph unicode="&#xa1;" />
<glyph unicode="&#xa2;" />
<glyph unicode="&#xa3;" horiz-adv-x="588" d="M561 -26q-12 0 -24 -0.5t-24 -0.5q-46 0 -86.5 5.5t-75.5 12.5q-36 7 -68 12t-61 5q-33 0 -55 -3.5t-42 -8.5l-10 -2t-10 -3q-16 -4 -34.5 -7.5t-43.5 -6.5v173q34 3 57 8.5t44 11.5v124h-84v69h85q10 128 95.5 216t201.5 88h19h37h37h19l1 -196q-3 1 -6 1.5t-6 1.5 q-6 1 -11.5 1h-12.5q-49 0 -86.5 -31.5t-51.5 -80.5h137v-69h-143v-132q35 -6 75.5 -11t92.5 -5h7.5t7.5 1h8h8l3 -173v0z" />
<glyph unicode="&#xa4;" />
<glyph unicode="&#xa5;" />
<glyph unicode="&#xa6;" />
<glyph unicode="&#xa7;" />
<glyph unicode="&#xa8;" />
<glyph unicode="&#xa9;" />
<glyph unicode="&#xaa;" />
<glyph unicode="&#xab;" />
<glyph unicode="&#xac;" />
<glyph unicode="&#xad;" />
<glyph unicode="&#xae;" />
<glyph unicode="&#xaf;" />
<glyph unicode="&#xb0;" />
<glyph unicode="&#xb1;" />
<glyph unicode="&#xb2;" />
<glyph unicode="&#xb3;" />
<glyph unicode="&#xb4;" />
<glyph unicode="&#xb5;" />
<glyph unicode="&#xb6;" />
<glyph unicode="&#xb7;" />
<glyph unicode="&#xb8;" />
<glyph unicode="&#xb9;" />
<glyph unicode="&#xba;" />
<glyph unicode="&#xbb;" />
<glyph unicode="&#xbc;" />
<glyph unicode="&#xbd;" />
<glyph unicode="&#xbe;" />
<glyph unicode="&#xbf;" />
<glyph unicode="&#xc0;" />
<glyph unicode="&#xc1;" />
<glyph unicode="&#xc2;" />
<glyph unicode="&#xc3;" />
<glyph unicode="&#xc4;" />
<glyph unicode="&#xc5;" />
<glyph unicode="&#xc6;" />
<glyph unicode="&#xc7;" />
<glyph unicode="&#xc8;" />
<glyph unicode="&#xc9;" />
<glyph unicode="&#xca;" />
<glyph unicode="&#xcb;" />
<glyph unicode="&#xcc;" />
<glyph unicode="&#xcd;" />
<glyph unicode="&#xce;" />
<glyph unicode="&#xcf;" />
<glyph unicode="&#xd0;" />
<glyph unicode="&#xd1;" />
<glyph unicode="&#xd2;" />
<glyph unicode="&#xd3;" />
<glyph unicode="&#xd4;" />
<glyph unicode="&#xd5;" />
<glyph unicode="&#xd6;" />
<glyph unicode="&#xd7;" />
<glyph unicode="&#xd8;" />
<glyph unicode="&#xd9;" />
<glyph unicode="&#xda;" />
<glyph unicode="&#xdb;" />
<glyph unicode="&#xdc;" />
<glyph unicode="&#xdd;" />
<glyph unicode="&#xde;" />
<glyph unicode="&#xdf;" />
<glyph unicode="&#xe0;" />
<glyph unicode="&#xe1;" />
<glyph unicode="&#xe2;" />
<glyph unicode="&#xe3;" />
<glyph unicode="&#xe4;" />
<glyph unicode="&#xe5;" />
<glyph unicode="&#xe6;" />
<glyph unicode="&#xe7;" />
<glyph unicode="&#xe8;" />
<glyph unicode="&#xe9;" />
<glyph unicode="&#xea;" />
<glyph unicode="&#xeb;" />
<glyph unicode="&#xec;" />
<glyph unicode="&#xed;" />
<glyph unicode="&#xee;" />
<glyph unicode="&#xef;" />
<glyph unicode="&#xf0;" />
<glyph unicode="&#xf1;" />
<glyph unicode="&#xf2;" />
<glyph unicode="&#xf3;" />
<glyph unicode="&#xf4;" />
<glyph unicode="&#xf5;" />
<glyph unicode="&#xf6;" />
<glyph unicode="&#xf7;" />
<glyph unicode="&#xf8;" />
<glyph unicode="&#xf9;" />
<glyph unicode="&#xfa;" />
<glyph unicode="&#xfb;" />
<glyph unicode="&#xfc;" />
<glyph unicode="&#xfd;" />
<glyph unicode="&#xfe;" />
<glyph unicode="&#xff;" />
<glyph unicode="&#x152;" />
<glyph unicode="&#x153;" />
<glyph unicode="&#x178;" />
<glyph unicode="&#x2c6;" />
<glyph unicode="&#x2dc;" />
<glyph unicode="&#x2000;" horiz-adv-x="353" />
<glyph unicode="&#x2001;" horiz-adv-x="706" />
<glyph unicode="&#x2002;" horiz-adv-x="353" />
<glyph unicode="&#x2003;" horiz-adv-x="706" />
<glyph unicode="&#x2004;" horiz-adv-x="235" />
<glyph unicode="&#x2005;" horiz-adv-x="176" />
<glyph unicode="&#x2006;" horiz-adv-x="117" />
<glyph unicode="&#x2007;" horiz-adv-x="117" />
<glyph unicode="&#x2008;" horiz-adv-x="88" />
<glyph unicode="&#x2009;" horiz-adv-x="141" />
<glyph unicode="&#x200a;" horiz-adv-x="39" />
<glyph unicode="&#x2010;" />
<glyph unicode="&#x2011;" />
<glyph unicode="&#x2012;" />
<glyph unicode="&#x2013;" />
<glyph unicode="&#x2014;" />
<glyph unicode="&#x2018;" />
<glyph unicode="&#x2019;" />
<glyph unicode="&#x201a;" />
<glyph unicode="&#x201c;" />
<glyph unicode="&#x201d;" />
<glyph unicode="&#x201e;" />
<glyph unicode="&#x2022;" />
<glyph unicode="&#x2026;" />
<glyph unicode="&#x202f;" horiz-adv-x="141" />
<glyph unicode="&#x2039;" />
<glyph unicode="&#x203a;" />
<glyph unicode="&#x205f;" horiz-adv-x="176" />
<glyph unicode="&#x2122;" />
<glyph unicode="&#xe000;" horiz-adv-x="675" d="M0 675h675v-675h-675v675z" />
</font>
</defs>
</svg>
