<?xml version="1.0" standalone="no"?>
<!DOCTYPE svg PUBLIC "-//W3C//DTD SVG 1.1//EN" "http://www.w3.org/Graphics/SVG/1.1/DTD/svg11.dtd" >
<svg xmlns="http://www.w3.org/2000/svg">
<metadata></metadata>
<defs>
<font id="kelmscottromanregular" horiz-adv-x="500" >
<font-face units-per-em="1000" ascent="800" descent="-200" />
<missing-glyph horiz-adv-x="200" />
<glyph horiz-adv-x="1000" />
<glyph horiz-adv-x="1000" />
<glyph unicode="&#xd;" horiz-adv-x="1000" />
<glyph unicode=" "  horiz-adv-x="200" />
<glyph unicode="&#x09;" horiz-adv-x="200" />
<glyph unicode="&#xa0;" horiz-adv-x="200" />
<glyph unicode="!" horiz-adv-x="125" d="M109 37q0 -19 -13.5 -32.5t-33.5 -13.5q-19 0 -33 13.5t-14 32.5q0 20 14 33.5t33 13.5q20 0 33.5 -13.5t13.5 -33.5v0zM119 671l-27 -506q0 -10 -8.5 -15.5t-19.5 -6.5q-10 0 -18.5 5.5t-9.5 15.5l-30 485v0.5v0.5v0.5v0.5q0 2 0.5 3.5t0.5 3.5q3 7 8.5 13t12.5 7 q10 2 19 6l18 8q4 1 7.5 3t7.5 3q3 2 6 2h6q11 0 19 -8t8 -20v0v0v-1v0v0z" />
<glyph unicode="&#x22;" horiz-adv-x="197" d="M95 664l-22 -90q-1 -7 -7.5 -11.5t-14.5 -4.5q-9 0 -15 4.5t-8 11.5l-22 90q-1 3 -1 6v6v1.5v1.5q1 15 11.5 27.5t34.5 12.5q23 0 34 -12.5t11 -27.5v-1.5v-1.5v-6t-1 -6v0zM195 664l-22 -90q-1 -7 -7.5 -11.5t-14.5 -4.5q-9 0 -15 4.5t-8 11.5l-22 90q-1 3 -1 6v6v1.5 v1.5q1 15 11.5 27.5t34.5 12.5q23 0 34 -12.5t11 -27.5v-1.5v-1.5v-6t-1 -6v0z" />
<glyph unicode="#" />
<glyph unicode="$" horiz-adv-x="546" d="M521 181q0 -77 -57 -125.5t-125 -63.5q-6 -1 -11.5 -2t-11.5 -2v-98q0 -14 -9 -21.5t-20 -7.5q-10 0 -19 7.5t-9 22.5v92q-17 1 -36.5 3.5t-38.5 6.5q-60 12 -109.5 48t-49.5 102q0 30 12.5 43t28.5 14q16 0 29 -11.5t13 -40.5q0 -40 30.5 -63t67.5 -32q13 -3 26 -4.5 t25 -1.5h1.5h0.5v228l-116 48q-45 20 -74.5 63t-29.5 92q0 67 50.5 109t110.5 58q13 3 25 5.5t24 3.5h2.5t2.5 1h2.5h2.5v46q0 16 9 23.5t19 7.5q11 0 20 -7.5t9 -23.5v-47q6 -1 12 -1.5t13 -2.5q36 -6 71.5 -21.5t62.5 -41.5q1 0 1.5 -1l0.5 -1l2 -4l2 -4l2 -6t1 -4 q0 -6 0.5 -12t0.5 -12t0.5 -12t0.5 -12t-0.5 -12t-1.5 -12q0 -13 -8.5 -20t-19.5 -7q-10 0 -19 7.5t-9 22.5v15q-4 26 -25.5 44t-47.5 28q-10 4 -20 6.5t-19 4.5v-212q9 -3 18 -6.5t18 -7.5q9 -3 17.5 -7t17.5 -8q53 -24 93.5 -63t40.5 -111v0zM415 155q0 26 -19 46t-41 32 q-5 3 -10 5.5t-10 4.5l-19 8v-196q6 2 12.5 4.5t12.5 5.5q28 13 51 36t23 54v0zM259 407v191h-0.5h-1.5h-1.5h-0.5q-9 -1 -19 -3.5t-20 -5.5q-29 -10 -54 -30.5t-25 -52.5q0 -27 19 -46t41 -29q1 0 1.5 -0.5t1.5 -0.5l59 -23v0z" />
<glyph unicode="%" />
<glyph unicode="&#x26;" horiz-adv-x="806" d="M764 60q-26 -39 -68 -57.5t-88 -18.5q-24 0 -47.5 5.5t-44.5 15.5t-35.5 24.5t-27.5 31.5q-4 5 -8 10.5t-8 10.5q-5 -5 -10.5 -10t-11.5 -10q-35 -29 -78.5 -53.5t-89.5 -24.5q-7 0 -14 0.5t-14 0.5q-60 6 -112 36.5t-66 93.5q-2 9 -3 18t-1 18q0 62 42.5 113.5 t95.5 80.5l22 12l22 12q-3 5 -6.5 10t-6.5 10q-17 27 -32.5 56.5t-19.5 58.5q0 5 -0.5 9.5t-0.5 8.5q0 21 9 41.5t30 39.5q18 15 39 23.5t43 10.5q3 1 6 1h6q26 0 50.5 -9t43.5 -26q21 -19 31 -42.5t10 -49.5v-2.5v-3.5q-2 -41 -25.5 -79t-60.5 -58q-1 0 20 -28t46 -60 q23 -30 42.5 -54.5t23.5 -29.5q8 9 15.5 18.5t14.5 18.5q34 45 58.5 87t34.5 72h-72q-14 0 -21.5 9t-7.5 19v1.5v1.5q1 10 8.5 18t20.5 8h217q14 0 21 -8t8 -18v-1.5v-1.5q0 -10 -7 -19t-22 -9h-87q-9 -33 -33 -78.5t-58 -93.5q-12 -18 -25.5 -35t-27.5 -34l6 -8t7 -8 q21 -26 46 -48.5t63 -22.5q4 0 8.5 0.5t9.5 0.5q19 3 37 13t29 26q5 8 11 11t12 3q14 -1 25.5 -13.5t10.5 -27.5q0 -4 -1 -8.5t-4 -8.5v0zM402 126q-8 10 -15.5 19.5t-15.5 19.5q-2 2 -3.5 4.5t-3.5 5.5q-29 36 -57.5 72.5t-55.5 74.5q-15 -8 -30 -16.5t-30 -16.5 q-28 -16 -40.5 -41t-12.5 -52v-6.5t1 -6.5q5 -50 42 -92t89 -41q5 0 10.5 0.5t11.5 1.5q3 0 5.5 1t5.5 2q7 2 14.5 6t15.5 8q11 7 21 15l20 16q8 7 15 13.5t13 12.5v0zM364 515q0 28 -21.5 46.5t-46.5 19.5h-1.5h-1.5h-2.5h-2.5q-18 -2 -32.5 -15.5t-14.5 -33.5 q0 -14 17.5 -45.5t44.5 -71.5q29 15 45 41t16 59v0z" />
<glyph unicode="'" horiz-adv-x="101" d="M95 664l-22 -90q-1 -7 -7.5 -11.5t-14.5 -4.5q-9 0 -15 4.5t-8 11.5l-22 90q-1 3 -1 6v6v1.5v1.5q1 15 11.5 27.5t34.5 12.5q23 0 34 -12.5t11 -27.5v-1.5v-1.5v-6t-1 -6v0z" />
<glyph unicode="(" horiz-adv-x="369" d="M348 -284q-4 -6 -11 -10.5t-18 -4.5q-5 0 -11.5 1.5t-14.5 5.5q-134 68 -203 200t-73 277v8v8v2.5v3.5q1 147 70.5 282t205.5 204q8 4 14 5.5t12 1.5q10 0 17.5 -4.5t11.5 -11.5q2 -4 3 -7.5t1 -8.5v-2.5v-3.5q-2 -7 -5.5 -13.5t-11.5 -10.5q-78 -47 -119 -130t-55 -174 q-6 -34 -8 -68t-2 -66q0 -30 2.5 -62t7.5 -65q14 -92 55 -177t119 -133q8 -5 12.5 -13t4.5 -17q0 -5 -1 -8.5t-3 -7.5v-1z" />
<glyph unicode=")" horiz-adv-x="369" d="M20 -284q-1 5 -2.5 9t-1.5 9q1 8 5 16t12 13q78 48 119 133t55 177q5 33 7.5 65t2.5 62q0 32 -2 66t-8 68q-14 91 -55 174t-119 130q-9 5 -13 13.5t-4 17.5q0 4 1 7.5t3 7.5q5 7 12.5 11.5t17.5 4.5q5 0 11.5 -1.5t13.5 -5.5q136 -69 205.5 -204t70.5 -282v-3.5v-2.5v-8 v-8q-4 -145 -73 -277t-203 -200q-7 -4 -14 -5.5t-13 -1.5q-10 0 -17 4.5t-11 11.5v-1z" />
<glyph unicode="*" horiz-adv-x="228" d="M215 584q-4 -12 -11.5 -17t-15.5 -4q-4 0 -8 1t-8 3l-40 24l12 -45v-2t1 -2v-2v-2q-1 -10 -7.5 -19t-23.5 -9q-16 0 -23 9t-7 19v2v2t0.5 2t0.5 2l11 45l-40 -25q-4 -2 -8 -3.5t-9 -0.5q-8 0 -15.5 5t-11.5 16q-1 3 -1.5 6t-0.5 5q0 11 7.5 18t15.5 10q2 0 3 0.5t2 0.5 l46 3l-36 30q-4 4 -7.5 10t-3.5 13q0 2 0.5 4t0.5 4q2 4 5 8.5t8 7.5q5 4 10 5.5t9 1.5q9 0 16 -5.5t10 -13.5l17 -43l18 43q3 8 10 13.5t17 5.5q5 0 9.5 -1.5t8.5 -5.5q5 -3 8 -7.5t5 -8.5q0 -2 0.5 -4t0.5 -4q0 -7 -3 -12.5t-8 -10.5l-36 -29l47 -4h1.5h1.5q9 -2 16.5 -9 t7.5 -19q0 -2 -0.5 -5t-1.5 -6v0z" />
<glyph unicode="+" />
<glyph unicode="," horiz-adv-x="121" d="M91 -18q-11 -16 -28 -27.5t-35 -10.5h-5t-6 1v4q13 10 18.5 22.5t-3.5 25.5q-1 2 -2.5 3.5l-3.5 3.5q-7 7 -10.5 15.5t-3.5 18.5q0 5 1 9.5t3 8.5q5 14 17.5 21t25.5 7h4.5t5.5 -1q2 0 4.5 -1t4.5 -2q16 -9 22.5 -22t6.5 -28q0 -4 -0.5 -8t-1.5 -8q-2 -8 -5.5 -16 t-8.5 -15v-1z" />
<glyph unicode="-" horiz-adv-x="215" d="M205 322q0 -10 -7.5 -19t-22.5 -9h-135q-15 0 -22.5 9t-7.5 19q0 11 7.5 19.5t22.5 8.5h135q15 0 22.5 -8.5t7.5 -19.5v0z" />
<glyph unicode="." horiz-adv-x="125" d="M109 37q0 -19 -13.5 -32.5t-33.5 -13.5q-19 0 -33 13.5t-14 32.5q0 20 14 33.5t33 13.5q20 0 33.5 -13.5t13.5 -33.5v0z" />
<glyph unicode="/" horiz-adv-x="286" d="M286 693l-222 -944h-56l222 944h56v0z" />
<glyph unicode="0" horiz-adv-x="548" d="M507 157q-28 -78 -96 -127.5t-149 -49.5q-10 0 -20 1t-19 2q-10 2 -20 4.5t-20 6.5q-76 27 -117.5 94.5t-41.5 144.5q0 24 4.5 48t12.5 46q29 78 96.5 128t148.5 50q10 0 20 -1l20 -2q9 -2 19 -4.5t20 -6.5q77 -28 117.5 -96t40.5 -145q0 -8 -0.5 -15.5t-1.5 -15.5 q-1 -16 -4.5 -31.5t-9.5 -30.5v0zM415 242q0 14 -2 30t-6 32q-12 51 -45 93t-88 42t-88 -42t-46 -93q-4 -16 -6 -32t-2 -30t2 -30t6 -32q13 -51 46 -93t88 -42t88 42t45 93q4 16 6 32t2 30v0z" />
<glyph unicode="1" horiz-adv-x="453" d="M432 28q0 -10 -7.5 -19t-21.5 -9h-335q-15 0 -22.5 9t-7.5 19q0 11 7.5 19.5t22.5 8.5h116v338q-24 -4 -48 -6.5t-48 -2.5q-10 0 -20 0.5t-20 1.5q-14 1 -20.5 10t-6.5 19v1.5v1.5q1 9 8 16.5t20 7.5h2.5h1.5q9 -1 18 -1h19q20 0 41 1.5t42 5.5t42 9t42 12q2 1 4.5 1h4.5 q11 0 19.5 -8t8.5 -20v-387h109q14 0 21.5 -8.5t7.5 -19.5v0z" />
<glyph unicode="2" horiz-adv-x="526" d="M498 112l-89 -153q-5 -7 -11.5 -11t-14.5 -4q-4 0 -7.5 1t-6.5 3q-6 4 -10 10t-4 14q0 4 1.5 7.5t3.5 8.5l7 11h-310q-10 1 -16.5 7.5t-8.5 16.5q0 1 -0.5 2t-0.5 2v1v2q0 8 4.5 14.5t11.5 9.5q67 26 115.5 54.5t77.5 60.5q23 26 34 55t11 60v10.5t-1 11.5 q-4 34 -23.5 61t-51.5 40q-9 4 -19.5 6.5t-20.5 4.5q-5 0 -10 0.5t-10 0.5q-20 0 -40 -5t-37 -15q-4 -2 -8.5 -3.5t-9.5 -1.5q-7 1 -14 4.5t-11 9.5q-3 4 -4 8.5t-1 9.5q0 8 3.5 15t10.5 12q30 21 65.5 34t72.5 16q4 0 7.5 0.5t7.5 0.5h6.5h7.5q80 0 137 -38.5t64 -121.5 v-3.5t1 -3.5v-3.5v-3.5q-1 -52 -27.5 -97t-63.5 -81q-16 -15 -32.5 -28.5t-34.5 -27.5h174l26 45q4 7 9 10t11 4q1 1 2.5 1h2.5q4 0 7.5 -1t6.5 -3q6 -4 10.5 -10t4.5 -14q-1 -4 -2 -7.5t-3 -8.5v0z" />
<glyph unicode="3" horiz-adv-x="471" d="M450 3q0 -105 -83.5 -171t-183.5 -89q-26 -5 -52 -8t-50 -3h-15.5t-15.5 1q-13 1 -20 9.5t-6 18.5v2v2q1 10 7.5 18.5t19.5 8.5h1.5h1.5q3 0 6 -0.5t6 -0.5h5h6q15 0 31 1.5t31 4.5q73 13 133 58.5t59 125.5q-1 46 -35 68t-76 33q-16 4 -31 7t-29 6q-11 2 -19.5 12 t-8.5 21v0.5v0.5v0.5v0.5v2v2q2 9 9 17.5t16 11.5q18 5 34.5 11t31.5 14q33 18 50.5 47t17.5 68q0 49 -36.5 76t-82.5 27h-0.5h-1.5h-1.5h-0.5q-25 -1 -49 -10.5t-42 -27.5q-3 -2 -5.5 -3.5t-5.5 -2.5t-5.5 -1.5t-5.5 -0.5q-7 0 -13.5 2.5t-11.5 7.5q-4 5 -6.5 10.5 t-2.5 11.5q0 2 0.5 4t1.5 4q1 4 3.5 8.5t6.5 7.5q35 27 77.5 43t86.5 19q5 1 11 1h11q11 0 23 -1t23 -3q49 -9 90 -38t48 -81q0 -2 0.5 -4t0.5 -4v-5v-4q0 -52 -33 -97.5t-74 -74.5q3 -2 6.5 -3.5t7.5 -2.5q58 -28 98.5 -61.5t40.5 -96.5v0z" />
<glyph unicode="4" horiz-adv-x="558" d="M532 55q0 -14 -7 -25.5t-22 -11.5h-35v-227q0 -1 -0.5 -3.5t-1.5 -4.5q-2 -5 -5.5 -9.5t-7.5 -6.5l-0.5 -0.5t-1.5 -0.5l-58 -27q-3 -1 -6 -1h-6q-11 0 -19.5 8t-8.5 20v252h-298q-11 0 -18.5 8.5t-9.5 19.5q-1 3 -1.5 6.5t-0.5 7.5q0 8 3 16t7 12l385 372q4 4 9 6t10 2 q11 0 20 -8t9 -20v-348h35q15 0 22 -11.5t7 -25.5v0zM353 92v225l-232 -225h232v0z" />
<glyph unicode="5" horiz-adv-x="553" d="M524 454l-89 -153q-4 -7 -9 -10.5t-11 -4.5q-1 -1 -2.5 -1h-2.5q-4 0 -7.5 1t-7.5 3q-6 4 -10 10t-4 14q0 4 1.5 8t3.5 8l1 3h-109.5h-109.5l-6 -135q24 8 50 11.5t53 3.5h4h5q51 -1 99 -19t83 -55q26 -29 38 -62t12 -67v-7v-6q-4 -57 -34.5 -110t-76.5 -88 q-42 -32 -92.5 -48t-103.5 -16q-41 0 -81.5 9.5t-76.5 29.5q-8 5 -12 11.5t-4 13.5q0 4 1.5 7.5t2.5 6.5q3 7 9.5 11t14.5 4q4 0 7.5 -1t7.5 -3q30 -16 64.5 -24t69.5 -8q33 0 64.5 7.5t59.5 22.5q34 22 51 58t19 75v6v6v10t-1 10q0 5 -1 9.5t-2 9.5q-13 71 -67.5 99 t-117.5 28q-18 0 -35 -2t-34 -5q-3 -1 -6.5 -1.5t-7.5 -0.5q-8 0 -14.5 5t-5.5 18v0v1v0v0l11 261q0 11 9 19t19 8h152.5h152.5l27 47q5 8 11.5 12t13.5 4q4 0 7.5 -1t6.5 -3q6 -4 10.5 -10.5t4.5 -14.5q0 -2 -1 -4.5t-2 -5.5q0 -1 -0.5 -2.5t-1.5 -2.5v0z" />
<glyph unicode="6" d="M476 210q-7 -88 -73 -159.5t-158 -72.5q-105 -1 -159 75.5t-62 168.5q0 7 -0.5 14.5t-0.5 15.5q-1 102 37 196.5t112 164.5q50 48 114 77.5t134 34.5h1.5h1.5h0.5h1.5q14 0 22.5 -7.5t9.5 -16.5v-0.5v-0.5v-0.5v-0.5v-1.5v-1.5q-1 -9 -9 -17t-24 -10q-50 -6 -96.5 -33.5 t-84.5 -68.5q-26 -28 -47.5 -63.5t-37.5 -77.5q24 16 51 23.5t60 7.5q94 0 151 -69t57 -157v-10.5t-1 -10.5v0zM382 203v4v4q-3 58 -42 106.5t-102 48.5h-6.5h-7.5q-26 -2 -50.5 -10.5t-41.5 -29.5q-2 -17 -3.5 -33.5t-2.5 -32.5q0 -18 2 -39.5t6 -44.5q11 -50 38.5 -92 t80.5 -43h1.5h1.5q46 0 77 36t42 79q4 12 5.5 24t1.5 23v0z" />
<glyph unicode="7" horiz-adv-x="576" d="M546 452l-96 -154l-267 -475l-0.5 -0.5l-0.5 -0.5q-2 -3 -6 -6t-8 -4q-3 -2 -5.5 -2.5t-4.5 -0.5l-31 -1q-12 1 -20 10.5t-8 20.5v3t1 3q0 2 1 3.5t2 3.5l298 475l33 58h-333l-21 -36q-5 -8 -11.5 -12t-14.5 -4q-4 0 -7.5 1.5t-6.5 2.5q-6 4 -10 10t-4 14q0 4 1.5 8 t3.5 8l89 154q4 7 9 10t11 4q1 1 2.5 1h2.5q4 0 7.5 -1t6.5 -3q6 -4 10.5 -10t4.5 -14q-1 -4 -2 -7.5t-3 -8.5l-4 -6h357q13 0 20.5 -9.5t7.5 -20.5q0 -4 -1 -7.5t-3 -6.5v0z" />
<glyph unicode="8" horiz-adv-x="526" d="M503 163q1 -82 -61.5 -130t-138.5 -60l-22 -2t-22 -1h-12t-12 1h-1.5h-1.5q-78 8 -143 58.5t-65 136.5q0 78 48.5 121.5t107.5 76.5l14 8l14 8q-46 41 -82.5 87t-36.5 113q0 75 60.5 112t133.5 38h1.5h1.5q74 -1 135.5 -38t61.5 -110q0 -63 -43 -109t-96 -80l1.5 -1.5 t1.5 -0.5q58 -42 106.5 -96t49.5 -132v0zM345 256q-23 21 -46.5 42t-46.5 42l-14 -8t-13 -7l-14 -8l-14 -8q-34 -21 -51 -57.5t-17 -76.5q0 -18 3 -35t10 -33q14 -35 43.5 -59t72.5 -23q56 1 91.5 43t36.5 92v1.5v1.5q0 26 -10 50t-31 43v0zM377 565q0 49 -29.5 72.5 t-65.5 26.5h-4h-4h-8t-8 -1q-32 -4 -56.5 -23.5t-24.5 -52.5q0 -9 3 -20t8 -22q13 -27 35 -51.5t46 -44.5q7 -5 13 -10l12 -10q35 25 59 57.5t24 78.5v0z" />
<glyph unicode="9" d="M477 182q1 -102 -37 -196t-112 -164q-50 -48 -114 -77.5t-134 -34.5h-2.5h-2.5q-15 0 -23 7t-9 17v1.5v1.5q0 10 8.5 18.5t24.5 10.5q50 6 96.5 33.5t83.5 68.5q26 28 48 63t37 77q-24 -15 -51 -22.5t-60 -7.5q-94 0 -150.5 68.5t-56.5 156.5v10.5t1 10.5 q7 88 73.5 159.5t157.5 72.5q105 1 159 -75.5t62 -168.5q0 -7 0.5 -14.5t0.5 -15.5v0zM374 174q0 18 -2 39.5t-6 44.5q-11 50 -39 92t-81 43q-47 1 -78.5 -36t-43.5 -81q-3 -11 -4.5 -22.5t-1.5 -22.5v-5.5v-5.5q4 -57 42.5 -105t100.5 -48h4h4q28 1 54.5 10t44.5 31 q2 17 3.5 33.5t2.5 32.5v0z" />
<glyph unicode=":" horiz-adv-x="125" d="M109 37q0 -19 -13.5 -32.5t-33.5 -13.5q-19 0 -33 13.5t-14 32.5q0 20 14 33.5t33 13.5q20 0 33.5 -13.5t13.5 -33.5v0zM109 237q0 -19 -13.5 -33t-33.5 -14q-19 0 -33 14t-14 33q0 20 14 33.5t33 13.5q20 0 33.5 -13.5t13.5 -33.5v0z" />
<glyph unicode=";" horiz-adv-x="125" d="M98 -18q-11 -16 -28 -27.5t-35 -10.5h-5t-6 1v4q13 10 18.5 22.5t-3.5 25.5q-1 2 -2.5 3.5l-3.5 3.5q-7 7 -10.5 15.5t-3.5 18.5q0 5 1 9.5t3 8.5q5 14 17.5 21t25.5 7h4.5t5.5 -1q2 0 4.5 -1t4.5 -2q16 -9 22.5 -22t6.5 -28q0 -4 -0.5 -8t-1.5 -8q-2 -8 -5.5 -16 t-8.5 -15v-1zM109 237q0 -19 -13.5 -33t-33.5 -14q-19 0 -33 14t-14 33q0 20 14 33.5t33 13.5q20 0 33.5 -13.5t13.5 -33.5v0z" />
<glyph unicode="&#x3c;" />
<glyph unicode="=" />
<glyph unicode="&#x3e;" />
<glyph unicode="?" horiz-adv-x="404" d="M193 38q0 -19 -13.5 -32.5t-33.5 -13.5q-19 0 -33 13.5t-14 32.5q0 20 14 33.5t33 13.5q20 0 33.5 -13.5t13.5 -33.5v0zM386 530q0 -41 -23.5 -81.5t-58.5 -78.5q-16 -17 -34 -33.5t-36 -31.5q-14 -12 -27.5 -22.5t-26.5 -20.5l22 -61q1 -1 1 -3.5v-4.5v-2v-3 q-1 -5 -4 -10.5t-7 -8.5l-36 -27q-4 -2 -7.5 -3.5t-8.5 -1.5h-2t-2 1q-7 1 -13.5 6t-9.5 12l-15 41q-1 3 -2 6.5t-2 7.5q0 4 -0.5 7.5t-0.5 6.5q0 20 8.5 37t24.5 29q23 18 46.5 37t45.5 39q25 22 38.5 52.5t14.5 62.5v4.5v3.5q0 53 -27 89t-83 38h-2h-2h-2h-2 q-6 0 -11.5 -0.5t-11.5 -0.5q-17 -2 -33.5 -7t-31.5 -13q-5 -3 -10 -4.5t-10 -1.5q-7 0 -12.5 3.5t-9.5 9.5q-2 4 -3.5 7.5t-1.5 7.5q0 7 4 13.5t11 12.5q32 26 71 41t79 15q77 0 140 -43t63 -127v0z" />
<glyph unicode="@" horiz-adv-x="846" d="M745 100q3 -4 4.5 -8.5t1.5 -9.5q-1 -6 -3.5 -12t-10.5 -11q-70 -52 -150.5 -73t-166.5 -21q-84 0 -156 30t-124 82q-52 53 -77 116.5t-25 130.5q0 83 36 161.5t103 136.5q53 46 125 74.5t147 32.5q7 1 13.5 1h12.5q66 0 127.5 -21t110.5 -65q48 -44 71.5 -102.5 t23.5 -120.5v-7.5v-7.5q-3 -50 -20 -98t-48 -89q-29 -38 -69 -62t-88 -24q-34 0 -60 18.5t-37 51.5q-26 -26 -61 -45t-73 -19q-4 0 -8.5 0.5t-8.5 0.5q-4 1 -8.5 2t-8.5 2q-44 12 -65 49.5t-23 79.5v4v4v8t1 8q3 52 27.5 101.5t62.5 84.5q26 24 60 41t70 16q5 0 10.5 -0.5 t11.5 -1.5q5 0 10.5 -1.5t10.5 -3.5q14 -5 26.5 -13t21.5 -20q3 11 9.5 19.5t18.5 8.5h0.5h0.5h0.5h0.5h27h26q12 0 20 -9.5t8 -20.5v-2.5t-1 -3.5l-36 -126t-37 -126q-1 -2 -1 -4.5v-4.5v-1.5v-1.5q1 -13 10.5 -23.5t22.5 -10.5h4t3 1q23 7 42 22.5t35 35.5 q26 34 40.5 74.5t16.5 81.5v7.5v6.5q-1 50 -19.5 97t-57.5 82q-40 38 -91.5 55t-105.5 17h-8.5h-8.5q-63 -3 -123 -28t-104 -66q-50 -47 -78 -110t-32 -129v-8.5v-9.5q0 -56 19.5 -109.5t59.5 -97.5q41 -43 97 -69t122 -27q76 0 148 19.5t134 65.5q2 2 4.5 3.5t5.5 1.5 q2 1 4.5 1.5t4.5 0.5q7 0 12.5 -3.5t9.5 -8.5v0zM508 390q2 7 2.5 14.5t0.5 14.5q0 20 -7 36.5t-27 22.5q-2 1 -4.5 1h-4.5q-3 0 -5.5 -0.5t-5.5 -1.5q-8 -3 -16.5 -9.5t-15.5 -13.5q-3 -4 -6 -7.5t-6 -6.5q-21 -24 -36.5 -56.5t-22.5 -66.5q-2 -11 -3 -21.5t-1 -21.5v-8 t1 -8q2 -19 10.5 -35.5t25.5 -15.5q4 0 9 1.5t11 4.5q27 14 46.5 38t29.5 52q5 14 10 28.5t9 29.5q1 7 3 14.5t3 14.5v0z" />
<glyph unicode="A" horiz-adv-x="821" d="M800 27v-1.5v-1.5q-1 -9 -8.5 -16.5t-21.5 -7.5h-270q-14 0 -21.5 7.5t-8.5 16.5v1.5v1.5q0 11 7.5 19.5t22.5 8.5h66l-77 198h-228l-78 -198h118q15 0 22.5 -8.5t7.5 -19.5v-1.5v-1.5q-1 -9 -8.5 -16.5t-21.5 -7.5h-271q-14 0 -21.5 7.5t-8.5 16.5v1.5v1.5 q0 11 7.5 19.5t22.5 8.5h92l242 609q0 1 0.5 1.5l0.5 0.5q2 4 6.5 7.5t9.5 5.5q2 1 4.5 1.5t4.5 0.5h54q2 0 4 -0.5t5 -1.5q6 -2 11 -6.5t7 -9.5l237 -608h62q15 0 22.5 -8.5t7.5 -19.5v0zM468 308l-92 235l-93 -235h185v0z" />
<glyph unicode="B" horiz-adv-x="744" d="M680 206q0 -73 -60 -127t-132 -72q-15 -3 -30 -5t-29 -2h-198h-198q-14 0 -21.5 7.5t-8.5 16.5v1.5v1.5q0 11 7.5 19.5t22.5 8.5h81v571h-65q-15 0 -22.5 9t-7.5 19q0 11 7.5 19t22.5 8h195.5h194.5q13 0 27 -2t29 -6q54 -16 100 -57t46 -97q0 -44 -30 -79t-68 -55 q53 -25 95 -71.5t42 -107.5v0zM552 206q0 62 -48.5 107t-111.5 45h-79.5h-79.5v-303h66h66q80 0 133.5 33t53.5 118v0zM520 519q0 48 -35.5 73t-78.5 31q-9 2 -18 2.5t-17 0.5h-138v-214h70h70q63 0 105 21.5t42 85.5v0z" />
<glyph unicode="C" horiz-adv-x="715" d="M649 96q4 -4 6 -9t2 -10t-2.5 -10.5t-7.5 -10.5q-47 -45 -107.5 -62t-124.5 -20q-9 -1 -17.5 -1h-17.5q-154 0 -267 105.5t-113 257.5t113 258t267 106h7.5h6.5q58 -2 114.5 -16t103.5 -49q1 -1 2 -2.5t2 -3.5q1 -1 2 -2.5t1 -2.5q2 -3 3 -6t1 -5v-97q0 -14 -8.5 -21.5 t-19.5 -7.5q-10 0 -19 7.5t-9 21.5v39q-35 43 -85 67t-106 24h-8t-7 -1q-4 0 -8 -0.5t-8 -0.5q-43 -6 -80 -29t-66 -58q-37 -45 -56 -103t-19 -119q0 -60 19 -117.5t56 -102.5q34 -40 81 -64.5t101 -24.5q10 0 20 0.5t19 0.5q52 3 101 17.5t87 50.5q5 5 10.5 7t10.5 2 q6 0 11 -2t9 -6v0z" />
<glyph unicode="D" horiz-adv-x="779" d="M734 341q0 -166 -114 -253.5t-273 -87.5h-313q-14 0 -21.5 7.5t-9.5 16.5v1.5v1.5q0 11 8 19.5t23 8.5h74v571h-74q-15 0 -22.5 9t-7.5 19v0.5v0.5v0.5v0.5q0 10 8 17.5t22 7.5h313q159 0 273 -86.5t114 -253.5v0zM605 341q0 113 -66 199t-194 86h-118v-571h118 q128 0 194 86.5t66 199.5v0z" />
<glyph unicode="E" horiz-adv-x="733" d="M694 177l-40 -156q0 -1 -0.5 -1.5t-0.5 -1.5q-2 -4 -7 -8.5t-10 -7.5q-3 -1 -5 -1.5t-4 -0.5h-595q-15 0 -22.5 9t-7.5 19q0 11 7.5 19t22.5 8h73v571h-73q-15 0 -22.5 9t-7.5 19v1.5v1.5q1 9 8.5 16.5t21.5 7.5h570q2 0 3.5 -0.5t3.5 -0.5q6 -3 12 -7.5t8 -9.5 q0 -1 0.5 -1.5t0.5 -1.5l30 -123q1 -2 1 -4v-4q0 -10 -5 -17t-13 -10q-1 0 -2.5 -0.5t-2.5 -0.5q-1 -1 -2.5 -1h-2.5h-2.5t-2.5 1q-6 1 -11 4.5t-9 10.5q-5 8 -11.5 17t-14.5 19q-19 23 -45 43.5t-53 27.5q-5 2 -10.5 2.5t-10.5 0.5h-239v-229h239q5 0 11 2t12 5q11 6 21 16 t17 21q3 6 5.5 12t2.5 11q0 17 9 25t19 8q11 0 19.5 -8.5t8.5 -25.5v-213q0 -16 -8.5 -24.5t-19.5 -9.5q-10 0 -19 8.5t-9 25.5q0 7 -4 18t-10 23q-9 17 -22 32t-27 18q-2 1 -3.5 1h-2.5h-239v-287h197q82 2 139 30.5t80 106.5q4 11 11.5 16t15.5 5h4.5t3.5 -1q8 -2 14.5 -9 t5.5 -18v-3.5t-1 -4.5v0z" />
<glyph unicode="F" horiz-adv-x="672" d="M658 537q0 -1 0.5 -2.5t0.5 -2.5v-2.5v-2.5q0 -9 -4.5 -15.5t-12.5 -9.5q-1 0 -2.5 -0.5t-2.5 -0.5q-1 -1 -2.5 -1h-2.5h-2.5t-2.5 1q-6 1 -11 4.5t-9 10.5q-5 8 -11.5 17t-14.5 19q-19 22 -44 42.5t-52 27.5q-6 2 -12 3t-12 1h-239v-229h237q5 0 11 2t11 5q11 6 21.5 16 t16.5 21q4 6 6 12t2 11q1 17 10 25t19 8q11 0 19.5 -8.5t8.5 -25.5v-213q0 -16 -8.5 -24.5t-19.5 -9.5q-10 0 -19 8.5t-10 25.5q0 7 -3.5 18t-9.5 23q-9 17 -22.5 32.5t-27.5 17.5q-1 1 -2.5 1h-2.5h-237v-287h147q15 0 22.5 -8.5t7.5 -19.5v-1.5v-1.5q-1 -9 -8.5 -16.5 t-21.5 -7.5h-338q-15 0 -22.5 7.5t-8.5 16.5v1.5v1.5q0 11 7.5 19.5t23.5 8.5h72v571h-72q-16 0 -23.5 9t-7.5 19v1.5v1.5q1 9 8.5 16.5t22.5 7.5h570q2 0 3.5 -0.5t3.5 -0.5q6 -2 11.5 -7t7.5 -10q1 -1 1 -1.5v-1.5l30 -123v0z" />
<glyph unicode="G" horiz-adv-x="813" d="M757 313v-1.5v-1.5q-1 -9 -8.5 -16.5t-21.5 -7.5h-59v-185q1 0 1.5 0.5t1.5 0.5t1.5 0.5t1.5 0.5q2 0 3 0.5t3 0.5q1 1 2.5 1h2.5q10 -1 16.5 -6.5t8.5 -13.5q1 -2 1.5 -4.5t0.5 -4.5q-1 -8 -6 -14.5t-16 -10.5q-19 -6 -37.5 -13t-37.5 -15q-3 -1 -6 -2.5t-6 -2.5 q-3 -2 -6 -3t-6 -3v-1q-37 -16 -77 -26t-81 -12q-7 -1 -13.5 -1h-13.5q-19 0 -38.5 1.5t-38.5 5.5q-133 24 -229.5 122t-96.5 235q0 158 123.5 261t280.5 103q56 0 109.5 -13.5t101.5 -39.5q1 -1 2 -1.5t2 -1.5q2 -2 3.5 -5t3.5 -6q1 -2 2 -5t1 -5v-88q0 -15 -8.5 -22 t-19.5 -7q-10 0 -19 7t-9 22v27q-34 40 -83 60.5t-102 20.5q-111 0 -178.5 -81.5t-81.5 -179.5q-1 -12 -2 -23.5t-1 -22.5q0 -12 1 -24l2 -24q12 -86 65.5 -161t144.5 -95q4 -1 8.5 -2t8.5 -1q9 -2 17.5 -2.5t16.5 -0.5q42 0 80 15t71 42v203h-103q-14 0 -21.5 7.5 t-8.5 16.5v1.5v1.5q0 11 7.5 19t22.5 8h287q15 0 22.5 -8t7.5 -19v0z" />
<glyph unicode="H" horiz-adv-x="893" d="M875 27v-1.5v-1.5q-1 -9 -8.5 -16.5t-22.5 -7.5h-286q-15 0 -22.5 7.5t-8.5 16.5v1.5v1.5q0 11 7.5 19.5t23.5 8.5h83v250h-408v-250h84q15 0 22.5 -8.5t7.5 -19.5v-1.5v-1.5q-1 -9 -8.5 -16.5t-21.5 -7.5h-287q-14 0 -21.5 7.5t-8.5 16.5v1.5v1.5q0 11 7.5 19.5 t22.5 8.5h84v571h-84q-15 0 -22.5 9t-7.5 19q0 11 7.5 19t22.5 8h287q15 0 22.5 -8t7.5 -19q0 -10 -7.5 -19t-22.5 -9h-84v-266h408v266h-83q-16 0 -23.5 9t-7.5 19q0 11 7.5 19t23.5 8h286q15 0 23 -8t8 -19q0 -10 -7.5 -19t-23.5 -9h-84v-571h84q15 0 23 -8.5t8 -19.5v0z " />
<glyph unicode="I" horiz-adv-x="382" d="M348 27v-1.5v-1.5q-1 -9 -8.5 -16.5t-22.5 -7.5h-286q-15 0 -22.5 7.5t-8.5 16.5v1.5v1.5q0 11 7.5 19.5t23.5 8.5h84v571h-84q-16 0 -23.5 9t-7.5 19q0 11 7.5 19t23.5 8h286q16 0 23.5 -8t7.5 -19q0 -10 -7.5 -19t-23.5 -9h-84v-571h84q16 0 23.5 -8.5t7.5 -19.5v0z " />
<glyph unicode="J" horiz-adv-x="541" d="M520 654q0 -10 -7.5 -19t-22.5 -9h-118v-368.5v-368.5q0 -76 -57 -126.5t-133 -50.5q-58 0 -108.5 31.5t-70.5 86.5q-1 2 -1.5 4t-0.5 4q-1 2 -1 4v4q0 13 9 24.5t25 15.5q3 1 6 1.5t7 0.5q16 0 29.5 -10t17.5 -26q1 -2 1.5 -4.5t0.5 -5.5q7 -25 21.5 -46.5t45.5 -21.5 q41 0 63 29.5t27 65.5q0 5 0.5 10t0.5 10v737h-119q-15 0 -22.5 9t-7.5 19q0 11 7.5 19t22.5 8h355q15 0 22.5 -8t7.5 -19v0z" />
<glyph unicode="K" horiz-adv-x="870" d="M851 27v-1.5v-1.5q-1 -9 -8.5 -16.5t-21.5 -7.5h-341q-14 0 -21.5 7.5t-8.5 16.5v1.5v1.5q0 11 7.5 19.5t22.5 8.5h88l-262 259l-76 -59v-200h85q15 0 22.5 -8.5t7.5 -19.5v-1.5v-1.5q-1 -9 -8.5 -16.5t-21.5 -7.5h-285q-14 0 -21.5 7.5t-8.5 16.5v1.5v1.5q0 11 7.5 19.5 t22.5 8.5h81v571h-81q-15 0 -22.5 9t-7.5 19q0 11 7.5 19t22.5 8h285q15 0 22.5 -8t7.5 -19q0 -10 -7.5 -19t-22.5 -9h-85v-301l383 301h-120q-14 0 -21.5 9t-7.5 19q0 11 7.5 19t21.5 8h306q15 0 22.5 -8t7.5 -19q0 -10 -7.5 -19t-22.5 -9h-97l-306 -240l51.5 -51.5 t113.5 -114.5q61 -61 112 -112.5t52 -52.5h96q15 0 22.5 -8.5t7.5 -19.5v0z" />
<glyph unicode="L" horiz-adv-x="721" d="M694 177l-40 -156q0 -1 -0.5 -1.5t-0.5 -1.5q-2 -4 -7 -8.5t-10 -7.5q-3 -1 -5 -1.5t-4 -0.5h-595q-15 0 -22.5 9t-7.5 19q0 11 7.5 19t22.5 8h73v571h-73q-15 0 -22.5 9t-7.5 19q0 11 7.5 19t22.5 8h291q15 0 22.5 -8t7.5 -19q0 -10 -7.5 -19t-22.5 -9h-99v-571h197 q82 2 139 30.5t80 106.5q4 11 11.5 16t15.5 5h4.5t3.5 -1q8 -2 14.5 -9t5.5 -18v-3.5t-1 -4.5v0z" />
<glyph unicode="M" horiz-adv-x="1015" d="M984 27v-1.5v-1.5q-1 -9 -8.5 -16.5t-21.5 -7.5h-308q-14 0 -21.5 7.5t-8.5 16.5v1.5v1.5q0 11 7.5 19.5t22.5 8.5h89v469l-232 -507q-3 -5 -14 -8.5t-25 -3.5h-2.5h-3.5q-12 0 -21.5 3t-12.5 9l-236 580v-542h96q15 0 22.5 -8.5t7.5 -19.5v-1.5v-1.5q-1 -9 -8.5 -16.5 t-21.5 -7.5h-252q-14 0 -21.5 7.5t-8.5 16.5v1.5v1.5q0 11 7.5 19.5t22.5 8.5h99v571h-99q-15 0 -22.5 9t-7.5 19q0 11 7.5 19t22.5 8h306q15 0 22.5 -8t7.5 -19q0 -10 -7.5 -19t-22.5 -9h-36l197 -483l221 483h-79q-15 0 -22.5 9t-7.5 19q0 11 7.5 19t22.5 8h311 q15 0 22.5 -8t7.5 -19q0 -10 -7.5 -19t-22.5 -9h-98v-571h100q15 0 22.5 -8.5t7.5 -19.5v0z" />
<glyph unicode="N" horiz-adv-x="953" d="M925 654q0 -10 -7.5 -19t-22.5 -9h-97v-599q0 -14 -6 -23.5t-17 -12.5q-2 -1 -5 -1.5t-6 -0.5q-9 0 -18.5 5t-20.5 15l-543 561v-515h106q16 0 23.5 -8.5t7.5 -19.5v-1.5v-1.5q-1 -9 -8.5 -16.5t-22.5 -7.5h-258q-15 0 -22.5 7.5t-7.5 16.5v1.5v1.5q0 11 7 19.5t23 8.5 h96v571h-77q-15 0 -22.5 9t-7.5 19q0 11 7.5 19t22.5 8h324q15 0 22.5 -8t7.5 -19q0 -10 -7.5 -19t-22.5 -9h-81l449 -464v464h-125q-15 0 -22.5 9t-7.5 19q0 11 7.5 19t22.5 8h279q15 0 22.5 -8t7.5 -19v0z" />
<glyph unicode="O" horiz-adv-x="825" d="M771 346q0 -153 -115 -256t-270 -103q-154 0 -269.5 103t-115.5 256q0 152 115.5 256t269.5 104q155 0 270 -104t115 -256v0zM629 433q-31 83 -105.5 149t-167.5 66q-19 0 -37.5 -3.5t-38.5 -10.5q-82 -29 -119.5 -101.5t-37.5 -153.5v-10t1 -11q1 -25 6 -50.5t14 -48.5 q31 -83 105 -149t167 -66q19 0 38 3.5t38 10.5q81 29 119 100.5t38 150.5v3v2q0 31 -5 61t-15 58v0z" />
<glyph unicode="P" horiz-adv-x="666" d="M626 466q0 -106 -77.5 -160t-179.5 -54h-152v-197h72q15 0 23 -8.5t8 -19.5v-1.5v-1.5q-1 -9 -9 -16.5t-22 -7.5h-256q-14 0 -21.5 7.5t-8.5 16.5v1.5v1.5q0 11 7.5 19.5t22.5 8.5h65v571h-69q-16 0 -23 9t-7 19q0 11 7 19t23 8h286h14.5h14.5q106 -4 194 -46.5 t88 -168.5v0zM499 466q0 68 -53 111t-117 48q-4 1 -8 1h-8h-96v-319h96q78 0 132 38.5t54 120.5v0z" />
<glyph unicode="Q" horiz-adv-x="830" d="M773 343q0 -152 -115.5 -255.5t-269.5 -103.5q-19 0 -38 1.5t-38 5.5l-31 -33q41 -4 79.5 -15.5t72.5 -28.5q45 -23 81.5 -55.5t64.5 -72.5q3 -5 4.5 -10.5t1.5 -9.5q0 -7 -3 -12t-8 -9q-4 -3 -8 -4.5t-9 -0.5q-6 0 -11.5 2.5t-9.5 7.5q-22 36 -61.5 58.5t-88.5 33.5 q-22 4 -43.5 6.5t-44.5 2.5q-8 0 -15.5 -0.5t-15.5 -0.5q-32 -2 -63 -8t-60 -14q-1 0 -2 -0.5t-2 -0.5h-2h-2q-7 0 -12.5 4t-9.5 9q-2 4 -3 7.5t-1 7.5q0 5 1.5 9.5t4.5 8.5l136 134q-106 38 -177.5 128.5t-71.5 207.5q0 152 115.5 256.5t269.5 104.5t269.5 -104.5 t115.5 -256.5v0zM630 430q-31 83 -105.5 149t-166.5 66q-19 0 -37.5 -3.5t-38.5 -10.5q-81 -29 -118.5 -99.5t-38.5 -149.5v-3v-2q0 -31 5.5 -62t15.5 -59q31 -83 105.5 -149t167.5 -65q12 0 24.5 1.5t25.5 4.5q6 1 12.5 3t12.5 4q81 30 118.5 100.5t38.5 149.5v3v2 q0 32 -5 62t-16 58v0z" />
<glyph unicode="R" horiz-adv-x="786" d="M754 15v-1.5v-1.5q-1 -9 -8 -16t-20 -7q-68 1 -131.5 24t-116.5 64q-55 42 -97 100t-67 126h-101v-248h91q15 0 22.5 -8.5t7.5 -19.5v-1.5v-1.5q-1 -9 -8.5 -16.5t-21.5 -7.5h-275q-13 0 -20.5 7.5t-8.5 16.5v1.5v1.5q0 11 7.5 19.5t21.5 8.5h65v571h-65q-14 0 -21.5 9 t-7.5 19q0 11 7.5 19t21.5 8h305q17 0 34.5 -1t35.5 -3q81 -8 149 -48t68 -137q0 -66 -50.5 -117.5t-114.5 -66.5q18 -56 46 -104t62 -83q32 -33 73.5 -55.5t88.5 -22.5q14 0 21 -8.5t7 -19.5v0zM494 492q0 55 -44 91t-96 42q-5 0 -10 0.5t-10 0.5h-1v0h-1h-119v-268h121 q68 0 114 32t46 102v0z" />
<glyph unicode="S" horiz-adv-x="603" d="M511 529q0 -11 -7 -17.5t-15 -7.5h-1.5h-1.5h-0.5h-0.5h-0.5h-0.5q-10 0 -19 7t-9 21q0 23 -9.5 40.5t-24.5 30.5q-18 15 -42 24.5t-50 13.5q-11 2 -22 3t-21 1q-8 0 -15.5 -0.5t-14.5 -1.5q-10 -1 -21.5 -3.5t-23.5 -6.5q-34 -11 -62.5 -34t-28.5 -59q0 -31 23 -53 t51 -33q53 -21 106.5 -41.5t106.5 -40.5q68 -25 106 -77t37 -111q0 -40 -20 -79t-63 -71q-38 -28 -88.5 -43.5t-107.5 -15.5q-14 0 -28.5 1t-28.5 3q-80 9 -146 51.5t-66 132.5q0 20 12.5 31t27.5 12h1.5h1.5h1.5h1.5q15 -1 27.5 -11.5t12.5 -31.5q0 -66 50.5 -96t112.5 -30 h4h4q36 1 69.5 12t57.5 29q14 11 24 21.5t16 21.5q7 11 9.5 22t2.5 21q0 32 -24.5 59t-65.5 44l-54 22l-54 22t-53.5 22t-53.5 22q-55 23 -84 65t-29 88q0 4 0.5 8.5t0.5 9.5q4 33 24 65t56 56q40 26 89.5 39.5t101.5 13.5q59 0 114.5 -18.5t95.5 -56.5q3 -2 5 -6t3 -9v-2 v-2v-77v0z" />
<glyph unicode="T" horiz-adv-x="799" d="M792 719l-88 -136q-3 -5 -7.5 -8t-8.5 -4q-2 -1 -4 -1h-4q-4 0 -8 1t-8 3q-6 4 -9.5 10t-3.5 13q0 4 1.5 8t3.5 8l9 13h-208v-572h84q15 0 22.5 -8t7.5 -19q0 -10 -7.5 -18.5t-22.5 -8.5h-288q-15 0 -22 8.5t-7 18.5q0 11 7 19t22 8h85v572h-138q-7 0 -14.5 -1t-14.5 -3 q-32 -8 -61 -29t-48 -45q-2 -2 -4 -4.5t-4 -5.5q-3 -6 -7.5 -9t-9.5 -4h-2.5h-3.5q-4 0 -8 1t-8 3q-6 4 -9.5 10t-3.5 13q0 4 1.5 7.5t3.5 7.5l111 170q3 6 7.5 9t9.5 4q1 1 3 1h3q5 0 8.5 -1t7.5 -3q6 -4 10 -9.5t3 -13.5v-4t-1 -4t-1.5 -4t-2.5 -4l-18 -27h53h427h2.5h3.5 q33 2 63.5 21.5t47.5 45.5q5 7 11.5 10t13.5 3h2.5h2.5q3 -1 5.5 -1.5t4.5 -2.5q6 -4 9.5 -9.5t3.5 -12.5q0 -2 -0.5 -4t-0.5 -4l-2 -4l-2 -4v0z" />
<glyph unicode="U" horiz-adv-x="792" d="M764 654q0 -10 -7 -19t-22 -9h-101l-1 -410q0 -104 -79.5 -172.5t-183.5 -68.5q-105 0 -184.5 70.5t-79.5 173.5v407h-76q-15 0 -22.5 9t-7.5 19q0 11 7.5 19t22.5 8h278q14 0 21.5 -8t7.5 -19q0 -10 -7.5 -19t-21.5 -9h-83v-407q0 -73 49.5 -125t126.5 -52 q75 0 125.5 52t50.5 125v407h-90q-14 0 -21.5 9t-7.5 19q0 11 7.5 19t21.5 8h248q15 0 22 -8t7 -19v0z" />
<glyph unicode="V" horiz-adv-x="931" d="M915 654q0 -10 -7.5 -19t-22.5 -9h-93l-296 -610q0 -1 -1 -2l-2 -2q-2 -3 -5.5 -5t-6.5 -4q-3 -1 -5.5 -2t-4.5 -1h-49q-2 0 -4.5 0.5t-4.5 1.5q-4 2 -8 4.5t-6 5.5l-2 2t-1 2l-291 610h-77q-14 0 -21 9t-7 19q0 11 7 19t21 8h314q15 0 22.5 -8t7.5 -19q0 -10 -7.5 -19 t-22.5 -9h-92l237 -500l243 500h-106q-14 0 -21.5 9t-7.5 19q0 11 7.5 19t21.5 8h261q15 0 22.5 -8t7.5 -19v0z" />
<glyph unicode="W" horiz-adv-x="1302" d="M1272 654q0 -10 -7.5 -19t-23.5 -9h-93l-296 -610q0 -1 -1 -2l-2 -2q-2 -3 -5.5 -5t-6.5 -4q-3 -1 -5.5 -2t-4.5 -1h-49q-2 0 -5 1l-6 2q-3 2 -6.5 4.5t-5.5 4.5q-1 1 -1.5 2t-1.5 2l-125 263l-127 -263q-1 -1 -1.5 -2t-1.5 -2q-2 -2 -5.5 -4.5t-6.5 -4.5l-6 -2t-5 -1 h-49q-2 0 -5 1l-6 2q-3 2 -6.5 4.5t-5.5 4.5q-1 1 -1.5 2t-1.5 2l-290 610h-77q-15 0 -22.5 9t-8.5 19q0 11 8 19t23 8h293q15 0 22.5 -8t7.5 -19q0 -10 -7.5 -19t-22.5 -9h-72l238 -500l105 218l-134 282h-53q-16 0 -23.5 9t-7.5 19q0 11 7.5 19t23.5 8h203q15 0 22.5 -8 t7.5 -19q0 -10 -7.5 -19t-22.5 -9h-6l63 -132l64 132h-32q-15 0 -22.5 9t-7.5 19q0 11 7.5 19t22.5 8h188q15 0 22.5 -8t7.5 -19q0 -10 -7.5 -19t-22.5 -9h-94l-95 -197l144 -303l242 500h-105q-15 0 -23 9t-8 19q0 11 8 19t23 8h260q16 0 23.5 -8t7.5 -19v0z" />
<glyph unicode="X" horiz-adv-x="901" d="M873 27v-1.5v-1.5q-1 -9 -8.5 -16.5t-21.5 -7.5h-342q-14 0 -21.5 7.5t-8.5 16.5v1.5v1.5q0 11 7.5 19.5t22.5 8.5h70l-163 219l-195 -219h138q16 0 23.5 -8.5t7.5 -19.5v-1.5v-1.5q-1 -9 -8.5 -16.5t-22.5 -7.5h-321q-14 0 -21.5 7.5t-8.5 16.5v1.5v1.5q0 11 7.5 19.5 t22.5 8.5h108l237 265l-227 306h-87q-16 0 -23.5 9t-7.5 19v1.5v1.5q1 9 8.5 16.5t22.5 7.5h318q14 0 21.5 -7.5t8.5 -16.5v-1.5v-1.5q0 -10 -7.5 -19t-22.5 -9h-75l158 -209l186 209h-99q-15 0 -22.5 9t-7.5 19v1.5v1.5q1 9 8.5 16.5t21.5 7.5h268q14 0 22 -7.5t9 -16.5 v-1.5v-1.5q0 -10 -8 -19t-23 -9h-95l-226 -254l239 -317h108q15 0 22.5 -8.5t7.5 -19.5v0z" />
<glyph unicode="Y" horiz-adv-x="808" d="M780 654q0 -10 -7.5 -19t-22.5 -9h-78l-233 -385v-186h92q15 0 22.5 -8.5t7.5 -19.5v-1.5v-1.5q-1 -9 -8.5 -16.5t-21.5 -7.5h-311q-14 0 -21.5 7.5t-8.5 16.5v1.5v1.5q0 11 7.5 19.5t22.5 8.5h100v190l-227 381h-64q-15 0 -22 9t-7 19v1.5v1.5q0 9 7.5 16.5t21.5 7.5 h264q15 0 22.5 -7.5t8.5 -16.5v-1.5v-1.5q0 -10 -7.5 -19t-23.5 -9h-60l185 -311l189 311h-76q-15 0 -23 9t-8 19v1.5v1.5q1 9 8.5 16.5t22.5 7.5h219q14 0 21.5 -7.5t8.5 -16.5v-1.5v-1.5v0z" />
<glyph unicode="Z" horiz-adv-x="699" d="M677 120l-115 -177q-5 -7 -11.5 -10t-13.5 -3q-4 0 -7.5 1t-7.5 3q-6 3 -9.5 9t-3.5 13q0 4 1.5 8t4.5 9l17 27h-501q-13 0 -20.5 9t-7.5 20q0 4 1.5 7.5t3.5 7.5l455 582h-250q-4 0 -8 -0.5t-8 -0.5q-39 -5 -75 -31t-56 -56q-3 -5 -7.5 -8t-8.5 -5q-2 0 -4 -0.5t-4 -0.5 q-4 0 -8 1.5t-8 3.5q-6 4 -9.5 10.5t-3.5 13.5q0 4 1.5 7.5t3.5 7.5l111 170q4 6 9 9t11 5h2.5h2.5h2.5h2.5q3 -1 5.5 -1.5t4.5 -2.5q6 -3 9.5 -9t3.5 -13q0 -4 -1.5 -8.5t-4.5 -9.5l-17 -27h52h395q12 0 20 -9t8 -20q-1 -4 -2 -7.5t-4 -7.5l-452 -582h308q5 0 9.5 0.5 t9.5 1.5q36 8 69 33t53 53q1 2 2 3.5t2 2.5q3 4 7.5 6.5t9.5 3.5h2.5h2.5h2.5h2.5q3 -1 5.5 -1.5t4.5 -2.5q6 -3 9.5 -8.5t4.5 -10.5v-3v-2q0 -3 -0.5 -6t-2.5 -5v0z" />
<glyph unicode="[" />
<glyph unicode="\" horiz-adv-x="286" d="M4 693h56l222 -944h-56l-222 944v0z" />
<glyph unicode="]" />
<glyph unicode="^" />
<glyph unicode="_" d="M0 1h500v-36h-500v36v0z" />
<glyph unicode="`" horiz-adv-x="320" d="M194 779q3 -4 4 -7.5t1 -8.5q0 -6 -2 -11.5t-6 -10.5q-5 -7 -11.5 -11.5t-14.5 -4.5h-2.5t-2.5 1q-1 0 -2.5 0.5t-2.5 1.5l-76 38q-4 2 -8.5 4t-9.5 4l-12 6t-11 7q-11 9 -16.5 21t-5.5 25v4.5t1 4.5q1 7 4 13.5t7 12.5q8 11 20 16.5t25 4.5h4.5t4.5 -1q7 -1 13.5 -3.5 t12.5 -7.5t11.5 -11.5t11.5 -12.5v-1l1 -1q1 -2 3 -4.5t4 -4.5l55 -63v0z" />
<glyph unicode="a" horiz-adv-x="465" d="M427 86l-2 -4t-2 -5q-6 -12 -12 -24.5t-15 -23.5q-13 -16 -30.5 -25t-38.5 -9q-25 0 -45.5 10.5t-31.5 32.5q-25 -19 -56.5 -30.5t-63.5 -13.5h-6h-6h-7.5t-7.5 1q-38 3 -69.5 25t-31.5 63q0 53 38 83t86 47q4 2 8.5 3.5t9.5 2.5q26 9 51.5 15t45.5 11v65q0 17 -6.5 28.5 t-23.5 14.5q-3 1 -6 1h-6q-4 0 -8 -0.5t-8 -0.5q-26 -5 -50.5 -22.5t-39.5 -37.5q-3 -4 -6.5 -7t-6.5 -5t-6.5 -3t-6.5 -1q-4 0 -7 1.5t-6 2.5q-6 4 -10.5 10.5t-4.5 14.5l2 8t3 8q23 43 62 70.5t87 31.5h4.5t5.5 1h4.5h4.5q50 0 87.5 -22.5t37.5 -79.5v-243q0 -4 2 -6.5 t6 -4.5h1.5h1.5q5 0 8.5 3t7.5 8l4.5 9t5.5 10q2 4 5 9t6 9q4 5 8.5 8t10.5 3h3t3 -1q1 0 2.5 -0.5t2.5 -1.5q7 -3 11.5 -9.5t4.5 -15.5q0 -3 -1 -6.5t-3 -7.5v0zM241 109v77q-10 -3 -21.5 -6t-23.5 -7q-36 -12 -66 -30.5t-30 -48.5v-1.5v-2.5q2 -17 16.5 -25.5t30.5 -8.5 h1.5h1.5h0.5h1.5q5 0 10 1.5t10 2.5q21 7 39.5 20t29.5 29v0z" />
<glyph unicode="b" horiz-adv-x="529" d="M483 206q0 -86 -59 -152.5t-148 -66.5q-34 0 -67 11.5t-59 33.5l-22 -29q-4 -5 -11 -8t-15 -3q-3 0 -6 0.5t-5 1.5q-10 2 -17.5 8.5t-7.5 17.5v548l-22 -11q-4 -2 -7.5 -3t-7.5 -1q-8 0 -14.5 4.5t-9.5 11.5q-1 3 -2 6.5t-1 7.5v2.5t1 2.5q1 6 5 11t11 9l151 75 q4 2 7.5 3t6.5 1q8 0 14.5 -4.5t9.5 -11.5q2 -3 2.5 -6t0.5 -6q0 -7 -4 -14t-13 -13q-15 -10 -24.5 -25t-9.5 -34v-185q26 17 55.5 27t60.5 10q89 0 148 -66.5t59 -152.5v0zM385 213v8t-1 7q-5 51 -38.5 93t-88.5 42q-30 0 -54.5 -15.5t-42.5 -38.5v-192q17 -23 42.5 -38 t54.5 -15q54 0 88 41t39 90q1 5 1 9.5v8.5v0z" />
<glyph unicode="c" horiz-adv-x="404" d="M364 355l-43 -82q-5 -9 -12 -12.5t-15 -3.5q-3 0 -6 1l-6 2q-6 4 -10.5 10.5t-4.5 14.5q0 4 1 7.5t3 7.5l1 2q-1 2 -2.5 4.5t-2.5 5.5q-12 22 -30.5 40t-44.5 19h-1q-48 -1 -68 -37.5t-23 -79.5v-9.5v-8.5q0 -13 1 -25.5t3 -23.5q6 -31 26.5 -59.5t48.5 -42.5 q11 -4 22 -6.5t22 -2.5q24 0 46.5 9.5t38.5 23.5q5 5 10.5 7t9.5 2q5 0 10 -2.5t9 -6.5t5.5 -9t1.5 -11q0 -3 -0.5 -5.5t-1.5 -5.5t-3 -5.5t-4 -5.5q-27 -31 -66.5 -54t-86.5 -23q-83 0 -134.5 63.5t-56.5 140.5v7.5v6.5v6v6q4 75 52.5 138.5t127.5 68.5q4 1 7.5 1h7.5h4.5 h4.5q30 -2 58.5 -14.5t50.5 -32.5h1q4 7 9 11t11 5q1 1 2.5 1h2.5q4 0 7 -1t6 -3q7 -4 11 -10.5t4 -14.5q0 -3 -1 -6.5t-3 -7.5v0z" />
<glyph unicode="d" horiz-adv-x="542" d="M492 78q2 -3 2.5 -6.5t0.5 -7.5v-2.5t-1 -2.5q-1 -6 -5 -11t-11 -9l-108 -54q-3 -1 -6.5 -1.5t-7.5 -0.5q-3 0 -6 0.5t-6 2.5q-7 3 -11 9t-4 17v15q-25 -19 -56 -29t-63 -10q-89 0 -148 66.5t-59 152.5t59 152.5t148 66.5h6h7q28 -2 55.5 -12t50.5 -27v182l-22 -11 q-4 -2 -7.5 -3t-6.5 -1q-8 1 -14.5 5.5t-10.5 10.5q-1 2 -1.5 3.5t-0.5 3.5q-1 1 -1 3v3q0 8 4 15t13 11l151 75q5 2 8.5 3t7.5 1q8 0 14 -4.5t10 -10.5q2 -3 2.5 -6.5t0.5 -7.5v-2.5t-1 -2.5q-1 -6 -5 -11t-12 -9q-7 -4 -13.5 -10.5t-11.5 -14.5q-4 -7 -7 -16t-3 -18v-500 l30 15q4 2 7.5 3t7.5 1q8 0 14.5 -4.5t9.5 -11.5v0zM329 122v184q-18 25 -43.5 41.5t-57.5 16.5q-54 0 -88 -42t-39 -93q-1 -3 -1 -7v-8t0.5 -8.5t0.5 -9.5q6 -49 39.5 -90t87.5 -41q32 0 58 16t43 41v0z" />
<glyph unicode="e" horiz-adv-x="463" d="M416 92q-31 -48 -82 -75t-108 -27q-91 0 -158 63t-67 155q0 45 17.5 85t48.5 70q32 31 73 47.5t84 16.5q23 0 45.5 -4.5t43.5 -15.5q21 -10 38.5 -25.5t30.5 -32.5q3 -4 4 -7.5t1 -8.5q0 -7 -3.5 -14t-10.5 -11l-261 -142q11 -31 27 -54t45 -40q17 -9 34.5 -13.5 t33.5 -4.5q35 0 65 18t52 51q4 7 9 10t11 4q1 1 2.5 1h2.5h2.5t2.5 -1q3 0 5.5 -1t4.5 -3q6 -4 9.5 -10t3.5 -13q0 -4 -1.5 -8.5t-4.5 -9.5v0zM273 318q-16 15 -35.5 22.5t-39.5 7.5q-10 0 -21 -2t-22 -7q-28 -12 -43.5 -40t-14.5 -65v-6v-6l176 96v0z" />
<glyph unicode="f" horiz-adv-x="452" d="M420 594q2 -3 2 -6.5v-7.5q0 -13 -9 -24.5t-23 -16.5q-1 0 -2.5 -0.5t-2.5 -0.5h-3h-3q-15 0 -27.5 9.5t-16.5 24.5q0 1 -0.5 2.5t-0.5 2.5q-5 22 -18.5 39.5t-38.5 17.5q-32 0 -50.5 -24.5t-22.5 -53.5q-1 -3 -1 -6.5v-7.5v-130h116q16 0 23.5 -8.5t7.5 -19.5 q0 -10 -7.5 -19t-23.5 -9h-116v-298h63q14 0 21.5 -8t8.5 -18v-1.5v-1.5q0 -10 -7.5 -19t-22.5 -9h-220q-15 0 -22.5 9t-7.5 19v1.5v1.5q1 10 8.5 18t21.5 8h62v298h-79q-15 0 -22 9t-7 19q0 11 7 19.5t22 8.5h79v130q0 65 48.5 109.5t112.5 44.5q49 0 91.5 -27.5 t59.5 -74.5v0z" />
<glyph unicode="g" horiz-adv-x="475" d="M437 433q0 -25 -10 -47t-27 -38q-8 -9 -18.5 -15.5t-22.5 -11.5q5 -13 7.5 -27.5t2.5 -28.5q0 -75 -55 -125t-128 -50q-19 0 -38.5 4t-36.5 12q-10 -7 -17.5 -18t-7.5 -23q0 -13 11.5 -20.5t26.5 -11.5q8 -1 15.5 -2t12.5 -1h24h24q16 0 34 -2t36 -7q51 -12 94 -44 t43 -89q0 -55 -42.5 -87t-93.5 -46q-20 -5 -39.5 -7.5t-36.5 -2.5q-15 0 -31.5 1.5t-33.5 4.5q-50 9 -90.5 37.5t-40.5 86.5q0 34 21.5 63t48.5 49q2 1 4 2.5t4 2.5q-21 10 -34 29.5t-13 43.5q0 21 9 39.5t23 32.5q-28 25 -43 58t-15 70q0 74 55 124t127 50q42 0 80.5 -18 t64.5 -50q9 2 16.5 6.5t13.5 10.5q9 9 14 20.5t5 24.5q0 15 9 22.5t19 7.5q11 0 20 -7.5t9 -22.5v0zM288 -113q0 38 -24.5 63t-60.5 25q-37 0 -64 -26t-27 -66q0 -35 24.5 -58t59.5 -23q36 0 64 24t28 62v-1zM259 294q-2 6 -5 13t-7 14q-12 22 -32 40.5t-44 18.5 q-5 0 -10.5 -1t-10.5 -3q-24 -9 -33.5 -33t-10.5 -51v-2v-2q0 -14 2.5 -27.5t5.5 -24.5q2 -6 5 -13t7 -14q13 -22 33 -40.5t44 -18.5q5 0 10 1t10 3q24 9 33.5 33t10.5 51v2v2q0 14 -2 28t-6 24v0z" />
<glyph unicode="h" horiz-adv-x="604" d="M566 28q0 -10 -7.5 -19t-22.5 -9h-220q-15 0 -22.5 9t-7.5 19q0 11 7.5 19.5t22.5 8.5h62v201q0 52 -29 76.5t-66 24.5h-2.5h-2.5q-2 -1 -3 -1h-3q-48 -4 -77 -34.5t-29 -78.5v-188h50q15 0 22.5 -8.5t7.5 -19.5q0 -10 -7.5 -19t-22.5 -9h-186q-16 0 -23 9t-7 19 q0 11 7 19.5t23 8.5h42v512l-22 -11q-4 -2 -7.5 -3t-7.5 -1q-8 0 -14.5 4.5t-9.5 11.5q-1 2 -1.5 3.5t-1.5 3.5v3v3q0 8 4 15t13 11l151 75q2 2 5 2.5t6 0.5q8 0 14.5 -4t10.5 -11q1 -1 1.5 -3t0.5 -3q1 -2 1 -3.5v-3.5q0 -7 -3.5 -14t-9.5 -11q-16 -8 -26 -24.5t-10 -35.5 v-195q24 19 53.5 30t61.5 14h4.5h5.5h3h2q68 0 122.5 -41t54.5 -125v-200h63q15 0 22.5 -8.5t7.5 -19.5v0z" />
<glyph unicode="i" horiz-adv-x="280" d="M248 28q0 -10 -7.5 -19t-22.5 -9h-186q-16 0 -23.5 9t-7.5 19q0 11 7.5 19.5t23.5 8.5h42v268l-22 -11q-4 -2 -7.5 -3t-7.5 -1q-8 0 -14.5 4.5t-9.5 11.5q-1 3 -2.5 6t-0.5 7v3.5t1 3.5q1 5 5 10t11 9l151 75q2 2 5 2.5t6 0.5q8 0 14.5 -4t10.5 -11q1 -1 1.5 -3t0.5 -3 q1 -2 1 -3.5v-3.5q0 -7 -3.5 -14t-9.5 -11q-16 -9 -26 -25t-10 -35v-273h50q15 0 22.5 -8.5t7.5 -19.5v0zM167 578q0 -22 -15.5 -38.5t-38.5 -16.5q-22 0 -38 16.5t-16 38.5t16 38t38 16q23 0 38.5 -16t15.5 -38v0z" />
<glyph unicode="j" horiz-adv-x="249" d="M207 427q1 -2 2 -4.5t1 -5.5v-2.5v-2.5q0 -7 -3 -13t-10 -10q-16 -9 -25.5 -25t-9.5 -35v-476q0 -42 -34 -75t-88 -33q-43 0 -73 18t-41 50q-1 2 -1 4.5v5.5q0 2 0.5 4.5t0.5 4.5q2 8 7 15t12 9q1 0 2 0.5t2 0.5h2h2q10 0 18 -6t10 -16q3 -15 11.5 -24t25.5 -9 q22 0 34.5 16.5t14.5 36.5v4v4v461l-21 -11q-1 -1 -2.5 -1.5t-2.5 -0.5q-3 -1 -5.5 -1.5t-4.5 -0.5q-9 0 -15.5 4.5t-9.5 11.5l-2 6t-1 6q0 8 4.5 15t13.5 12l150 75q3 2 6 2.5t6 0.5q8 0 14.5 -4t9.5 -11v0zM161 578q0 -22 -16 -38.5t-39 -16.5q-22 0 -38 16.5t-16 38.5 t16 38t38 16q23 0 39 -16t16 -38v0z" />
<glyph unicode="k" horiz-adv-x="583" d="M552 28q0 -10 -7.5 -19t-22.5 -9h-204q-15 0 -24 8t-10 18v1.5v1.5q0 11 7.5 19.5t23.5 8.5h36l-102 139l-79 -68v-72h50q15 0 23 -8.5t8 -19.5q0 -10 -8 -19t-23 -9h-186q-15 0 -23 9t-8 19q0 11 7.5 19.5t23.5 8.5h42v512l-22 -11q-4 -2 -7.5 -3t-7.5 -1 q-8 0 -14.5 4.5t-9.5 11.5q-1 2 -1.5 3.5t-1.5 3.5v3v3q0 8 4 15t13 11l151 75q3 2 6 2.5t5 0.5q8 0 14.5 -4t10.5 -11q1 -1 1.5 -3t0.5 -3q1 -2 1 -3.5v-3.5q0 -7 -3.5 -14t-9.5 -11q-16 -8 -26 -24.5t-10 -35.5v-371l175 153h-57q-15 0 -22.5 9t-7.5 19q0 11 7.5 19.5 t22.5 8.5h206q15 0 22.5 -8.5t7.5 -19.5q0 -10 -7.5 -19t-22.5 -9h-64l-112 -98l145 -197l1.5 -1.5t0.5 -1.5h57q15 -1 22.5 -9.5t7.5 -19.5v0z" />
<glyph unicode="l" horiz-adv-x="280" d="M248 28q0 -10 -7.5 -19t-22.5 -9h-186q-16 0 -23.5 9t-7.5 19q0 11 7.5 19.5t23.5 8.5h42v512l-22 -11q-4 -2 -7.5 -3t-7.5 -1q-8 0 -14.5 4.5t-9.5 11.5q-1 2 -1.5 3.5t-1.5 3.5v3v3q0 8 4 15t13 11l151 75q2 2 5 2.5t6 0.5q8 0 14.5 -4t10.5 -11q1 -1 1.5 -3t0.5 -3 q1 -2 1 -3.5v-3.5q0 -7 -3.5 -14t-9.5 -11q-16 -8 -26 -24.5t-10 -35.5v-517h50q15 0 22.5 -8.5t7.5 -19.5v0z" />
<glyph unicode="m" horiz-adv-x="900" d="M873 28q0 -10 -7.5 -19t-23.5 -9h-219q-15 0 -23 9t-8 19q0 11 8 19.5t23 8.5h62v201q0 52 -29 76.5t-66 24.5h-2.5h-2.5q-2 -1 -3 -1h-3q-40 -3 -73 -31t-33 -77v-193h63q15 0 22.5 -8.5t7.5 -19.5q0 -10 -7.5 -19t-22.5 -9h-220q-15 0 -22.5 9t-7.5 19q0 11 7.5 19.5 t22.5 8.5h63v201q0 52 -29 76.5t-66 24.5h-2.5h-2.5q-2 -1 -3 -1h-3h-2.5t-3.5 -1q-37 -4 -68.5 -30.5t-31.5 -72.5v-197h50q15 0 22.5 -8.5t7.5 -19.5q0 -10 -7.5 -19t-22.5 -9h-187q-15 0 -22.5 9t-7.5 19q0 11 7.5 19.5t22.5 8.5h42v268l-21 -11q-4 -2 -8 -3t-8 -1 q-8 0 -14.5 4.5t-9.5 11.5l-2 6t-1 7v3.5t1 3.5q1 5 5 10t11 9l151 75q3 2 6 2.5t6 0.5q8 0 14.5 -4t9.5 -11q2 -3 2.5 -6.5t0.5 -7.5v-2v-1q0 -1 -0.5 -2t-0.5 -2q19 8 38.5 11.5t39.5 4.5h3.5h2.5q44 0 84 -18t64 -54q26 35 67 53t85 19h3h2q68 0 122.5 -41t54.5 -125 v-200h62q16 0 23.5 -8.5t7.5 -19.5v0z" />
<glyph unicode="n" horiz-adv-x="591" d="M555 28q0 -10 -8 -19t-23 -9h-206q-15 0 -22.5 9t-7.5 19q0 11 7.5 19.5t22.5 8.5h63v201q0 52 -29 76.5t-66 24.5h-2.5h-2.5q-2 -1 -3 -1h-3q-46 -4 -76 -34t-30 -77v-190h49q16 0 23.5 -8.5t7.5 -19.5q0 -10 -7.5 -19t-23.5 -9h-186q-15 0 -22.5 9t-7.5 19 q0 11 7.5 19.5t22.5 8.5h42v268l-21 -11q-4 -2 -8 -3t-8 -1q-8 0 -14.5 4.5t-9.5 11.5l-2 6t-1 7v3.5t1 3.5q1 5 5 10t11 9l151 75q3 2 6 2.5t6 0.5q8 0 14.5 -4t9.5 -11q2 -3 2.5 -6.5t0.5 -7.5v-2v-1q0 -1 -0.5 -2t-0.5 -2q19 8 38.5 11.5t39.5 4.5h3h2q67 0 121.5 -41 t54.5 -125v-200h49q15 0 23 -8.5t8 -19.5v0z" />
<glyph unicode="o" horiz-adv-x="473" d="M434 207q0 -89 -61 -157.5t-153 -68.5t-154 68.5t-62 157.5t62 157.5t154 68.5t153 -68.5t61 -157.5v0zM330 231q-3 9 -7 18.5t-9 19.5q-20 35 -53 65t-72 29h-5.5h-4.5t-4.5 -0.5t-5.5 -1.5q-36 -8 -52 -39t-18 -66v-4.5v-5.5q0 -17 3 -33t7 -30q3 -9 7 -18.5t9 -19.5 q19 -35 52 -65t72 -29h5.5h4.5t4.5 0.5t5.5 1.5q37 9 53 40.5t17 68.5v3.5v3.5q0 17 -2.5 33t-6.5 29v0z" />
<glyph unicode="p" horiz-adv-x="534" d="M209 416q17 6 34.5 9.5t36.5 3.5q89 0 148 -66.5t59 -152.5t-59 -152.5t-148 -66.5h-6h-7q-28 2 -55.5 12t-50.5 26v-228h50q15 1 22.5 -8t7.5 -19q0 -11 -7.5 -20t-22.5 -9l-187 -1q-15 1 -22 10t-7 20q0 10 7 19t22 9l42 -1v523l-21 -11q-4 -2 -8 -3t-8 -1 q-8 0 -14.5 4.5t-9.5 11.5l-2 6t-1 7v3.5t1 3.5q1 5 5 10t11 9l151 75q3 2 6 2.5t6 0.5q8 0 14.5 -4t9.5 -11q1 -1 1.5 -2.5t0.5 -2.5q1 -2 1 -3v-3v0zM161 294v-184q17 -25 43 -41t57 -16q55 0 89 42.5t38 93.5q1 3 1 6.5v6.5v6.5t-1 6.5q-4 51 -38 93.5t-89 42.5 q-31 0 -57 -15.5t-43 -41.5v0z" />
<glyph unicode="q" horiz-adv-x="478" d="M478 -154q2 -2 2.5 -5.5t0.5 -7.5v-2.5t-1 -2.5q-1 -6 -5 -11t-11 -9l-150 -76q-4 -1 -7.5 -2t-7.5 -1q-8 0 -14 4.5t-10 11.5l-2 6t-1 6q0 7 4 14t13 13q16 9 25 24.5t9 34.5v184q-22 -16 -49 -25t-55 -11h-6h-6q-88 0 -147.5 66.5t-59.5 151.5q0 86 59.5 153t147.5 67 q35 0 67.5 -12t59.5 -34l22 29q5 6 12 9t14 3q2 0 5 -0.5t6 -1.5q10 -2 17.5 -9t7.5 -18v-548l21 11q4 3 7.5 4t7.5 1q8 -1 14.5 -5.5t9.5 -10.5v-1zM323 106v192q-17 23 -42.5 38t-54.5 15q-54 0 -87.5 -41t-39.5 -90q0 -5 -0.5 -9.5t-0.5 -8.5v-8t1 -7q5 -51 39 -93 t88 -42q30 0 54.5 15.5t42.5 38.5v0z" />
<glyph unicode="r" horiz-adv-x="448" d="M401 339l-59 -59q-4 -4 -9.5 -6t-11.5 -1q-5 0 -10 1.5t-9 5.5l-35 36q-2 2 -4.5 3t-5.5 1q-4 0 -8 -2t-7 -5l-75 -76v-181h83q14 0 21.5 -8.5t7.5 -19.5q0 -10 -7.5 -19t-21.5 -9h-220q-15 0 -22.5 9t-7.5 19q0 11 7.5 19.5t22.5 8.5h42v268l-22 -11q-4 -2 -7.5 -3 t-6.5 -1q-8 0 -14.5 4.5t-9.5 11.5q-1 3 -2.5 6.5t-1.5 7.5q1 8 5 14.5t12 10.5l151 75q2 2 5 2.5t6 0.5q8 -1 14.5 -5t9.5 -11q2 -3 2.5 -6.5t0.5 -7.5q0 -7 -3 -13.5t-10 -10.5q-8 -4 -14 -10t-11 -14q-4 -7 -6.5 -16t-2.5 -19v-12q13 13 25.5 26t25.5 26q13 12 26 25 l26 26q10 10 21.5 15t23.5 4q12 0 23.5 -4.5t21.5 -14.5l41 -41q3 -3 4.5 -7t2.5 -8v-2.5v-2.5q0 -6 -1.5 -11t-5.5 -9v0z" />
<glyph unicode="s" horiz-adv-x="378" d="M333 118q0 -52 -40 -84.5t-88 -42.5q-12 -3 -24 -4.5t-23 -1.5q-25 0 -47 4t-40 11q-4 -2 -9 -3.5t-10 -1.5q-8 1 -15.5 5.5t-10.5 13.5l-25 75q-1 3 -1 5.5v4.5q0 10 5 16.5t12 9.5q2 1 5 1.5t6 0.5h2h2q6 -1 11 -5.5t8 -11.5l11 -27q8 -14 23 -22t32 -12q9 -2 18 -3 t17 -1q19 0 35.5 5.5t29.5 14.5q12 8 17.5 17.5t4.5 19.5q0 14 -10 26t-27 19q-29 12 -59 24.5t-60 25.5q-31 13 -51 42t-20 63q0 26 14 49.5t38 39.5q17 12 37.5 19.5t42.5 10.5q4 0 7.5 0.5t7.5 0.5q3 1 6.5 1h7.5q14 0 28.5 -1.5t27.5 -5.5q4 8 11 12t14 4h0.5h0.5h0.5 h0.5q8 -1 15.5 -6t10.5 -14q8 -21 15.5 -42t14.5 -43q1 -3 1.5 -6t0.5 -5q-1 -10 -6 -16.5t-13 -8.5q-1 0 -2.5 -0.5t-2.5 -0.5q-1 -1 -2.5 -1h-2.5q-8 0 -15 5t-11 15q-2 5 -3.5 10t-3.5 10q-6 13 -19.5 21t-27.5 12q-9 2 -17 3t-15 1q-5 0 -10.5 -0.5t-10.5 -1.5 q-18 -3 -33.5 -14t-15.5 -31q0 -10 7.5 -17.5t17.5 -11.5q15 -6 29.5 -12t29.5 -12q5 -3 9.5 -5t9.5 -4q10 -4 19.5 -8t19.5 -8q37 -16 62.5 -49t25.5 -74v0z" />
<glyph unicode="t" horiz-adv-x="410" d="M369 384q0 -10 -7 -19t-22 -9h-36.5h-36.5h-36.5h-36.5v-60v-60v-61v-60q0 -25 15.5 -37.5t34.5 -13.5h1.5h1.5q20 0 36 13.5t16 38.5q0 14 9 21.5t19 7.5q11 0 20 -7.5t9 -22.5q0 -52 -37 -89.5t-90 -37.5q-52 0 -89 37t-37 89v120.5v121.5h-72q-13 0 -23 6t-10 22 q0 11 6.5 19.5t21.5 8.5q44 0 71.5 23t34.5 67q2 10 9.5 15.5t15.5 7.5h3.5h2.5h0.5h0.5h0.5h0.5q11 -1 20 -7.5t9 -20.5v-21v-21v-21.5v-21.5h36.5h36.5h36.5h36.5q14 0 21.5 -8.5t7.5 -19.5v0z" />
<glyph unicode="u" horiz-adv-x="577" d="M534 85q2 -3 2.5 -6.5t0.5 -7.5v-2.5t-1 -2.5q-1 -6 -5 -11t-11 -9l-108 -54q-2 0 -4 -1l-4 -2q-3 0 -5 -0.5t-4 -0.5q-3 0 -6 1t-6 3q-5 3 -8.5 9t-3.5 15v16q-19 -17 -44 -28t-52 -15q-5 -1 -10.5 -1.5t-11.5 -0.5q-73 0 -130.5 42.5t-58.5 123.5v188l-21 -11 q-4 -1 -7.5 -2t-6.5 -1q-9 0 -15.5 4t-9.5 11q-1 3 -2 6.5t-1 7.5v2.5t1 2.5q1 6 5 11t11 9l151 76q2 1 4.5 1.5t4.5 0.5q8 0 14.5 -4.5t10.5 -11.5q2 -4 2.5 -7.5t0.5 -7.5q0 -7 -3 -13t-10 -9q-14 -7 -22.5 -21t-10.5 -29q-1 -2 -1 -4.5v-4.5v-203q0 -39 25 -70t66 -31 h6.5t6.5 1q40 4 74 31.5t34 70.5v200l-22 -10q-4 -2 -7.5 -3t-6.5 -1q-8 0 -14.5 4.5t-9.5 11.5q-1 3 -2.5 6.5t-1.5 7.5q1 7 5 13.5t12 10.5l151 76q1 0 2.5 0.5t2.5 0.5q1 1 2.5 1h2.5q8 0 14.5 -4t10.5 -12q1 -1 1.5 -3t0.5 -3q1 -2 1 -3.5v-3.5q0 -7 -3 -13.5t-10 -10.5 q-16 -9 -25 -25t-9 -34l-1 -270l30 15q4 2 7.5 3t7.5 1q8 -1 14.5 -5.5t9.5 -10.5v0z" />
<glyph unicode="v" horiz-adv-x="556" d="M528 381q0 -10 -7.5 -19t-21.5 -9h-60l-137 -354h-91l-140 354h-39q-15 0 -22.5 9t-7.5 19q0 11 7.5 19.5t22.5 8.5h196q15 0 22.5 -8.5t7.5 -19.5q0 -10 -7.5 -19t-22.5 -9h-50l103 -250l98 250h-55q-14 0 -21.5 9t-7.5 19q0 11 7.5 19.5t21.5 8.5h175q14 0 21.5 -8.5 t7.5 -19.5v0z" />
<glyph unicode="w" horiz-adv-x="772" d="M736 381q0 -10 -7.5 -19t-22.5 -9h-59l-138 -354h-90l-59 148l-57 -148h-91l-140 354h-39q-15 0 -22 9t-7 19q0 11 7 19.5t22 8.5h155q15 0 22 -8.5t7 -19.5q0 -10 -7 -19t-22 -9h-8l102 -250l48 121l-51 129h-9q-15 0 -22.5 9t-7.5 19q0 11 7.5 19.5t22.5 8.5h133 q15 0 22.5 -8.5t7.5 -19.5q0 -10 -7.5 -19t-22.5 -9h-17l103 -250l98 250h-55q-15 0 -22 9t-7 19q0 11 7 19.5t22 8.5h174q15 0 22.5 -8.5t7.5 -19.5v0z" />
<glyph unicode="x" horiz-adv-x="598" d="M554 28q0 -10 -7.5 -19t-21.5 -9h-207q-14 0 -21.5 9t-7.5 19q0 11 7.5 20t21.5 9h12l-74 93l-89 -93h55q15 0 22.5 -9t7.5 -20q0 -10 -7.5 -19t-22.5 -9h-194q-14 0 -21 9t-7 19q0 11 7 20t21 9h61l132 138l-126 160h-54q-15 0 -22 9t-7 19q0 11 7 19.5t22 8.5h192 q15 0 22.5 -8.5t7.5 -19.5q0 -10 -7.5 -19t-22.5 -9h-19l72 -91l87 91h-31q-15 0 -22.5 9t-7.5 19q0 11 7.5 19.5t22.5 8.5h162q14 0 21.5 -8.5t7.5 -19.5q0 -10 -7.5 -19t-21.5 -9h-53l-129 -135l131 -163h72q14 0 21.5 -9t7.5 -20v0z" />
<glyph unicode="y" horiz-adv-x="565" d="M526 373q0 -10 -7.5 -19t-21.5 -9h-59q-10 -28 -21 -56.5t-22 -56.5q-50 -125 -108.5 -247t-125.5 -236q-4 -6 -10.5 -10t-14.5 -4l-64 -1q-16 1 -24.5 12.5t-2.5 25.5q1 2 2 4.5t3 4.5q5 6 9.5 11t8.5 11q15 18 30 35t29 35q26 31 48.5 63t38.5 66l-129 343h-55 q-15 0 -22.5 9t-7.5 19q0 11 7.5 19.5t22.5 8.5h200q15 0 22.5 -8.5t7.5 -19.5q0 -10 -7.5 -19t-22.5 -9h-39l86 -242q14 30 27 60.5t26 60.5t25 60.5t23 60.5h-35q-15 0 -22.5 9t-7.5 19q0 11 7.5 19.5t22.5 8.5h154q14 0 21.5 -8.5t7.5 -19.5v0z" />
<glyph unicode="z" horiz-adv-x="482" d="M444 109l-132 -177q-3 -4 -7.5 -6.5t-8.5 -4.5q-2 0 -4 -0.5t-4 -0.5q-4 0 -8 2l-8 4q-5 4 -8.5 10t-3.5 13q0 2 0.5 5.5t2.5 6.5q1 1 2 2.5t2 3.5l25 33h-240q-19 0 -26 7.5t-7 17.5v2v2q1 6 3.5 11t5.5 8l269 269h-209l-36 -48q-3 -5 -7.5 -8t-9.5 -4q-1 -1 -2.5 -1 h-3.5q-4 0 -8.5 2t-8.5 4q-5 4 -8.5 10t-3.5 13q1 4 2.5 8.5t4.5 8.5l132 178q4 5 8 7.5t8 3.5q2 0 4 0.5t4 0.5q5 0 8.5 -1.5t7.5 -4.5q5 -4 8.5 -9.5t3.5 -12.5q0 -4 -1.5 -8.5t-5.5 -9.5l-25 -35h244q13 0 20.5 -9t7.5 -20q0 -5 -2 -10t-6 -9l-269 -268h209l36 48 q3 5 7.5 8t9.5 4q1 1 3 1h3q5 0 9 -2l8 -4q5 -4 8.5 -10t3.5 -13q-1 -4 -2 -8.5t-5 -9.5v0z" />
<glyph unicode="{" />
<glyph unicode="|" />
<glyph unicode="}" />
<glyph unicode="~" />
<glyph unicode="&#xa1;" horiz-adv-x="125" d="M1 -241l27 506q0 11 9 16t19 6q11 0 19 -5t9 -16l30 -485q0 1 0 0.5v-0.5v-0.5v-0.5q0 -2 -0.5 -3.5t-0.5 -3.5q-3 -7 -8.5 -13t-12.5 -7q-10 -2 -19 -6l-18 -8q-4 -1 -7.5 -3t-7.5 -3q-3 -2 -6 -2h-6q-11 0 -19 8t-8 20v0v0v1v0v-1zM11 393q0 19 14 33t33 14t33 -14 t14 -33t-14 -33t-33 -14t-33 14t-14 33v0z" />
<glyph unicode="&#xa2;" horiz-adv-x="404" d="M381 525l-43 -82q-4 -9 -11 -12.5t-15 -3.5h-3t-3 1q-2 0 -3.5 0.5t-3.5 1.5q-6 4 -10.5 10.5t-4.5 14.5q0 4 1 7.5t3 7.5l2 2q-1 2 -2.5 4.5t-2.5 4.5q-9 16 -21 30.5t-28 22.5v-288h0.5h1.5h1.5h0.5q25 0 47 9.5t38 24.5q5 5 10 6.5t10 1.5q6 0 11 -2.5t9 -6.5 q3 -4 5 -9t1 -10q0 -5 -2 -11t-7 -12q-23 -27 -55.5 -48t-70.5 -28v-170q0 -15 -8.5 -22.5t-19.5 -7.5h-1.5h-1.5q-10 1 -18 8.5t-8 22.5v169q-69 13 -112 72.5t-48 128.5q-1 4 -1 8v8v5.5v4.5q3 71 46.5 132.5t114.5 74.5v75q0 14 8 21.5t18 8.5h1.5h1.5q11 0 19.5 -7.5 t8.5 -22.5v-74q26 -4 51 -16t45 -29q4 7 9 11t11 5q1 1 2.5 1h2.5q4 0 7 -1t6 -3q7 -3 11.5 -9.5t3.5 -14.5q0 -2 -0.5 -4.5t-1.5 -5.5q0 -1 -0.5 -2.5t-1.5 -2.5v0zM179 265v271q-33 -12 -46.5 -44.5t-15.5 -70.5v-6.5v-7.5q0 -13 1.5 -26t2.5 -24q0 -2 0.5 -3.5t0.5 -3.5 q7 -24 21.5 -47t35.5 -38v0z" />
<glyph unicode="&#xa3;" horiz-adv-x="600" d="M572 641v-2.5v-3.5q0 -22 -14.5 -32.5t-32.5 -10.5h-1.5h-0.5h-1.5h-1.5q-18 2 -32.5 14t-13.5 32v3v3q0 1 0.5 2.5t0.5 2.5q-2 1 -4 1.5t-4 1.5q-3 1 -5 1.5t-4 1.5h-2t-2 1h-2h-2q-22 -1 -39.5 -19t-28.5 -40q-6 -10 -10.5 -20.5t-7.5 -18.5q-4 -11 -8 -23t-7 -24 q-5 -16 -8.5 -32.5t-6.5 -31.5q-7 -46 -19.5 -89t-26.5 -83h82q15 0 22.5 -8.5t7.5 -19.5q0 -10 -7.5 -19t-22.5 -9h-106q-13 -29 -27.5 -54.5t-29.5 -46.5h4.5t4.5 1h4.5h4.5q26 0 47 -6t41 -17q11 -6 22 -14t23 -18q3 -2 5.5 -4t5.5 -4q14 -11 30.5 -20.5t34.5 -9.5h2.5 h1.5q20 2 37 14t21 31q-3 -5 -9.5 -7.5t-14.5 -2.5h-4h-4q-8 1 -15.5 3.5t-11.5 5.5q-10 6 -15 13.5t-6 15.5q-1 2 -1 4v4q0 18 14.5 33t36.5 16h2h2h1h2q31 0 54.5 -18.5t26.5 -51.5v-2.5v-3.5q0 -25 -11 -46t-31 -37q-19 -16 -45 -26t-56 -11h-4.5h-4.5q-49 0 -76 19 t-49 40l-1.5 1.5l-1.5 1.5q-11 11 -21 19t-19 13q-8 3 -16 5t-16 2q-11 0 -23.5 -3.5t-27.5 -10.5q-15 -6 -26 -16t-22 -21l-0.5 -0.5l-0.5 -0.5q-7 -7 -13.5 -12.5t-14.5 -11.5q-3 -2 -5.5 -3.5t-4.5 -1.5q-2 -1 -4.5 -1.5t-5.5 -0.5q-11 1 -19 9.5t-8 18.5q1 6 4 12t10 11 q3 3 6.5 6t7.5 6t7.5 7t6.5 8q29 32 50.5 71t38.5 80q1 3 2.5 6t2.5 6h-78q-15 0 -22.5 9t-7.5 19q0 11 7.5 19.5t22.5 8.5h99q12 36 21.5 75t16.5 79q3 21 8.5 44t13.5 46q23 70 69 129.5t123 64.5h3h3h2.5h2.5q10 0 20.5 -1t21.5 -3q30 -6 55.5 -22t27.5 -46v0z" />
<glyph unicode="&#xa4;" horiz-adv-x="784" d="M748 64q0 -2 -1 -4.5t-2 -5.5t-2.5 -5.5t-3.5 -4.5l-0.5 -1t-1.5 -1q-49 -35 -107.5 -48.5t-118.5 -14.5h-7.5h-7.5q-130 0 -235.5 82.5t-131.5 203.5h-63q-14 0 -21.5 7.5t-8.5 16.5v1.5v1.5q0 11 7.5 19t22.5 8h55q0 2 -0.5 4t-0.5 4v4v4v4t1 4v3v4h-55 q-15 0 -22.5 8.5t-7.5 18.5v1.5v1.5q1 9 8.5 16.5t21.5 7.5h61q24 125 130 210.5t239 85.5q65 0 127 -13.5t114 -51.5q1 0 1.5 -0.5t0.5 -1.5q2 -2 3.5 -4.5t2.5 -4.5q1 -3 2 -5.5t1 -4.5v-96q0 -14 -8.5 -21.5t-19.5 -7.5q-10 0 -19 7.5t-9 21.5v38q-35 42 -85.5 66 t-107.5 24q-105 -1 -168.5 -76t-79.5 -166h409q14 0 21.5 -7.5t8.5 -16.5v-1.5v-1.5q0 -10 -7.5 -18.5t-22.5 -8.5h-414q0 -2 -0.5 -4t-0.5 -4v-5v-4v-3.5t1 -3.5v-3.5v-3.5h323q15 0 22.5 -8t7.5 -19v-1.5v-1.5q-1 -9 -8.5 -16.5t-21.5 -7.5h-316v-1.5t1 -1.5 q18 -86 81.5 -158t164.5 -72q57 1 106.5 24t85.5 66v38q0 14 9 21.5t19 7.5q11 0 19.5 -7.5t8.5 -21.5v-96v0z" />
<glyph unicode="&#xa5;" horiz-adv-x="859" d="M820 654q0 -10 -7.5 -19t-22.5 -9h-78l-140 -231h105q15 0 22.5 -8t7.5 -19q0 -10 -7.5 -18.5t-22.5 -8.5h-138l-19 -31h155q16 0 23.5 -8.5t7.5 -19.5q0 -10 -7.5 -18.5t-23.5 -8.5h-188l-8 -14v-186h92q15 0 22.5 -8.5t7.5 -19.5v-1.5v-1.5q-1 -9 -8.5 -16.5 t-21.5 -7.5h-311q-14 0 -21.5 7.5t-8.5 16.5v1.5v1.5q0 11 7.5 19.5t22.5 8.5h100v190l-5 10h-182q-16 0 -23.5 8.5t-7.5 18.5q0 11 7.5 19.5t23.5 8.5h149l-19 31h-130q-16 0 -23.5 8.5t-7.5 18.5q0 11 7.5 19t23.5 8h98l-138 231h-64q-15 0 -22.5 9t-7.5 19q0 11 7.5 19 t22.5 8h264q16 0 23.5 -8t7.5 -19q0 -10 -7.5 -19t-23.5 -9h-60l185 -311l189 311h-76q-15 0 -23 9t-8 19q0 11 7.5 19t23.5 8h219q15 0 22.5 -8t7.5 -19v0z" />
<glyph unicode="&#xa6;" />
<glyph unicode="&#xa7;" />
<glyph unicode="&#xa8;" horiz-adv-x="238" d="M113 768q0 -21 -15 -36t-36 -15t-36 15t-15 36t15 36t36 15t36 -15t15 -36v0zM228 768q0 -21 -15 -36t-37 -15q-21 0 -36 15t-15 36t15 36t36 15q22 0 37 -15t15 -36v0z" />
<glyph unicode="&#xa9;" />
<glyph unicode="&#xaa;" horiz-adv-x="259" d="M235 499q-1 -2 -1.5 -3.5t-1.5 -3.5q-3 -6 -6 -12.5t-8 -11.5q-7 -9 -17 -14t-21 -5q-13 0 -25 6t-17 18q-16 -11 -34.5 -18t-38.5 -7h-4.5t-5.5 1q-20 2 -37 14.5t-17 34.5q0 29 21 45.5t47 25.5q2 1 4 1.5t5 1.5q15 5 29.5 8.5t25.5 6.5v36q0 9 -3.5 15.5t-13.5 7.5h-2 t-1 1h-2h-2h-3t-3 -1q-15 -2 -29 -11.5t-23 -21.5q-4 -4 -7.5 -6t-6.5 -2q-2 0 -3.5 0.5t-3.5 1.5q-5 2 -7.5 8.5t1.5 13.5q13 23 34.5 38.5t47.5 17.5h3h3h2.5h2.5q27 0 47.5 -12t20.5 -43v-134q0 -2 1.5 -3.5t3.5 -2.5q3 -1 5.5 1t4.5 5q1 2 2 3.5t2 3.5l0.5 1t1.5 2 q1 3 2.5 5.5t3.5 4.5q2 3 5 4.5t6 1.5h1.5h1.5l0.5 -0.5t1.5 -0.5q5 -3 8 -8.5t-1 -13.5v0zM133 512v42q-6 -1 -12 -3t-13 -4q-20 -6 -37 -16t-16 -27v-0.5v-0.5v-0.5v-0.5q2 -10 9.5 -14.5t17.5 -4.5h0.5h1.5q3 0 6 0.5t6 1.5q11 4 21 11.5t16 15.5v0z" />
<glyph unicode="&#xab;" horiz-adv-x="315" d="M179 232q2 -4 3 -8t1 -7q0 -4 -2 -8t-5 -7q-4 -3 -9 -4t-11 1q-2 1 -4.5 3t-5.5 4l-112 101q-7 7 -11 16t-4 19t4 18.5t11 15.5l111 103q3 3 5.5 4.5t4.5 2.5t4.5 1.5t5.5 0.5t6 -1t5 -3q3 -2 5 -6.5t2 -9.5q0 -3 -1 -6.5t-3 -7.5l-54 -111l54 -111v0zM309 232q2 -4 3 -8 t1 -7q0 -4 -2 -8t-5 -7q-4 -3 -9 -4t-11 1q-2 1 -4.5 3t-5.5 4l-112 101q-7 7 -11 16t-4 19t4 18.5t11 15.5l111 103q3 3 5.5 4.5t4.5 2.5t4.5 1.5t5.5 0.5t6 -1t5 -3q3 -2 5 -6.5t2 -9.5q0 -3 -1 -6.5t-3 -7.5l-54 -111l54 -111v0z" />
<glyph unicode="&#xac;" />
<glyph unicode="&#xad;" />
<glyph unicode="&#xae;" />
<glyph unicode="&#xaf;" horiz-adv-x="200" />
<glyph unicode="&#xb0;" />
<glyph unicode="&#xb1;" />
<glyph unicode="&#xb2;" />
<glyph unicode="&#xb3;" />
<glyph unicode="&#xb4;" horiz-adv-x="282" d="M192 852q6 -8 9 -17t3 -18q0 -13 -5.5 -25t-16.5 -20q-5 -4 -11 -7.5t-12 -5.5q-3 -2 -6 -3t-5 -2t-3.5 -1.5t-3.5 -1.5l-76 -39q-1 -1 -2.5 -1.5t-2.5 -0.5h-2.5h-2.5q-7 0 -14 4t-12 11q-4 5 -6.5 11t-1.5 12v2.5v2.5q1 3 2 5.5t3 4.5l55 63q2 3 4 5.5t4 5.5 q5 7 10.5 13t12.5 11q8 6 16.5 9t18.5 3q13 0 24.5 -5t20.5 -16v0z" />
<glyph unicode="&#xb5;" />
<glyph unicode="&#xb6;" />
<glyph unicode="&#xb7;" horiz-adv-x="200" />
<glyph unicode="&#xb8;" horiz-adv-x="320" d="M251 -113q0 -40 -32.5 -61t-72.5 -28q-12 -2 -25 -3t-24 -1h-10t-10 1q-15 1 -21.5 8.5t-6.5 17.5v0.5v1.5v1.5v0.5q2 10 9.5 18t20.5 8h0.5h0.5h0.5h0.5h4.5h5.5h9t10 1q14 2 26 7.5t14 18.5v1.5v0.5q0 10 -6.5 15.5t-14.5 8.5q-1 0 -2.5 0.5t-3.5 1.5q-9 2 -14.5 10 t-5.5 18q0 2 0.5 4t0.5 4l2 4l2 4l54 73q4 5 8 8t8 5q2 0 4 0.5t4 0.5q5 0 9 -1.5t8 -4.5q5 -4 8.5 -9.5t3.5 -13.5q0 -2 -1 -5l-2 -6q-1 -1 -2 -3t-2 -3l-19 -27q23 -10 42.5 -29t19.5 -47v-1z" />
<glyph unicode="&#xb9;" />
<glyph unicode="&#xba;" horiz-adv-x="260" d="M235 564q0 -49 -34 -87t-84 -38q-51 0 -84.5 38t-33.5 87t33.5 86.5t84.5 37.5q50 0 84 -37.5t34 -86.5v0zM178 577q-2 5 -4 10.5t-5 10.5q-11 20 -29.5 36.5t-40.5 15.5h-5.5t-4.5 -1q-21 -5 -29 -22.5t-9 -37.5v-2v-2q0 -9 1.5 -17.5t3.5 -16.5q1 -5 3.5 -10.5 t5.5 -10.5q10 -20 28.5 -36.5t40.5 -15.5h4.5t5.5 1q21 5 29.5 23t8.5 39v2v2v4v4q-1 7 -1.5 13t-2.5 11v0z" />
<glyph unicode="&#xbb;" horiz-adv-x="315" d="M21 232l54 111l-54 111q-2 4 -3 7.5t-1 7.5q0 5 2 9t5 6t6 3t6 1q2 0 4.5 -0.5t5.5 -1.5q2 -1 4.5 -3t4.5 -4l111 -103q8 -7 11.5 -16t3.5 -19t-3.5 -18.5t-11.5 -15.5l-112 -101q-2 -2 -5 -4t-5 -3q-6 -2 -11 -1t-9 4q-3 3 -5 7t-2 8t1 7.5t3 7.5v0zM151 232l54 111 l-54 111q-2 4 -3 7.5t-1 7.5q0 5 2 9t5 6t6 3t6 1q2 0 4.5 -0.5t5.5 -1.5q2 -1 4.5 -3t4.5 -4l111 -103q8 -7 11.5 -16t3.5 -19t-3.5 -18.5t-11.5 -15.5l-112 -101q-2 -2 -5 -4t-5 -3q-6 -2 -11 -1t-9 4q-3 3 -5 7t-2 8t1 7.5t3 7.5v0z" />
<glyph unicode="&#xbc;" />
<glyph unicode="&#xbd;" />
<glyph unicode="&#xbe;" />
<glyph unicode="&#xbf;" horiz-adv-x="404" d="M18 -100q0 42 23.5 82.5t58.5 77.5q16 17 34 33.5t36 31.5q14 12 27.5 22.5t26.5 20.5l-22 61q-1 2 -1 4v4v2v3q1 5 4 10.5t7 8.5l36 27q4 2 8 3.5t8 1.5h2t2 -1q7 -1 13.5 -6t9.5 -12l15 -41q1 -3 2 -6.5t2 -7.5q0 -4 0.5 -7.5t0.5 -6.5q0 -19 -8.5 -36.5t-24.5 -29.5 q-23 -18 -46 -37t-46 -39q-25 -22 -38 -52t-15 -62v-4.5v-3.5q0 -53 27.5 -89t82.5 -38h2h2h2h2q6 0 11.5 0.5t11.5 0.5q17 2 33.5 7t31.5 13q5 3 10.5 4.5t9.5 1.5q7 0 12.5 -3.5t9.5 -9.5q2 -4 3.5 -7.5t1.5 -7.5q0 -7 -3.5 -13.5t-11.5 -12.5q-32 -26 -70.5 -41 t-79.5 -15q-76 0 -139.5 43t-63.5 127v-1zM211 392q0 20 14 33.5t33 13.5q20 0 33.5 -13.5t13.5 -33.5q0 -19 -13.5 -33t-33.5 -14q-19 0 -33 14t-14 33v0z" />
<glyph unicode="&#xc0;" horiz-adv-x="829" d="M800 27v-1.5v-1.5q-1 -9 -8.5 -16.5t-21.5 -7.5h-270q-14 0 -21.5 7.5t-8.5 16.5v1.5v1.5q0 11 7.5 19.5t22.5 8.5h66l-77 198h-228l-78 -198h118q15 0 22.5 -8.5t7.5 -19.5v-1.5v-1.5q-1 -9 -8.5 -16.5t-21.5 -7.5h-271q-14 0 -21.5 7.5t-8.5 16.5v1.5v1.5 q0 11 7.5 19.5t22.5 8.5h92l242 609q0 1 0.5 1.5l0.5 0.5q2 4 6.5 7.5t9.5 5.5q2 1 4.5 1.5t4.5 0.5h54q2 0 4 -0.5t5 -1.5q6 -2 11 -6.5t7 -9.5l237 -608h62q15 0 22.5 -8.5t7.5 -19.5v0zM468 308l-92 235l-93 -235h185v0zM442 755q3 -4 4 -7.5t1 -8.5q0 -6 -2 -11.5 t-6 -10.5q-5 -7 -11.5 -11.5t-14.5 -4.5h-2.5t-2.5 1q-1 0 -2.5 0.5t-2.5 1.5l-76 38q-4 2 -8.5 4t-9.5 4l-12 6t-11 7q-11 9 -16.5 21t-5.5 25v4.5t1 4.5q1 7 4 13.5t7 12.5q8 11 20 16.5t25 4.5h4.5t4.5 -1q7 -1 13.5 -3.5t12.5 -7.5t11.5 -11.5t11.5 -12.5v-1l1 -1 q1 -2 3 -4.5t4 -4.5l55 -63v0z" />
<glyph unicode="&#xc1;" horiz-adv-x="829" d="M800 27v-1.5v-1.5q-1 -9 -8.5 -16.5t-21.5 -7.5h-270q-14 0 -21.5 7.5t-8.5 16.5v1.5v1.5q0 11 7.5 19.5t22.5 8.5h66l-77 198h-228l-78 -198h118q15 0 22.5 -8.5t7.5 -19.5v-1.5v-1.5q-1 -9 -8.5 -16.5t-21.5 -7.5h-271q-14 0 -21.5 7.5t-8.5 16.5v1.5v1.5 q0 11 7.5 19.5t22.5 8.5h92l242 609q0 1 0.5 1.5l0.5 0.5q2 4 6.5 7.5t9.5 5.5q2 1 4.5 1.5t4.5 0.5h54q2 0 4 -0.5t5 -1.5q6 -2 11 -6.5t7 -9.5l237 -608h62q15 0 22.5 -8.5t7.5 -19.5v0zM468 308l-92 235l-93 -235h185v0zM564 843q6 -8 9 -17t3 -18q0 -13 -5.5 -25 t-16.5 -20q-5 -4 -11 -7.5t-12 -5.5q-3 -2 -6 -3t-5 -2t-3.5 -1.5t-3.5 -1.5l-76 -39q-1 -1 -2.5 -1.5t-2.5 -0.5h-2.5h-2.5q-7 0 -14 4t-12 11q-4 5 -6.5 11t-1.5 12v2.5v2.5q1 3 2 5.5t3 4.5l55 63q2 3 4 5.5t4 5.5q5 7 10.5 13t12.5 11q8 6 16.5 9t18.5 3q13 0 24.5 -5 t20.5 -16v0z" />
<glyph unicode="&#xc2;" horiz-adv-x="829" d="M800 27v-1.5v-1.5q-1 -9 -8.5 -16.5t-21.5 -7.5h-270q-14 0 -21.5 7.5t-8.5 16.5v1.5v1.5q0 11 7.5 19.5t22.5 8.5h66l-77 198h-228l-78 -198h118q15 0 22.5 -8.5t7.5 -19.5v-1.5v-1.5q-1 -9 -8.5 -16.5t-21.5 -7.5h-271q-14 0 -21.5 7.5t-8.5 16.5v1.5v1.5 q0 11 7.5 19.5t22.5 8.5h92l242 609q0 1 0.5 1.5l0.5 0.5q2 4 6.5 7.5t9.5 5.5q2 1 4.5 1.5t4.5 0.5h54q2 0 4 -0.5t5 -1.5q6 -2 11 -6.5t7 -9.5l237 -608h62q15 0 22.5 -8.5t7.5 -19.5v0zM468 308l-92 235l-93 -235h185v0zM561 698q-4 -6 -10.5 -9.5t-13.5 -3.5q-3 0 -6 1 l-6 2l-52 27l-52 27l-103 -54q-1 -1 -3 -1.5t-3 -0.5q-2 -1 -3.5 -1h-3.5q-7 0 -13 3.5t-11 9.5q-2 4 -3.5 8.5t-1.5 8.5q0 5 2.5 10.5t6.5 9.5l117 107q3 3 7 4.5t8 2.5h2.5h2.5q5 0 10 -2t8 -5l118 -107q5 -4 7 -9.5t2 -10.5q0 -4 -1.5 -8.5t-4.5 -8.5v0z" />
<glyph unicode="&#xc3;" horiz-adv-x="829" d="M800 27v-1.5v-1.5q-1 -9 -8.5 -16.5t-21.5 -7.5h-270q-14 0 -21.5 7.5t-8.5 16.5v1.5v1.5q0 11 7.5 19.5t22.5 8.5h66l-77 198h-228l-78 -198h118q15 0 22.5 -8.5t7.5 -19.5v-1.5v-1.5q-1 -9 -8.5 -16.5t-21.5 -7.5h-271q-14 0 -21.5 7.5t-8.5 16.5v1.5v1.5 q0 11 7.5 19.5t22.5 8.5h92l242 609q0 1 0.5 1.5l0.5 0.5q2 4 6.5 7.5t9.5 5.5q2 1 4.5 1.5t4.5 0.5h54q2 0 4 -0.5t5 -1.5q6 -2 11 -6.5t7 -9.5l237 -608h62q15 0 22.5 -8.5t7.5 -19.5v0zM468 308l-92 235l-93 -235h185v0zM553 800l-6 -24q-7 -30 -31 -48.5t-54 -18.5h-4.5 h-4.5q-3 0 -5.5 0.5t-4.5 1.5l-95 22q-4 1 -7 -1t-4 -5q0 -1 -0.5 -2.5t-0.5 -2.5q-1 -1 -1 -2.5v-2.5q-3 -13 -11 -18.5t-17 -5.5h-1.5t-1.5 1h-1.5h-1.5q-9 2 -15.5 9t-6.5 18v4t1 4q1 3 1.5 6.5t1.5 6.5q0 3 0.5 6t1.5 6q8 30 32 48.5t54 18.5q5 0 9.5 -0.5t8.5 -1.5 l96 -22h1.5h0.5q3 0 5 1.5t3 4.5q0 1 0.5 2.5t1.5 2.5q0 1 0.5 2.5t0.5 2.5q2 11 9 17t16 7h1.5h1.5h1.5h1.5q1 -1 1.5 -1h1.5q9 -2 15.5 -9.5t6.5 -18.5v-2v-2t-0.5 -2t-0.5 -2v0z" />
<glyph unicode="&#xc4;" horiz-adv-x="829" d="M800 27v-1.5v-1.5q-1 -9 -8.5 -16.5t-21.5 -7.5h-270q-14 0 -21.5 7.5t-8.5 16.5v1.5v1.5q0 11 7.5 19.5t22.5 8.5h66l-77 198h-228l-78 -198h118q15 0 22.5 -8.5t7.5 -19.5v-1.5v-1.5q-1 -9 -8.5 -16.5t-21.5 -7.5h-271q-14 0 -21.5 7.5t-8.5 16.5v1.5v1.5 q0 11 7.5 19.5t22.5 8.5h92l242 609q0 1 0.5 1.5l0.5 0.5q2 4 6.5 7.5t9.5 5.5q2 1 4.5 1.5t4.5 0.5h54q2 0 4 -0.5t5 -1.5q6 -2 11 -6.5t7 -9.5l237 -608h62q15 0 22.5 -8.5t7.5 -19.5v0zM468 308l-92 235l-93 -235h185v0zM410 748q0 -21 -15 -36t-36 -15t-36 15t-15 36 t15 36t36 15t36 -15t15 -36v0zM525 748q0 -21 -15 -36t-37 -15q-21 0 -36 15t-15 36t15 36t36 15q22 0 37 -15t15 -36v0z" />
<glyph unicode="&#xc5;" horiz-adv-x="829" d="M800 27v-1.5v-1.5q-1 -9 -8.5 -16.5t-21.5 -7.5h-270q-14 0 -21.5 7.5t-8.5 16.5v1.5v1.5q0 11 7.5 19.5t22.5 8.5h66l-77 198h-228l-78 -198h118q15 0 22.5 -8.5t7.5 -19.5v-1.5v-1.5q-1 -9 -8.5 -16.5t-21.5 -7.5h-271q-14 0 -21.5 7.5t-8.5 16.5v1.5v1.5 q0 11 7.5 19.5t22.5 8.5h92l242 609q0 1 0.5 1.5l0.5 0.5q2 4 6.5 7.5t9.5 5.5q2 1 4.5 1.5t4.5 0.5h54q2 0 4 -0.5t5 -1.5q6 -2 11 -6.5t7 -9.5l237 -608h62q15 0 22.5 -8.5t7.5 -19.5v0zM468 308l-92 235l-93 -235h185v0zM503 786q0 -34 -24.5 -59t-59.5 -25q-34 0 -59 25 t-25 59q0 35 25 59.5t59 24.5q35 0 59.5 -24.5t24.5 -59.5v0zM456 786q0 16 -10.5 26.5t-26.5 10.5q-15 0 -26 -11t-11 -26t11 -26t26 -11q16 0 26.5 11t10.5 26v0z" />
<glyph unicode="&#xc6;" horiz-adv-x="1221" d="M1177 177h-1l-40 -156q0 -1 -0.5 -1.5t-0.5 -1.5q-2 -4 -7 -8.5t-10 -7.5q-3 -1 -5 -1.5t-4 -0.5h-595q-14 0 -21.5 7.5t-8.5 16.5v1.5v1.5q0 11 7.5 19.5t22.5 8.5h73v287h-183l-207 -287h105h1.5h1.5q10 0 18 -4t8 -24q0 -19 -8 -23t-18 -4h-1.5h-1.5h-270 q-10 0 -19 3.5t-9 23.5q0 21 9 24.5t19 3.5h96l410 571h-24q-15 0 -22.5 9t-7.5 19v1.5v1.5q1 9 8.5 16.5t21.5 7.5h285.5h284.5q2 0 3.5 -0.5t3.5 -0.5q6 -3 12 -7.5t8 -9.5q0 -1 0.5 -1.5t0.5 -1.5l15 -62l15 -61v-1.5t1 -0.5v-1.5v-1.5q-1 -8 -6 -14.5t-13 -9.5 q-1 0 -3 -0.5t-3 -0.5q-2 -1 -3.5 -1h-3.5q-6 0 -11.5 2.5t-9.5 7.5q-5 8 -11.5 17t-14.5 19q-20 24 -46.5 45t-54.5 27q-4 1 -8.5 1.5t-9.5 0.5h-239v-229h244q5 1 10.5 3t10.5 6q11 6 20.5 16t15.5 21q3 5 5 10.5t2 10.5q0 10 9 15t19 5q11 0 19.5 -5.5t8.5 -15.5v-213 q0 -10 -8.5 -15t-19.5 -6q-10 0 -19 5.5t-9 15.5q0 7 -2 14.5t-5 14.5q-8 22 -26 40.5t-39 22.5h-236v-287h197q78 1 137.5 29.5t81.5 107.5q2 8 9 11t15 3h4.5t4.5 -1q9 -2 16 -8.5t6 -14.5v-0.5v-1.5v-1.5v-0.5v-1v0v0zM587 397v201l-144 -201h144v0z" />
<glyph unicode="&#xc7;" horiz-adv-x="715" d="M439 -141q0 -40 -32.5 -61t-72.5 -28q-12 -2 -25 -3t-24 -1h-10t-10 1q-15 1 -21.5 8.5t-6.5 17.5v0.5v1.5v1.5v0.5q2 10 9.5 18t20.5 8h0.5h0.5h0.5h0.5h4.5h5.5h9t10 1q14 2 26 7.5t14 18.5v1.5v0.5q0 10 -6.5 15.5t-14.5 8.5q-1 0 -2.5 0.5t-3.5 1.5q-9 2 -14.5 10 t-5.5 18q0 2 0.5 4t0.5 4l2 4l2 4l54 73q4 5 8 8t8 5q2 0 4 0.5t4 0.5q5 0 9 -1.5t8 -4.5q5 -3 8.5 -9t3.5 -13q0 -3 -1 -6l-2 -6q-1 -1 -2 -3t-2 -3l-19 -27q23 -10 42.5 -29t19.5 -47v-1zM649 96q4 -4 6 -9t2 -10t-2.5 -10.5t-7.5 -10.5q-47 -45 -107.5 -62t-124.5 -20 q-9 -1 -17.5 -1h-17.5q-154 0 -267 105.5t-113 257.5t113 258t267 106h7.5h6.5q58 -2 114.5 -16t103.5 -49q1 -1 2 -2.5t2 -3.5q1 -1 2 -2.5t1 -2.5q2 -3 3 -6t1 -5v-97q0 -14 -8.5 -21.5t-19.5 -7.5q-10 0 -19 7.5t-9 21.5v39q-35 43 -85 67t-106 24h-8t-7 -1q-4 0 -8 -0.5 t-8 -0.5q-43 -6 -80 -29t-66 -58q-37 -45 -56 -103t-19 -119q0 -60 19 -117.5t56 -102.5q34 -40 81 -64.5t101 -24.5q10 0 20 0.5t19 0.5q52 3 101 17.5t87 50.5q5 5 10.5 7t10.5 2q6 0 11 -2t9 -6v0z" />
<glyph unicode="&#xc8;" horiz-adv-x="733" d="M694 177l-40 -156q0 -1 -0.5 -1.5t-0.5 -1.5q-2 -4 -7 -8.5t-10 -7.5q-3 -1 -5 -1.5t-4 -0.5h-595q-15 0 -22.5 9t-7.5 19q0 11 7.5 19t22.5 8h73v571h-73q-15 0 -22.5 9t-7.5 19v1.5v1.5q1 9 8.5 16.5t21.5 7.5h570q2 0 3.5 -0.5t3.5 -0.5q6 -3 12 -7.5t8 -9.5 q0 -1 0.5 -1.5t0.5 -1.5l30 -123q1 -2 1 -4v-4q0 -10 -5 -17t-13 -10q-1 0 -2.5 -0.5t-2.5 -0.5q-1 -1 -2.5 -1h-2.5h-2.5t-2.5 1q-6 1 -11 4.5t-9 10.5q-5 8 -11.5 17t-14.5 19q-19 23 -45 43.5t-53 27.5q-5 2 -10.5 2.5t-10.5 0.5h-239v-229h239q5 0 11 2t12 5q11 6 21 16 t17 21q3 6 5.5 12t2.5 11q0 17 9 25t19 8q11 0 19.5 -8.5t8.5 -25.5v-213q0 -16 -8.5 -24.5t-19.5 -9.5q-10 0 -19 8.5t-9 25.5q0 7 -4 18t-10 23q-9 17 -22 32t-27 18q-2 1 -3.5 1h-2.5h-239v-287h197q82 2 139 30.5t80 106.5q4 11 11.5 16t15.5 5h4.5t3.5 -1q8 -2 14.5 -9 t5.5 -18v-3.5t-1 -4.5v0zM398 755q3 -4 4 -7.5t1 -8.5q0 -6 -2 -11.5t-6 -10.5q-5 -7 -11.5 -11.5t-14.5 -4.5h-2.5t-2.5 1q-1 0 -2.5 0.5t-2.5 1.5l-76 38q-4 2 -8.5 4t-9.5 4l-12 6t-11 7q-11 9 -16.5 21t-5.5 25v4.5t1 4.5q1 7 4 13.5t7 12.5q8 11 20 16.5t25 4.5h4.5 t4.5 -1q7 -1 13.5 -3.5t12.5 -7.5t11.5 -11.5t11.5 -12.5v-1l1 -1q1 -2 3 -4.5t4 -4.5l55 -63v0z" />
<glyph unicode="&#xc9;" horiz-adv-x="733" d="M694 177l-40 -156q0 -1 -0.5 -1.5t-0.5 -1.5q-2 -4 -7 -8.5t-10 -7.5q-3 -1 -5 -1.5t-4 -0.5h-595q-15 0 -22.5 9t-7.5 19q0 11 7.5 19t22.5 8h73v571h-73q-15 0 -22.5 9t-7.5 19v1.5v1.5q1 9 8.5 16.5t21.5 7.5h570q2 0 3.5 -0.5t3.5 -0.5q6 -3 12 -7.5t8 -9.5 q0 -1 0.5 -1.5t0.5 -1.5l30 -123q1 -2 1 -4v-4q0 -10 -5 -17t-13 -10q-1 0 -2.5 -0.5t-2.5 -0.5q-1 -1 -2.5 -1h-2.5h-2.5t-2.5 1q-6 1 -11 4.5t-9 10.5q-5 8 -11.5 17t-14.5 19q-19 23 -45 43.5t-53 27.5q-5 2 -10.5 2.5t-10.5 0.5h-239v-229h239q5 0 11 2t12 5q11 6 21 16 t17 21q3 6 5.5 12t2.5 11q0 17 9 25t19 8q11 0 19.5 -8.5t8.5 -25.5v-213q0 -16 -8.5 -24.5t-19.5 -9.5q-10 0 -19 8.5t-9 25.5q0 7 -4 18t-10 23q-9 17 -22 32t-27 18q-2 1 -3.5 1h-2.5h-239v-287h197q82 2 139 30.5t80 106.5q4 11 11.5 16t15.5 5h4.5t3.5 -1q8 -2 14.5 -9 t5.5 -18v-3.5t-1 -4.5v0zM462 840q6 -8 9 -17t3 -18q0 -13 -5.5 -25t-16.5 -20q-5 -4 -11 -7.5t-12 -5.5q-3 -2 -6 -3t-5 -2t-3.5 -1.5t-3.5 -1.5l-76 -39q-1 -1 -2.5 -1.5t-2.5 -0.5h-2.5h-2.5q-7 0 -14 4t-12 11q-4 5 -6.5 11t-1.5 12v2.5v2.5q1 3 2 5.5t3 4.5l55 63 q2 3 4 5.5t4 5.5q5 7 10.5 13t12.5 11q8 6 16.5 9t18.5 3q13 0 24.5 -5t20.5 -16v0z" />
<glyph unicode="&#xca;" horiz-adv-x="733" d="M694 177l-40 -156q0 -1 -0.5 -1.5t-0.5 -1.5q-2 -4 -7 -8.5t-10 -7.5q-3 -1 -5 -1.5t-4 -0.5h-595q-15 0 -22.5 9t-7.5 19q0 11 7.5 19t22.5 8h73v571h-73q-15 0 -22.5 9t-7.5 19v1.5v1.5q1 9 8.5 16.5t21.5 7.5h570q2 0 3.5 -0.5t3.5 -0.5q6 -3 12 -7.5t8 -9.5 q0 -1 0.5 -1.5t0.5 -1.5l30 -123q1 -2 1 -4v-4q0 -10 -5 -17t-13 -10q-1 0 -2.5 -0.5t-2.5 -0.5q-1 -1 -2.5 -1h-2.5h-2.5t-2.5 1q-6 1 -11 4.5t-9 10.5q-5 8 -11.5 17t-14.5 19q-19 23 -45 43.5t-53 27.5q-5 2 -10.5 2.5t-10.5 0.5h-239v-229h239q5 0 11 2t12 5q11 6 21 16 t17 21q3 6 5.5 12t2.5 11q0 17 9 25t19 8q11 0 19.5 -8.5t8.5 -25.5v-213q0 -16 -8.5 -24.5t-19.5 -9.5q-10 0 -19 8.5t-9 25.5q0 7 -4 18t-10 23q-9 17 -22 32t-27 18q-2 1 -3.5 1h-2.5h-239v-287h197q82 2 139 30.5t80 106.5q4 11 11.5 16t15.5 5h4.5t3.5 -1q8 -2 14.5 -9 t5.5 -18v-3.5t-1 -4.5v0zM474 713q-4 -6 -10.5 -9.5t-13.5 -3.5q-3 0 -6 1l-6 2l-52 27l-52 27l-103 -54q-1 -1 -3 -1.5t-3 -0.5q-2 -1 -3.5 -1h-3.5q-7 0 -13 3.5t-11 9.5q-2 4 -3.5 8.5t-1.5 8.5q0 5 2.5 10.5t6.5 9.5l117 107q3 3 7 4.5t8 2.5h2.5h2.5q5 0 10 -2t8 -5 l118 -107q5 -4 7 -9.5t2 -10.5q0 -4 -1.5 -8.5t-4.5 -8.5v0z" />
<glyph unicode="&#xcb;" horiz-adv-x="733" d="M694 177l-40 -156q0 -1 -0.5 -1.5t-0.5 -1.5q-2 -4 -7 -8.5t-10 -7.5q-3 -1 -5 -1.5t-4 -0.5h-595q-15 0 -22.5 9t-7.5 19q0 11 7.5 19t22.5 8h73v571h-73q-15 0 -22.5 9t-7.5 19v1.5v1.5q1 9 8.5 16.5t21.5 7.5h570q2 0 3.5 -0.5t3.5 -0.5q6 -3 12 -7.5t8 -9.5 q0 -1 0.5 -1.5t0.5 -1.5l30 -123q1 -2 1 -4v-4q0 -10 -5 -17t-13 -10q-1 0 -2.5 -0.5t-2.5 -0.5q-1 -1 -2.5 -1h-2.5h-2.5t-2.5 1q-6 1 -11 4.5t-9 10.5q-5 8 -11.5 17t-14.5 19q-19 23 -45 43.5t-53 27.5q-5 2 -10.5 2.5t-10.5 0.5h-239v-229h239q5 0 11 2t12 5q11 6 21 16 t17 21q3 6 5.5 12t2.5 11q0 17 9 25t19 8q11 0 19.5 -8.5t8.5 -25.5v-213q0 -16 -8.5 -24.5t-19.5 -9.5q-10 0 -19 8.5t-9 25.5q0 7 -4 18t-10 23q-9 17 -22 32t-27 18q-2 1 -3.5 1h-2.5h-239v-287h197q82 2 139 30.5t80 106.5q4 11 11.5 16t15.5 5h4.5t3.5 -1q8 -2 14.5 -9 t5.5 -18v-3.5t-1 -4.5v0zM326 753q0 -21 -15 -36t-36 -15t-36 15t-15 36t15 36t36 15t36 -15t15 -36v0zM441 753q0 -21 -15 -36t-37 -15q-21 0 -36 15t-15 36t15 36t36 15q22 0 37 -15t15 -36v0z" />
<glyph unicode="&#xcc;" horiz-adv-x="382" d="M348 27v-1.5v-1.5q-1 -9 -8.5 -16.5t-22.5 -7.5h-286q-15 0 -22.5 7.5t-8.5 16.5v1.5v1.5q0 11 7.5 19.5t23.5 8.5h84v571h-84q-16 0 -23.5 9t-7.5 19q0 11 7.5 19t23.5 8h286q16 0 23.5 -8t7.5 -19q0 -10 -7.5 -19t-23.5 -9h-84v-571h84q16 0 23.5 -8.5t7.5 -19.5v0z M230 755q3 -4 4 -7.5t1 -8.5q0 -6 -2 -11.5t-6 -10.5q-5 -7 -11.5 -11.5t-14.5 -4.5h-2.5t-2.5 1q-1 0 -2.5 0.5t-2.5 1.5l-76 38q-4 2 -8.5 4t-9.5 4l-12 6t-11 7q-11 9 -16.5 21t-5.5 25v4.5t1 4.5q1 7 4 13.5t7 12.5q8 11 20 16.5t25 4.5h4.5t4.5 -1q7 -1 13.5 -3.5 t12.5 -7.5t11.5 -11.5t11.5 -12.5v-1l1 -1q1 -2 3 -4.5t4 -4.5l55 -63v0z" />
<glyph unicode="&#xcd;" horiz-adv-x="382" d="M348 27v-1.5v-1.5q-1 -9 -8.5 -16.5t-22.5 -7.5h-286q-15 0 -22.5 7.5t-8.5 16.5v1.5v1.5q0 11 7.5 19.5t23.5 8.5h84v571h-84q-16 0 -23.5 9t-7.5 19q0 11 7.5 19t23.5 8h286q16 0 23.5 -8t7.5 -19q0 -10 -7.5 -19t-23.5 -9h-84v-571h84q16 0 23.5 -8.5t7.5 -19.5v0z M315 840q6 -8 9 -17t3 -18q0 -13 -5.5 -25t-16.5 -20q-5 -4 -11 -7.5t-12 -5.5q-3 -2 -6 -3t-5 -2t-3.5 -1.5t-3.5 -1.5l-76 -39q-1 -1 -2.5 -1.5t-2.5 -0.5h-2.5h-2.5q-7 0 -14 4t-12 11q-4 5 -6.5 11t-1.5 12v2.5v2.5q1 3 2 5.5t3 4.5l55 63q2 3 4 5.5t4 5.5q5 7 10.5 13 t12.5 11q8 6 16.5 9t18.5 3q13 0 24.5 -5t20.5 -16v0z" />
<glyph unicode="&#xce;" horiz-adv-x="382" d="M348 27v-1.5v-1.5q-1 -9 -8.5 -16.5t-22.5 -7.5h-286q-15 0 -22.5 7.5t-8.5 16.5v1.5v1.5q0 11 7.5 19.5t23.5 8.5h84v571h-84q-16 0 -23.5 9t-7.5 19q0 11 7.5 19t23.5 8h286q16 0 23.5 -8t7.5 -19q0 -10 -7.5 -19t-23.5 -9h-84v-571h84q16 0 23.5 -8.5t7.5 -19.5v0z M318 710q-4 -6 -10.5 -9.5t-13.5 -3.5q-3 0 -6 1l-6 2l-52 27l-52 27l-103 -54q-1 -1 -3 -1.5t-3 -0.5q-2 -1 -3.5 -1h-3.5q-7 0 -13 3.5t-11 9.5q-2 4 -3.5 8.5t-1.5 8.5q0 5 2.5 10.5t6.5 9.5l117 107q3 3 7 4.5t8 2.5h2.5h2.5q5 0 10 -2t8 -5l118 -107q5 -4 7 -9.5 t2 -10.5q0 -4 -1.5 -8.5t-4.5 -8.5v0z" />
<glyph unicode="&#xcf;" horiz-adv-x="382" d="M348 27v-1.5v-1.5q-1 -9 -8.5 -16.5t-22.5 -7.5h-286q-15 0 -22.5 7.5t-8.5 16.5v1.5v1.5q0 11 7.5 19.5t23.5 8.5h84v571h-84q-16 0 -23.5 9t-7.5 19q0 11 7.5 19t23.5 8h286q16 0 23.5 -8t7.5 -19q0 -10 -7.5 -19t-23.5 -9h-84v-571h84q16 0 23.5 -8.5t7.5 -19.5v0z M167 756q0 -21 -15 -36t-36 -15t-36 15t-15 36t15 36t36 15t36 -15t15 -36v0zM282 756q0 -21 -15 -36t-37 -15q-21 0 -36 15t-15 36t15 36t36 15q22 0 37 -15t15 -36v0z" />
<glyph unicode="&#xd0;" horiz-adv-x="792" d="M108 294h-68q-15 0 -22.5 9t-7.5 19q0 11 7.5 19.5t22.5 8.5h68v276h-74q-15 0 -22.5 9t-7.5 19v0.5v0.5v0.5v0.5q0 10 8 17.5t22 7.5h313q159 0 273 -86.5t114 -253.5q0 -166 -114 -253.5t-273 -87.5h-313q-14 0 -21.5 7.5t-9.5 16.5v1.5v1.5q0 11 8 19.5t23 8.5h74v239 v0zM227 350h88q15 0 22.5 -8.5t7.5 -19.5q0 -10 -7.5 -19t-22.5 -9h-88v-239h118q128 0 194 86.5t66 199.5t-66 199t-194 86h-118v-276v0z" />
<glyph unicode="&#xd1;" horiz-adv-x="953" d="M925 654q0 -10 -7.5 -19t-22.5 -9h-97v-599q0 -14 -6 -23.5t-17 -12.5q-2 -1 -5 -1.5t-6 -0.5q-9 0 -18.5 5t-20.5 15l-543 561v-515h106q16 0 23.5 -8.5t7.5 -19.5v-1.5v-1.5q-1 -9 -8.5 -16.5t-22.5 -7.5h-258q-15 0 -22.5 7.5t-7.5 16.5v1.5v1.5q0 11 7 19.5t23 8.5 h96v571h-77q-15 0 -22.5 9t-7.5 19q0 11 7.5 19t22.5 8h324q15 0 22.5 -8t7.5 -19q0 -10 -7.5 -19t-22.5 -9h-81l449 -464v464h-125q-15 0 -22.5 9t-7.5 19q0 11 7.5 19t22.5 8h279q15 0 22.5 -8t7.5 -19v0zM621 804l-6 -24q-7 -30 -31 -48.5t-54 -18.5h-4.5h-4.5 q-3 0 -5.5 0.5t-4.5 1.5l-95 22q-4 1 -7 -1t-4 -5q0 -1 -0.5 -2.5t-0.5 -2.5q-1 -1 -1 -2.5v-2.5q-3 -13 -11 -18.5t-17 -5.5h-1.5t-1.5 1h-1.5h-1.5q-9 2 -15.5 9t-6.5 18v4t1 4q1 3 1.5 6.5t1.5 6.5q0 3 0.5 6t1.5 6q8 30 32 48.5t54 18.5q5 0 9.5 -0.5t8.5 -1.5l96 -22 h1.5h0.5q3 0 5 1.5t3 4.5q0 1 0.5 2.5t1.5 2.5q0 1 0.5 2.5t0.5 2.5q2 11 9 17t16 7h1.5h1.5h1.5h1.5q1 -1 1.5 -1h1.5q9 -2 15.5 -9.5t6.5 -18.5v-2v-2t-0.5 -2t-0.5 -2v0z" />
<glyph unicode="&#xd2;" horiz-adv-x="200" />
<glyph unicode="&#xd3;" horiz-adv-x="825" d="M771 346q0 -153 -115 -256t-270 -103q-154 0 -269.5 103t-115.5 256q0 152 115.5 256t269.5 104q155 0 270 -104t115 -256v0zM629 433q-31 83 -105.5 149t-167.5 66q-19 0 -37.5 -3.5t-38.5 -10.5q-82 -29 -119.5 -101.5t-37.5 -153.5v-10t1 -11q1 -25 6 -50.5t14 -48.5 q31 -83 105 -149t167 -66q19 0 38 3.5t38 10.5q81 29 119 100.5t38 150.5v3v2q0 31 -5 61t-15 58v0zM534 870q6 -8 9 -17t3 -18q0 -13 -5.5 -25t-16.5 -20q-5 -4 -11 -7.5t-12 -5.5q-3 -2 -6 -3t-5 -2t-3.5 -1.5t-3.5 -1.5l-76 -39q-1 -1 -2.5 -1.5t-2.5 -0.5h-2.5h-2.5 q-7 0 -14 4t-12 11q-4 5 -6.5 11t-1.5 12v2.5v2.5q1 3 2 5.5t3 4.5l55 63q2 3 4 5.5t4 5.5q5 7 10.5 13t12.5 11q8 6 16.5 9t18.5 3q13 0 24.5 -5t20.5 -16v0z" />
<glyph unicode="&#xd4;" horiz-adv-x="825" d="M771 346q0 -153 -115 -256t-270 -103q-154 0 -269.5 103t-115.5 256q0 152 115.5 256t269.5 104q155 0 270 -104t115 -256v0zM629 433q-31 83 -105.5 149t-167.5 66q-19 0 -37.5 -3.5t-38.5 -10.5q-82 -29 -119.5 -101.5t-37.5 -153.5v-10t1 -11q1 -25 6 -50.5t14 -48.5 q31 -83 105 -149t167 -66q19 0 38 3.5t38 10.5q81 29 119 100.5t38 150.5v3v2q0 31 -5 61t-15 58v0zM519 724q-4 -6 -10.5 -9.5t-13.5 -3.5q-3 0 -6 1l-6 2l-52 27l-52 27l-103 -54q-1 -1 -3 -1.5t-3 -0.5q-2 -1 -3.5 -1h-3.5q-7 0 -13 3.5t-11 9.5q-2 4 -3.5 8.5t-1.5 8.5 q0 5 2.5 10.5t6.5 9.5l117 107q3 3 7 4.5t8 2.5h2.5h2.5q5 0 10 -2t8 -5l118 -107q5 -4 7 -9.5t2 -10.5q0 -4 -1.5 -8.5t-4.5 -8.5v0z" />
<glyph unicode="&#xd5;" horiz-adv-x="825" d="M771 346q0 -153 -115 -256t-270 -103q-154 0 -269.5 103t-115.5 256q0 152 115.5 256t269.5 104q155 0 270 -104t115 -256v0zM629 433q-31 83 -105.5 149t-167.5 66q-19 0 -37.5 -3.5t-38.5 -10.5q-82 -29 -119.5 -101.5t-37.5 -153.5v-10t1 -11q1 -25 6 -50.5t14 -48.5 q31 -83 105 -149t167 -66q19 0 38 3.5t38 10.5q81 29 119 100.5t38 150.5v3v2q0 31 -5 61t-15 58v0zM509 828l-6 -24q-7 -30 -31 -48.5t-54 -18.5h-4.5h-4.5q-3 0 -5.5 0.5t-4.5 1.5l-95 22q-4 1 -7 -1t-4 -5q0 -1 -0.5 -2.5t-0.5 -2.5q-1 -1 -1 -2.5v-2.5q-3 -13 -11 -18.5 t-17 -5.5h-1.5t-1.5 1h-1.5h-1.5q-9 2 -15.5 9t-6.5 18v4t1 4q1 3 1.5 6.5t1.5 6.5q0 3 0.5 6t1.5 6q8 30 32 48.5t54 18.5q5 0 9.5 -0.5t8.5 -1.5l96 -22h1.5h0.5q3 0 5 1.5t3 4.5q0 1 0.5 2.5t1.5 2.5q0 1 0.5 2.5t0.5 2.5q2 11 9 17t16 7h1.5h1.5h1.5h1.5q1 -1 1.5 -1 h1.5q9 -2 15.5 -9.5t6.5 -18.5v-2v-2t-0.5 -2t-0.5 -2v0z" />
<glyph unicode="&#xd6;" horiz-adv-x="825" d="M771 346q0 -153 -115 -256t-270 -103q-154 0 -269.5 103t-115.5 256q0 152 115.5 256t269.5 104q155 0 270 -104t115 -256v0zM629 433q-31 83 -105.5 149t-167.5 66q-19 0 -37.5 -3.5t-38.5 -10.5q-82 -29 -119.5 -101.5t-37.5 -153.5v-10t1 -11q1 -25 6 -50.5t14 -48.5 q31 -83 105 -149t167 -66q19 0 38 3.5t38 10.5q81 29 119 100.5t38 150.5v3v2q0 31 -5 61t-15 58v0zM368 773q0 -21 -15 -36t-36 -15t-36 15t-15 36t15 36t36 15t36 -15t15 -36v0zM483 773q0 -21 -15 -36t-37 -15q-21 0 -36 15t-15 36t15 36t36 15q22 0 37 -15t15 -36v0z " />
<glyph unicode="&#xd7;" />
<glyph unicode="&#xd8;" horiz-adv-x="825" d="M132 76q-61 49 -96 118.5t-35 151.5q0 152 115.5 256t269.5 104q77 0 148 -27.5t123 -76.5l54 54q5 5 10.5 7.5t10.5 2.5q6 -1 11 -3t9 -6q3 -3 5 -7t3 -8q1 -1 1 -2.5v-2.5q-1 -5 -3 -10.5t-7 -10.5l-10 -9.5t-21 -21.5l-13.5 -13.5t-11.5 -10.5q36 -44 56 -99t20 -116 q0 -153 -115 -256t-270 -103q-56 0 -108.5 15t-98.5 42l-75 -75q-5 -4 -10.5 -6.5t-10.5 -2.5q-6 1 -11 3t-9 6q-3 3 -5 7t-3 8q-1 1 -1 2.5v2.5q1 5 3 10t7 10l68 67v0zM629 433q-4 11 -9 21.5t-10 20.5l-363 -363q36 -31 79 -49.5t89 -18.5q19 0 38.5 3.5t38.5 10.5 q81 29 119 100.5t38 150.5v3v2q0 31 -5 61t-15 58v0zM579 524q-40 53 -98 88.5t-124 35.5q-19 0 -38 -3.5t-39 -10.5q-82 -29 -119.5 -101.5t-37.5 -153.5v-10t1 -11q1 -25 6 -50.5t14 -48.5q11 -28 26.5 -55.5t36.5 -51.5l372 372v0z" />
<glyph unicode="&#xd9;" horiz-adv-x="792" d="M764 654q0 -10 -7 -19t-22 -9h-101l-1 -410q0 -104 -79.5 -172.5t-183.5 -68.5q-105 0 -184.5 70.5t-79.5 173.5v407h-76q-15 0 -22.5 9t-7.5 19q0 11 7.5 19t22.5 8h278q14 0 21.5 -8t7.5 -19q0 -10 -7.5 -19t-21.5 -9h-83v-407q0 -73 49.5 -125t126.5 -52 q75 0 125.5 52t50.5 125v407h-90q-14 0 -21.5 9t-7.5 19q0 11 7.5 19t21.5 8h248q15 0 22 -8t7 -19v0zM431 755q3 -4 4 -7.5t1 -8.5q0 -6 -2 -11.5t-6 -10.5q-5 -7 -11.5 -11.5t-14.5 -4.5h-2.5t-2.5 1q-1 0 -2.5 0.5t-2.5 1.5l-76 38q-4 2 -8.5 4t-9.5 4l-12 6t-11 7 q-11 9 -16.5 21t-5.5 25v4.5t1 4.5q1 7 4 13.5t7 12.5q8 11 20 16.5t25 4.5h4.5t4.5 -1q7 -1 13.5 -3.5t12.5 -7.5t11.5 -11.5t11.5 -12.5v-1l1 -1q1 -2 3 -4.5t4 -4.5l55 -63v0z" />
<glyph unicode="&#xda;" horiz-adv-x="792" d="M764 654q0 -10 -7 -19t-22 -9h-101l-1 -410q0 -104 -79.5 -172.5t-183.5 -68.5q-105 0 -184.5 70.5t-79.5 173.5v407h-76q-15 0 -22.5 9t-7.5 19q0 11 7.5 19t22.5 8h278q14 0 21.5 -8t7.5 -19q0 -10 -7.5 -19t-21.5 -9h-83v-407q0 -73 49.5 -125t126.5 -52 q75 0 125.5 52t50.5 125v407h-90q-14 0 -21.5 9t-7.5 19q0 11 7.5 19t21.5 8h248q15 0 22 -8t7 -19v0zM519 843q6 -8 9 -17t3 -18q0 -13 -5.5 -25t-16.5 -20q-5 -4 -11 -7.5t-12 -5.5q-3 -2 -6 -3t-5 -2t-3.5 -1.5t-3.5 -1.5l-76 -39q-1 -1 -2.5 -1.5t-2.5 -0.5h-2.5h-2.5 q-7 0 -14 4t-12 11q-4 5 -6.5 11t-1.5 12v2.5v2.5q1 3 2 5.5t3 4.5l55 63q2 3 4 5.5t4 5.5q5 7 10.5 13t12.5 11q8 6 16.5 9t18.5 3q13 0 24.5 -5t20.5 -16v0z" />
<glyph unicode="&#xdb;" horiz-adv-x="792" d="M764 654q0 -10 -7 -19t-22 -9h-101l-1 -410q0 -104 -79.5 -172.5t-183.5 -68.5q-105 0 -184.5 70.5t-79.5 173.5v407h-76q-15 0 -22.5 9t-7.5 19q0 11 7.5 19t22.5 8h278q14 0 21.5 -8t7.5 -19q0 -10 -7.5 -19t-21.5 -9h-83v-407q0 -73 49.5 -125t126.5 -52 q75 0 125.5 52t50.5 125v407h-90q-14 0 -21.5 9t-7.5 19q0 11 7.5 19t21.5 8h248q15 0 22 -8t7 -19v0zM519 713q-4 -6 -10.5 -9.5t-13.5 -3.5q-3 0 -6 1l-6 2l-52 27l-52 27l-103 -54q-1 -1 -3 -1.5t-3 -0.5q-2 -1 -3.5 -1h-3.5q-7 0 -13 3.5t-11 9.5q-2 4 -3.5 8.5 t-1.5 8.5q0 5 2.5 10.5t6.5 9.5l117 107q3 3 7 4.5t8 2.5h2.5h2.5q5 0 10 -2t8 -5l118 -107q5 -4 7 -9.5t2 -10.5q0 -4 -1.5 -8.5t-4.5 -8.5v0z" />
<glyph unicode="&#xdc;" horiz-adv-x="792" d="M764 654q0 -10 -7 -19t-22 -9h-101l-1 -410q0 -104 -79.5 -172.5t-183.5 -68.5q-105 0 -184.5 70.5t-79.5 173.5v407h-76q-15 0 -22.5 9t-7.5 19q0 11 7.5 19t22.5 8h278q14 0 21.5 -8t7.5 -19q0 -10 -7.5 -19t-21.5 -9h-83v-407q0 -73 49.5 -125t126.5 -52 q75 0 125.5 52t50.5 125v407h-90q-14 0 -21.5 9t-7.5 19q0 11 7.5 19t21.5 8h248q15 0 22 -8t7 -19v0zM392 751q0 -21 -15 -36t-36 -15t-36 15t-15 36t15 36t36 15t36 -15t15 -36v0zM507 751q0 -21 -15 -36t-37 -15q-21 0 -36 15t-15 36t15 36t36 15q22 0 37 -15t15 -36v0z " />
<glyph unicode="&#xdd;" horiz-adv-x="200" />
<glyph unicode="&#xde;" horiz-adv-x="667" d="M632 340q0 -106 -77.5 -160t-178.5 -54h-152v-71h72q15 0 22.5 -8.5t7.5 -19.5v-1.5v-1.5q-1 -9 -8.5 -16.5t-21.5 -7.5h-257q-14 0 -21.5 7.5t-8.5 16.5v1.5v1.5q0 11 7.5 19.5t22.5 8.5h66v571h-66q-15 0 -22.5 9t-7.5 19q0 11 7.5 19t22.5 8h257q15 0 22.5 -8t7.5 -19 q0 -10 -7.5 -19t-22.5 -9h-72v-71h152q101 0 178.5 -54t77.5 -161v0zM506 340q0 68 -54.5 112t-120.5 48h-5.5h-5.5h-1v0h-95v-320h97q79 0 132 39.5t53 120.5v0z" />
<glyph unicode="&#xdf;" horiz-adv-x="613" d="M585 109q0 -28 -14 -52t-38 -42q-22 -15 -50 -23.5t-57 -10.5h-5h-6q-22 0 -42.5 3.5t-39.5 11.5q-4 -3 -9 -5t-10 -2h-1.5h-0.5q-1 1 -1.5 1h-1.5q-6 1 -11.5 5.5t-9.5 12.5l-25 66q-1 4 -2 7t-1 6q0 9 5.5 15.5t12.5 10.5q1 0 2.5 0.5t2.5 0.5q1 1 2.5 1h2.5 q8 0 15.5 -5t11.5 -15q2 -4 3 -7.5t3 -6.5q3 -8 7 -12.5t11 -9.5q4 -2 9 -4t11 -5q9 -3 19 -5.5t20 -2.5q4 -1 7.5 -1h6.5q17 0 32 4t27 13q7 6 12 12.5t8 13.5q0 2 0.5 4.5t0.5 4.5q0 3 -0.5 6.5t-2.5 7.5q-5 14 -18.5 27.5t-29.5 25.5q-10 8 -20.5 14.5t-20.5 13.5 q-21 14 -40.5 29t-36.5 37q-15 19 -25 41t-10 44q0 14 5 27t15 26q5 6 11.5 11.5t12.5 11.5q6 5 12.5 10.5t11.5 11.5q7 10 11 22.5t5 25.5q1 9 1.5 18.5t0.5 17.5q0 7 -1 15l-2 16q-7 29 -26 53.5t-51 24.5q-31 0 -50 -24.5t-25 -53.5q-2 -8 -3 -16t-1 -15v-246.5v-247.5 q0 -10 -8.5 -18.5t-19.5 -8.5l-129 -1q-15 1 -22.5 9.5t-7.5 18.5q0 11 7.5 20t22.5 9h63v266h-55q-15 0 -22.5 9t-7.5 19q0 11 7.5 19.5t22.5 8.5h55v119q0 80 62.5 138t141.5 58q64 0 102.5 -44.5t38.5 -105.5v-9t-1 -10q-4 -34 -18.5 -60t-35.5 -51q-3 -3 -5.5 -6 t-5.5 -6q-2 -2 -5 -4.5t-6 -5.5q-6 -6 -11.5 -12.5t-5.5 -13.5v-3.5t1 -3.5q4 -9 13.5 -19t22.5 -21q13 -10 27 -21l28 -22q14 -12 28 -24.5t27 -24.5q19 -19 34 -38.5t23 -39.5q5 -10 7 -19.5t2 -19.5v0z" />
<glyph unicode="&#xe0;" horiz-adv-x="471" d="M427 86l-2 -4t-2 -5q-6 -12 -12 -24.5t-15 -23.5q-13 -16 -30.5 -25t-38.5 -9q-25 0 -45.5 10.5t-31.5 32.5q-25 -19 -56.5 -30.5t-63.5 -13.5h-6h-6h-7.5t-7.5 1q-38 3 -69.5 25t-31.5 63q0 53 38 83t86 47q4 2 8.5 3.5t9.5 2.5q26 9 51.5 15t45.5 11v65q0 17 -6.5 28.5 t-23.5 14.5q-3 1 -6 1h-6q-4 0 -8 -0.5t-8 -0.5q-26 -5 -50.5 -22.5t-39.5 -37.5q-3 -4 -6.5 -7t-6.5 -5t-6.5 -3t-6.5 -1q-4 0 -7 1.5t-6 2.5q-6 4 -10.5 10.5t-4.5 14.5l2 8t3 8q23 43 62 70.5t87 31.5h4.5t5.5 1h4.5h4.5q50 0 87.5 -22.5t37.5 -79.5v-243q0 -4 2 -6.5 t6 -4.5h1.5h1.5q5 0 8.5 3t7.5 8l4.5 9t5.5 10q2 4 5 9t6 9q4 5 8.5 8t10.5 3h3t3 -1q1 0 2.5 -0.5t2.5 -1.5q7 -3 11.5 -9.5t4.5 -15.5q0 -3 -1 -6.5t-3 -7.5v0zM241 109v77q-10 -3 -21.5 -6t-23.5 -7q-36 -12 -66 -30.5t-30 -48.5v-1.5v-2.5q2 -17 16.5 -25.5t30.5 -8.5 h1.5h1.5h0.5h1.5q5 0 10 1.5t10 2.5q21 7 39.5 20t29.5 29v0zM266 509q3 -4 4 -7.5t1 -8.5q0 -6 -2 -11.5t-6 -10.5q-5 -7 -11.5 -11.5t-14.5 -4.5h-2.5t-2.5 1q-1 0 -2.5 0.5t-2.5 1.5l-76 38q-4 2 -8.5 4t-9.5 4l-12 6t-11 7q-11 9 -16.5 21t-5.5 25v4.5t1 4.5q1 7 4 13.5 t7 12.5q8 11 20 16.5t25 4.5h4.5t4.5 -1q7 -1 13.5 -3.5t12.5 -7.5t11.5 -11.5t11.5 -12.5v-1l1 -1q1 -2 3 -4.5t4 -4.5l55 -63v0z" />
<glyph unicode="&#xe1;" horiz-adv-x="471" d="M427 86l-2 -4t-2 -5q-6 -12 -12 -24.5t-15 -23.5q-13 -16 -30.5 -25t-38.5 -9q-25 0 -45.5 10.5t-31.5 32.5q-25 -19 -56.5 -30.5t-63.5 -13.5h-6h-6h-7.5t-7.5 1q-38 3 -69.5 25t-31.5 63q0 53 38 83t86 47q4 2 8.5 3.5t9.5 2.5q26 9 51.5 15t45.5 11v65q0 17 -6.5 28.5 t-23.5 14.5q-3 1 -6 1h-6q-4 0 -8 -0.5t-8 -0.5q-26 -5 -50.5 -22.5t-39.5 -37.5q-3 -4 -6.5 -7t-6.5 -5t-6.5 -3t-6.5 -1q-4 0 -7 1.5t-6 2.5q-6 4 -10.5 10.5t-4.5 14.5l2 8t3 8q23 43 62 70.5t87 31.5h4.5t5.5 1h4.5h4.5q50 0 87.5 -22.5t37.5 -79.5v-243q0 -4 2 -6.5 t6 -4.5h1.5h1.5q5 0 8.5 3t7.5 8l4.5 9t5.5 10q2 4 5 9t6 9q4 5 8.5 8t10.5 3h3t3 -1q1 0 2.5 -0.5t2.5 -1.5q7 -3 11.5 -9.5t4.5 -15.5q0 -3 -1 -6.5t-3 -7.5v0zM241 109v77q-10 -3 -21.5 -6t-23.5 -7q-36 -12 -66 -30.5t-30 -48.5v-1.5v-2.5q2 -17 16.5 -25.5t30.5 -8.5 h1.5h1.5h0.5h1.5q5 0 10 1.5t10 2.5q21 7 39.5 20t29.5 29v0zM384 594q6 -8 9 -17t3 -18q0 -13 -5.5 -25t-16.5 -20q-5 -4 -11 -7.5t-12 -5.5q-3 -2 -6 -3t-5 -2t-3.5 -1.5t-3.5 -1.5l-76 -39q-1 -1 -2.5 -1.5t-2.5 -0.5h-2.5h-2.5q-7 0 -14 4t-12 11q-4 5 -6.5 11t-1.5 12 v2.5v2.5q1 3 2 5.5t3 4.5l55 63q2 3 4 5.5t4 5.5q5 7 10.5 13t12.5 11q8 6 16.5 9t18.5 3q13 0 24.5 -5t20.5 -16v0z" />
<glyph unicode="&#xe2;" horiz-adv-x="471" d="M427 86l-2 -4t-2 -5q-6 -12 -12 -24.5t-15 -23.5q-13 -16 -30.5 -25t-38.5 -9q-25 0 -45.5 10.5t-31.5 32.5q-25 -19 -56.5 -30.5t-63.5 -13.5h-6h-6h-7.5t-7.5 1q-38 3 -69.5 25t-31.5 63q0 53 38 83t86 47q4 2 8.5 3.5t9.5 2.5q26 9 51.5 15t45.5 11v65q0 17 -6.5 28.5 t-23.5 14.5q-3 1 -6 1h-6q-4 0 -8 -0.5t-8 -0.5q-26 -5 -50.5 -22.5t-39.5 -37.5q-3 -4 -6.5 -7t-6.5 -5t-6.5 -3t-6.5 -1q-4 0 -7 1.5t-6 2.5q-6 4 -10.5 10.5t-4.5 14.5l2 8t3 8q23 43 62 70.5t87 31.5h4.5t5.5 1h4.5h4.5q50 0 87.5 -22.5t37.5 -79.5v-243q0 -4 2 -6.5 t6 -4.5h1.5h1.5q5 0 8.5 3t7.5 8l4.5 9t5.5 10q2 4 5 9t6 9q4 5 8.5 8t10.5 3h3t3 -1q1 0 2.5 -0.5t2.5 -1.5q7 -3 11.5 -9.5t4.5 -15.5q0 -3 -1 -6.5t-3 -7.5v0zM241 109v77q-10 -3 -21.5 -6t-23.5 -7q-36 -12 -66 -30.5t-30 -48.5v-1.5v-2.5q2 -17 16.5 -25.5t30.5 -8.5 h1.5h1.5h0.5h1.5q5 0 10 1.5t10 2.5q21 7 39.5 20t29.5 29v0zM369 452q-4 -6 -10.5 -9.5t-13.5 -3.5q-3 0 -6 1l-6 2l-52 27l-52 27l-103 -54q-1 -1 -3 -1.5t-3 -0.5q-2 -1 -3.5 -1h-3.5q-7 0 -13 3.5t-11 9.5q-2 4 -3.5 8.5t-1.5 8.5q0 5 2.5 10.5t6.5 9.5l117 107 q3 3 7 4.5t8 2.5h2.5h2.5q5 0 10 -2t8 -5l118 -107q5 -4 7 -9.5t2 -10.5q0 -4 -1.5 -8.5t-4.5 -8.5v0z" />
<glyph unicode="&#xe3;" horiz-adv-x="471" d="M427 86l-2 -4t-2 -5q-6 -12 -12 -24.5t-15 -23.5q-13 -16 -30.5 -25t-38.5 -9q-25 0 -45.5 10.5t-31.5 32.5q-25 -19 -56.5 -30.5t-63.5 -13.5h-6h-6h-7.5t-7.5 1q-38 3 -69.5 25t-31.5 63q0 53 38 83t86 47q4 2 8.5 3.5t9.5 2.5q26 9 51.5 15t45.5 11v65q0 17 -6.5 28.5 t-23.5 14.5q-3 1 -6 1h-6q-4 0 -8 -0.5t-8 -0.5q-26 -5 -50.5 -22.5t-39.5 -37.5q-3 -4 -6.5 -7t-6.5 -5t-6.5 -3t-6.5 -1q-4 0 -7 1.5t-6 2.5q-6 4 -10.5 10.5t-4.5 14.5l2 8t3 8q23 43 62 70.5t87 31.5h4.5t5.5 1h4.5h4.5q50 0 87.5 -22.5t37.5 -79.5v-243q0 -4 2 -6.5 t6 -4.5h1.5h1.5q5 0 8.5 3t7.5 8l4.5 9t5.5 10q2 4 5 9t6 9q4 5 8.5 8t10.5 3h3t3 -1q1 0 2.5 -0.5t2.5 -1.5q7 -3 11.5 -9.5t4.5 -15.5q0 -3 -1 -6.5t-3 -7.5v0zM241 109v77q-10 -3 -21.5 -6t-23.5 -7q-36 -12 -66 -30.5t-30 -48.5v-1.5v-2.5q2 -17 16.5 -25.5t30.5 -8.5 h1.5h1.5h0.5h1.5q5 0 10 1.5t10 2.5q21 7 39.5 20t29.5 29v0zM361 548l-6 -24q-7 -30 -31 -48.5t-54 -18.5h-4.5h-4.5q-3 0 -5.5 0.5t-4.5 1.5l-95 22q-4 1 -7 -1t-4 -5q0 -1 -0.5 -2.5t-0.5 -2.5q-1 -1 -1 -2.5v-2.5q-3 -13 -11 -18.5t-17 -5.5h-1.5t-1.5 1h-1.5h-1.5 q-9 2 -15.5 9t-6.5 18v4t1 4q1 3 1.5 6.5t1.5 6.5q0 3 0.5 6t1.5 6q8 30 32 48.5t54 18.5q5 0 9.5 -0.5t8.5 -1.5l96 -22h1.5h0.5q3 0 5 1.5t3 4.5q0 1 0.5 2.5t1.5 2.5q0 1 0.5 2.5t0.5 2.5q2 11 9 17t16 7h1.5h1.5h1.5h1.5q1 -1 1.5 -1h1.5q9 -2 15.5 -9.5t6.5 -18.5v-2 v-2t-0.5 -2t-0.5 -2v0z" />
<glyph unicode="&#xe4;" horiz-adv-x="471" d="M427 86l-2 -4t-2 -5q-6 -12 -12 -24.5t-15 -23.5q-13 -16 -30.5 -25t-38.5 -9q-25 0 -45.5 10.5t-31.5 32.5q-25 -19 -56.5 -30.5t-63.5 -13.5h-6h-6h-7.5t-7.5 1q-38 3 -69.5 25t-31.5 63q0 53 38 83t86 47q4 2 8.5 3.5t9.5 2.5q26 9 51.5 15t45.5 11v65q0 17 -6.5 28.5 t-23.5 14.5q-3 1 -6 1h-6q-4 0 -8 -0.5t-8 -0.5q-26 -5 -50.5 -22.5t-39.5 -37.5q-3 -4 -6.5 -7t-6.5 -5t-6.5 -3t-6.5 -1q-4 0 -7 1.5t-6 2.5q-6 4 -10.5 10.5t-4.5 14.5l2 8t3 8q23 43 62 70.5t87 31.5h4.5t5.5 1h4.5h4.5q50 0 87.5 -22.5t37.5 -79.5v-243q0 -4 2 -6.5 t6 -4.5h1.5h1.5q5 0 8.5 3t7.5 8l4.5 9t5.5 10q2 4 5 9t6 9q4 5 8.5 8t10.5 3h3t3 -1q1 0 2.5 -0.5t2.5 -1.5q7 -3 11.5 -9.5t4.5 -15.5q0 -3 -1 -6.5t-3 -7.5v0zM241 109v77q-10 -3 -21.5 -6t-23.5 -7q-36 -12 -66 -30.5t-30 -48.5v-1.5v-2.5q2 -17 16.5 -25.5t30.5 -8.5 h1.5h1.5h0.5h1.5q5 0 10 1.5t10 2.5q21 7 39.5 20t29.5 29v0zM215 504q0 -21 -15 -36t-36 -15t-36 15t-15 36t15 36t36 15t36 -15t15 -36v0zM330 504q0 -21 -15 -36t-37 -15q-21 0 -36 15t-15 36t15 36t36 15q22 0 37 -15t15 -36v0z" />
<glyph unicode="&#xe5;" horiz-adv-x="471" d="M427 86l-2 -4t-2 -5q-6 -12 -12 -24.5t-15 -23.5q-13 -16 -30.5 -25t-38.5 -9q-25 0 -45.5 10.5t-31.5 32.5q-25 -19 -56.5 -30.5t-63.5 -13.5h-6h-6h-7.5t-7.5 1q-38 3 -69.5 25t-31.5 63q0 53 38 83t86 47q4 2 8.5 3.5t9.5 2.5q26 9 51.5 15t45.5 11v65q0 17 -6.5 28.5 t-23.5 14.5q-3 1 -6 1h-6q-4 0 -8 -0.5t-8 -0.5q-26 -5 -50.5 -22.5t-39.5 -37.5q-3 -4 -6.5 -7t-6.5 -5t-6.5 -3t-6.5 -1q-4 0 -7 1.5t-6 2.5q-6 4 -10.5 10.5t-4.5 14.5l2 8t3 8q23 43 62 70.5t87 31.5h4.5t5.5 1h4.5h4.5q50 0 87.5 -22.5t37.5 -79.5v-243q0 -4 2 -6.5 t6 -4.5h1.5h1.5q5 0 8.5 3t7.5 8l4.5 9t5.5 10q2 4 5 9t6 9q4 5 8.5 8t10.5 3h3t3 -1q1 0 2.5 -0.5t2.5 -1.5q7 -3 11.5 -9.5t4.5 -15.5q0 -3 -1 -6.5t-3 -7.5v0zM241 109v77q-10 -3 -21.5 -6t-23.5 -7q-36 -12 -66 -30.5t-30 -48.5v-1.5v-2.5q2 -17 16.5 -25.5t30.5 -8.5 h1.5h1.5h0.5h1.5q5 0 10 1.5t10 2.5q21 7 39.5 20t29.5 29v0zM315 534q0 -34 -24.5 -59t-59.5 -25q-34 0 -59 25t-25 59q0 35 25 59.5t59 24.5q35 0 59.5 -24.5t24.5 -59.5v0zM268 534q0 16 -10.5 26.5t-26.5 10.5q-15 0 -26 -11t-11 -26t11 -26t26 -11q16 0 26.5 11 t10.5 26v0z" />
<glyph unicode="&#xe6;" horiz-adv-x="729" d="M690 81q-31 -48 -82 -75t-109 -27q-52 0 -100 23t-80 65q-5 -8 -12 -16t-15 -15q-24 -21 -55 -34.5t-64 -17.5q-6 0 -12 -0.5t-12 -0.5q-5 0 -10 0.5t-10 0.5q-32 4 -59.5 20.5t-34.5 50.5v-1q0 3 -0.5 6t-0.5 6q-1 2 -1 5v6q0 40 23.5 64t55.5 41q29 15 58.5 24t60.5 17 q10 2 20.5 4.5t20.5 5.5v65q0 24 -12 34t-30 10q-4 0 -9.5 -0.5t-10.5 -1.5q-2 -1 -4.5 -1.5t-5.5 -1.5q-23 -7 -43.5 -22.5t-34.5 -35.5q-3 -4 -8 -6.5t-10 -2.5q-4 0 -8.5 1.5t-8.5 3.5q-7 4 -11.5 10.5t-4.5 13.5q0 1 0.5 2t0.5 2t0.5 2t0.5 2q19 46 60 73.5t90 31.5 q6 1 11.5 1h10.5q41 0 68.5 -12.5t41.5 -35.5q29 24 66 37.5t78 13.5q46 0 88 -20.5t69 -56.5q2 -4 3.5 -8t1.5 -9q0 -7 -3.5 -14t-10.5 -11l-258 -140l-1.5 -1.5t-2.5 -0.5v-1v0q14 -39 47 -70t73 -39q3 -1 6 -1.5t6 -0.5h5h6q36 0 65.5 19.5t48.5 49.5q5 8 11.5 11.5 t13.5 3.5h2.5t2.5 -1q3 0 5.5 -1t4.5 -3q6 -4 10 -10t3 -14q0 -4 -1 -8t-4 -9v0zM272 97v78q-10 -3 -21.5 -6t-22.5 -7l-26 -10t-25 -11q-20 -10 -33 -24.5t-13 -33.5v-1.5v-0.5v-1.5v-1.5v-0.5v-1.5v-0.5t1 -0.5v-1.5v-0.5q3 -14 14.5 -20.5t24.5 -8.5h2.5h3.5h3.5h2.5 q5 1 9.5 2t9.5 2q15 5 28.5 12.5t24.5 17.5q3 2 5 4.5t4 5.5q2 2 4 4.5t4 4.5v0zM547 307q-6 5 -12 9.5t-12 7.5q-7 4 -13 6.5t-12 3.5q-6 2 -12 2.5t-13 0.5h-7.5t-7.5 -1q-8 -1 -15.5 -3t-14.5 -5q-28 -11 -43 -38.5t-15 -63.5v-4t1 -3v-4v-4l176 96v0z" />
<glyph unicode="&#xe7;" horiz-adv-x="404" d="M279 -125q0 -40 -32.5 -61t-72.5 -28q-12 -2 -25 -3t-24 -1h-10t-10 1q-15 1 -21.5 8.5t-6.5 17.5v0.5v1.5v1.5v0.5q2 10 9.5 18t20.5 8h0.5h0.5h0.5h0.5h4.5h5.5h9t10 1q14 2 26 7.5t14 18.5v1.5v0.5q0 10 -6.5 15.5t-14.5 8.5q-1 0 -2.5 0.5t-3.5 1.5q-9 2 -14.5 10 t-5.5 18q0 2 0.5 4t0.5 4l2 4l2 4l54 73q4 5 8 8t8 5q2 0 4 0.5t4 0.5q5 0 9 -1.5t8 -4.5q5 -4 8.5 -9.5t3.5 -12.5q0 -3 -1 -6l-2 -6q-1 -1 -2 -3t-2 -3l-19 -27q23 -10 42.5 -29t19.5 -47v-1zM364 355l-43 -82q-5 -9 -12 -12.5t-15 -3.5q-3 0 -6 1l-6 2q-6 4 -10.5 10.5 t-4.5 14.5q0 4 1 7.5t3 7.5l1 2q-1 2 -2.5 4.5t-2.5 5.5q-12 22 -30.5 40t-44.5 19h-1q-48 -1 -68 -37.5t-23 -79.5v-9.5v-8.5q0 -13 1 -25.5t3 -23.5q6 -31 26.5 -59.5t48.5 -42.5q11 -4 22 -6.5t22 -2.5q24 0 46.5 9.5t38.5 23.5q5 5 10.5 7t9.5 2q5 0 10 -2.5t9 -6.5 t5.5 -9t1.5 -11q0 -3 -0.5 -5.5t-1.5 -5.5t-3 -5.5t-4 -5.5q-27 -31 -66.5 -54t-86.5 -23q-83 0 -134.5 63.5t-56.5 140.5v7.5v6.5v6v6q4 75 52.5 138.5t127.5 68.5q4 1 7.5 1h7.5h4.5h4.5q30 -2 58.5 -14.5t50.5 -32.5h1q4 7 9 11t11 5q1 1 2.5 1h2.5q4 0 7 -1t6 -3 q7 -4 11 -10.5t4 -14.5q0 -3 -1 -6.5t-3 -7.5v0z" />
<glyph unicode="&#xe8;" horiz-adv-x="463" d="M416 92q-31 -48 -82 -75t-108 -27q-91 0 -158 63t-67 155q0 45 17.5 85t48.5 70q32 31 73 47.5t84 16.5q23 0 45.5 -4.5t43.5 -15.5q21 -10 38.5 -25.5t30.5 -32.5q3 -4 4 -7.5t1 -8.5q0 -7 -3.5 -14t-10.5 -11l-261 -142q11 -31 27 -54t45 -40q17 -9 34.5 -13.5 t33.5 -4.5q35 0 65 18t52 51q4 7 9 10t11 4q1 1 2.5 1h2.5h2.5t2.5 -1q3 0 5.5 -1t4.5 -3q6 -4 9.5 -10t3.5 -13q0 -4 -1.5 -8.5t-4.5 -9.5v0zM273 318q-16 15 -35.5 22.5t-39.5 7.5q-10 0 -21 -2t-22 -7q-28 -12 -43.5 -40t-14.5 -65v-6v-6l176 96v0zM269 515q3 -4 4 -7.5 t1 -8.5q0 -6 -2 -11.5t-6 -10.5q-5 -7 -11.5 -11.5t-14.5 -4.5h-2.5t-2.5 1q-1 0 -2.5 0.5t-2.5 1.5l-76 38q-4 2 -8.5 4t-9.5 4l-12 6t-11 7q-11 9 -16.5 21t-5.5 25v4.5t1 4.5q1 7 4 13.5t7 12.5q8 11 20 16.5t25 4.5h4.5t4.5 -1q7 -1 13.5 -3.5t12.5 -7.5t11.5 -11.5 t11.5 -12.5v-1l1 -1q1 -2 3 -4.5t4 -4.5l55 -63v0z" />
<glyph unicode="&#xe9;" horiz-adv-x="463" d="M416 92q-31 -48 -82 -75t-108 -27q-91 0 -158 63t-67 155q0 45 17.5 85t48.5 70q32 31 73 47.5t84 16.5q23 0 45.5 -4.5t43.5 -15.5q21 -10 38.5 -25.5t30.5 -32.5q3 -4 4 -7.5t1 -8.5q0 -7 -3.5 -14t-10.5 -11l-261 -142q11 -31 27 -54t45 -40q17 -9 34.5 -13.5 t33.5 -4.5q35 0 65 18t52 51q4 7 9 10t11 4q1 1 2.5 1h2.5h2.5t2.5 -1q3 0 5.5 -1t4.5 -3q6 -4 9.5 -10t3.5 -13q0 -4 -1.5 -8.5t-4.5 -9.5v0zM273 318q-16 15 -35.5 22.5t-39.5 7.5q-10 0 -21 -2t-22 -7q-28 -12 -43.5 -40t-14.5 -65v-6v-6l176 96v0zM375 597q6 -8 9 -17 t3 -18q0 -13 -5.5 -25t-16.5 -20q-5 -4 -11 -7.5t-12 -5.5q-3 -2 -6 -3t-5 -2t-3.5 -1.5t-3.5 -1.5l-76 -39q-1 -1 -2.5 -1.5t-2.5 -0.5h-2.5h-2.5q-7 0 -14 4t-12 11q-4 5 -6.5 11t-1.5 12v2.5v2.5q1 3 2 5.5t3 4.5l55 63q2 3 4 5.5t4 5.5q5 7 10.5 13t12.5 11q8 6 16.5 9 t18.5 3q13 0 24.5 -5t20.5 -16v0z" />
<glyph unicode="&#xea;" horiz-adv-x="463" d="M416 92q-31 -48 -82 -75t-108 -27q-91 0 -158 63t-67 155q0 45 17.5 85t48.5 70q32 31 73 47.5t84 16.5q23 0 45.5 -4.5t43.5 -15.5q21 -10 38.5 -25.5t30.5 -32.5q3 -4 4 -7.5t1 -8.5q0 -7 -3.5 -14t-10.5 -11l-261 -142q11 -31 27 -54t45 -40q17 -9 34.5 -13.5 t33.5 -4.5q35 0 65 18t52 51q4 7 9 10t11 4q1 1 2.5 1h2.5h2.5t2.5 -1q3 0 5.5 -1t4.5 -3q6 -4 9.5 -10t3.5 -13q0 -4 -1.5 -8.5t-4.5 -9.5v0zM273 318q-16 15 -35.5 22.5t-39.5 7.5q-10 0 -21 -2t-22 -7q-28 -12 -43.5 -40t-14.5 -65v-6v-6l176 96v0zM378 446 q-4 -6 -10.5 -9.5t-13.5 -3.5q-3 0 -6 1l-6 2l-52 27l-52 27l-103 -54q-1 -1 -3 -1.5t-3 -0.5q-2 -1 -3.5 -1h-3.5q-7 0 -13 3.5t-11 9.5q-2 4 -3.5 8.5t-1.5 8.5q0 5 2.5 10.5t6.5 9.5l117 107q3 3 7 4.5t8 2.5h2.5h2.5q5 0 10 -2t8 -5l118 -107q5 -4 7 -9.5t2 -10.5 q0 -4 -1.5 -8.5t-4.5 -8.5v0z" />
<glyph unicode="&#xeb;" horiz-adv-x="463" d="M416 92q-31 -48 -82 -75t-108 -27q-91 0 -158 63t-67 155q0 45 17.5 85t48.5 70q32 31 73 47.5t84 16.5q23 0 45.5 -4.5t43.5 -15.5q21 -10 38.5 -25.5t30.5 -32.5q3 -4 4 -7.5t1 -8.5q0 -7 -3.5 -14t-10.5 -11l-261 -142q11 -31 27 -54t45 -40q17 -9 34.5 -13.5 t33.5 -4.5q35 0 65 18t52 51q4 7 9 10t11 4q1 1 2.5 1h2.5h2.5t2.5 -1q3 0 5.5 -1t4.5 -3q6 -4 9.5 -10t3.5 -13q0 -4 -1.5 -8.5t-4.5 -9.5v0zM273 318q-16 15 -35.5 22.5t-39.5 7.5q-10 0 -21 -2t-22 -7q-28 -12 -43.5 -40t-14.5 -65v-6v-6l176 96v0zM230 501 q0 -21 -15 -36t-36 -15t-36 15t-15 36t15 36t36 15t36 -15t15 -36v0zM345 501q0 -21 -15 -36t-37 -15q-21 0 -36 15t-15 36t15 36t36 15q22 0 37 -15t15 -36v0z" />
<glyph unicode="&#xec;" horiz-adv-x="272" d="M259 28q0 -10 -7.5 -19t-22.5 -9h-186q-16 0 -23.5 9t-7.5 19q0 11 7.5 19.5t23.5 8.5h42v268l-22 -11q-4 -2 -7.5 -3t-7.5 -1q-8 0 -14.5 4.5t-9.5 11.5q-1 3 -2.5 6t-0.5 7v3.5t1 3.5q1 5 5 10t11 9l151 75q2 2 5 2.5t6 0.5q8 0 14.5 -4t10.5 -11q1 -1 1.5 -3t0.5 -3 q1 -2 1 -3.5v-3.5q0 -7 -3.5 -14t-9.5 -11q-16 -9 -26 -25t-10 -35v-273h50q15 0 22.5 -8.5t7.5 -19.5v0zM164 506q3 -4 4 -7.5t1 -8.5q0 -6 -2 -11.5t-6 -10.5q-5 -7 -11.5 -11.5t-14.5 -4.5h-2.5t-2.5 1q-1 0 -2.5 0.5t-2.5 1.5l-76 38q-4 2 -8.5 4t-9.5 4l-12 6t-11 7 q-10 9 -15.5 21t-5.5 25v4.5t1 4.5q1 7 3.5 13.5t7.5 12.5q7 11 19 16.5t25 4.5h4.5t4.5 -1q7 -1 13.5 -3.5t12.5 -7.5t11.5 -11.5t11.5 -12.5v-1l1 -1q1 -2 3 -4.5t4 -4.5l55 -63v0z" />
<glyph unicode="&#xed;" horiz-adv-x="272" d="M259 28q0 -10 -7.5 -19t-22.5 -9h-186q-16 0 -23.5 9t-7.5 19q0 11 7.5 19.5t23.5 8.5h42v268l-22 -11q-4 -2 -7.5 -3t-7.5 -1q-8 0 -14.5 4.5t-9.5 11.5q-1 3 -2.5 6t-0.5 7v3.5t1 3.5q1 5 5 10t11 9l151 75q2 2 5 2.5t6 0.5q8 0 14.5 -4t10.5 -11q1 -1 1.5 -3t0.5 -3 q1 -2 1 -3.5v-3.5q0 -7 -3.5 -14t-9.5 -11q-16 -9 -26 -25t-10 -35v-273h50q15 0 22.5 -8.5t7.5 -19.5v0zM270 597q6 -8 9 -17t3 -18q0 -13 -5.5 -25t-16.5 -20q-5 -4 -11 -7.5t-12 -5.5q-3 -2 -6 -3t-5 -2t-3.5 -1.5t-3.5 -1.5l-76 -39q-1 -1 -2.5 -1.5t-2.5 -0.5h-2.5 h-2.5q-7 0 -14 4t-12 11q-4 5 -6.5 11t-1.5 12v2.5v2.5q1 3 2 5.5t3 4.5l55 63q2 3 4 5.5t4 5.5q5 7 10.5 13t12.5 11q8 6 16.5 9t18.5 3q13 0 24.5 -5t20.5 -16v0z" />
<glyph unicode="&#xee;" horiz-adv-x="272" d="M259 28q0 -10 -7.5 -19t-22.5 -9h-186q-16 0 -23.5 9t-7.5 19q0 11 7.5 19.5t23.5 8.5h42v268l-22 -11q-4 -2 -7.5 -3t-7.5 -1q-8 0 -14.5 4.5t-9.5 11.5q-1 3 -2.5 6t-0.5 7v3.5t1 3.5q1 5 5 10t11 9l151 75q2 2 5 2.5t6 0.5q8 0 14.5 -4t10.5 -11q1 -1 1.5 -3t0.5 -3 q1 -2 1 -3.5v-3.5q0 -7 -3.5 -14t-9.5 -11q-16 -9 -26 -25t-10 -35v-273h50q15 0 22.5 -8.5t7.5 -19.5v0zM279 464q-4 -6 -10.5 -9.5t-13.5 -3.5q-3 0 -6 1l-6 2l-52 27l-52 27l-103 -54q-1 -1 -3 -1.5t-3 -0.5q-2 -1 -3.5 -1h-3.5q-7 0 -13 3.5t-10 9.5q-2 4 -3.5 8.5 t-1.5 8.5q0 5 2 10.5t6 9.5l117 107q3 3 7 4.5t8 2.5h2.5h2.5q5 0 10 -2t8 -5l118 -107q5 -4 7 -9.5t2 -10.5q0 -4 -1.5 -8.5t-4.5 -8.5v0z" />
<glyph unicode="&#xef;" horiz-adv-x="272" d="M259 28q0 -10 -7.5 -19t-22.5 -9h-186q-16 0 -23.5 9t-7.5 19q0 11 7.5 19.5t23.5 8.5h42v268l-22 -11q-4 -2 -7.5 -3t-7.5 -1q-8 0 -14.5 4.5t-9.5 11.5q-1 3 -2.5 6t-0.5 7v3.5t1 3.5q1 5 5 10t11 9l151 75q2 2 5 2.5t6 0.5q8 0 14.5 -4t10.5 -11q1 -1 1.5 -3t0.5 -3 q1 -2 1 -3.5v-3.5q0 -7 -3.5 -14t-9.5 -11q-16 -9 -26 -25t-10 -35v-273h50q15 0 22.5 -8.5t7.5 -19.5v0zM131 516q0 -21 -15 -36t-36 -15t-36 15t-15 36t15 36t36 15t36 -15t15 -36v0zM246 516q0 -21 -15 -36t-37 -15q-21 0 -36 15t-15 36t15 36t36 15q22 0 37 -15t15 -36 v0z" />
<glyph unicode="&#xf0;" horiz-adv-x="468" d="M443 314q1 -9 2 -18.5t1 -19.5q1 -5 1 -9.5v-9.5q0 -7 -0.5 -14.5t-0.5 -15.5q-6 -85 -49.5 -158t-138.5 -85q-3 0 -6.5 -0.5t-6.5 -0.5q-3 -1 -6.5 -1h-6.5q-84 0 -145.5 62t-65.5 147v4.5v3.5q0 94 58.5 150t133.5 60h6h5h10t10 -1q21 -2 41 -8t39 -17q-14 41 -37 76.5 t-54 63.5l-106 -69q-4 -3 -8.5 -4t-8.5 -1q-7 0 -13.5 3.5t-9.5 9.5q-1 2 -2.5 4.5t-1.5 5.5q-1 1 -1 2.5v2.5q0 7 4 13.5t11 11.5l87 56q-21 12 -43.5 22t-47.5 11q-17 2 -24.5 10t-7.5 18v1.5v1.5q2 11 10.5 18.5t22.5 7.5h0.5h1.5h1.5h0.5q41 -4 80.5 -14.5t73.5 -31.5 l91 59q5 3 9.5 4.5t8.5 1.5q7 -1 13 -4.5t10 -8.5q2 -4 3 -7.5t1 -8.5q0 -2 -0.5 -4t-0.5 -4q-2 -4 -5 -8t-8 -8l-72 -47q56 -47 93.5 -113.5t47.5 -139.5v0zM344 291q-12 15 -30 22t-37 10q-7 0 -13.5 0.5t-12.5 0.5q-57 0 -96.5 -43.5t-42.5 -98.5v-2.5v-2.5 q0 -28 8.5 -51.5t22.5 -42.5q14 -17 30 -26t32 -12q3 0 6.5 -0.5t6.5 -0.5q28 0 53.5 17t42.5 47q16 27 23.5 58.5t9.5 63.5v8v8q0 8 -0.5 15.5t-0.5 14.5q-1 4 -1 7.5t-1 7.5v0z" />
<glyph unicode="&#xf1;" horiz-adv-x="608" d="M555 28q0 -10 -8 -19t-23 -9h-206q-15 0 -22.5 9t-7.5 19q0 11 7.5 19.5t22.5 8.5h63v201q0 52 -29 76.5t-66 24.5h-2.5h-2.5q-2 -1 -3 -1h-3q-46 -4 -76 -34t-30 -77v-190h49q16 0 23.5 -8.5t7.5 -19.5q0 -10 -7.5 -19t-23.5 -9h-186q-15 0 -22.5 9t-7.5 19 q0 11 7.5 19.5t22.5 8.5h42v268l-21 -11q-4 -2 -8 -3t-8 -1q-8 0 -14.5 4.5t-9.5 11.5l-2 6t-1 7v3.5t1 3.5q1 5 5 10t11 9l151 75q3 2 6 2.5t6 0.5q8 0 14.5 -4t9.5 -11q2 -3 2.5 -6.5t0.5 -7.5v-2v-1q0 -1 -0.5 -2t-0.5 -2q19 8 38.5 11.5t39.5 4.5h3h2q67 0 121.5 -41 t54.5 -125v-200h49q15 0 23 -8.5t8 -19.5v0zM421 568l-6 -24q-7 -30 -31 -48.5t-54 -18.5h-4.5h-4.5q-3 0 -5.5 0.5t-4.5 1.5l-95 22q-4 1 -7 -1t-4 -5q0 -1 -0.5 -2.5t-0.5 -2.5q-1 -1 -1 -2.5v-2.5q-3 -13 -11 -18.5t-17 -5.5h-1.5t-1.5 1h-1.5h-1.5q-9 2 -15.5 9t-6.5 18 v4t1 4q1 3 1.5 6.5t1.5 6.5q0 3 0.5 6t1.5 6q8 30 32 48.5t54 18.5q5 0 9.5 -0.5t8.5 -1.5l96 -22h1.5h0.5q3 0 5 1.5t3 4.5q0 1 0.5 2.5t1.5 2.5q0 1 0.5 2.5t0.5 2.5q2 11 9 17t16 7h1.5h1.5h1.5h1.5q1 -1 1.5 -1h1.5q9 -2 15.5 -9.5t6.5 -18.5v-2v-2t-0.5 -2t-0.5 -2v0z " />
<glyph unicode="&#xf2;" horiz-adv-x="473" d="M434 207q0 -89 -61 -157.5t-153 -68.5t-154 68.5t-62 157.5t62 157.5t154 68.5t153 -68.5t61 -157.5v0zM330 231q-3 9 -7 18.5t-9 19.5q-20 35 -53 65t-72 29h-5.5h-4.5t-4.5 -0.5t-5.5 -1.5q-36 -8 -52 -39t-18 -66v-4.5v-5.5q0 -17 3 -33t7 -30q3 -9 7 -18.5t9 -19.5 q19 -35 52 -65t72 -29h5.5h4.5t4.5 0.5t5.5 1.5q37 9 53 40.5t17 68.5v3.5v3.5q0 17 -2.5 33t-6.5 29v0zM269 515q3 -4 4 -7.5t1 -8.5q0 -6 -2 -11.5t-6 -10.5q-5 -7 -11.5 -11.5t-14.5 -4.5h-2.5t-2.5 1q-1 0 -2.5 0.5t-2.5 1.5l-76 38q-4 2 -8.5 4t-9.5 4l-12 6t-11 7 q-11 9 -16.5 21t-5.5 25v4.5t1 4.5q1 7 4 13.5t7 12.5q8 11 20 16.5t25 4.5h4.5t4.5 -1q7 -1 13.5 -3.5t12.5 -7.5t11.5 -11.5t11.5 -12.5v-1l1 -1q1 -2 3 -4.5t4 -4.5l55 -63v0z" />
<glyph unicode="&#xf3;" horiz-adv-x="473" d="M434 207q0 -89 -61 -157.5t-153 -68.5t-154 68.5t-62 157.5t62 157.5t154 68.5t153 -68.5t61 -157.5v0zM330 231q-3 9 -7 18.5t-9 19.5q-20 35 -53 65t-72 29h-5.5h-4.5t-4.5 -0.5t-5.5 -1.5q-36 -8 -52 -39t-18 -66v-4.5v-5.5q0 -17 3 -33t7 -30q3 -9 7 -18.5t9 -19.5 q19 -35 52 -65t72 -29h5.5h4.5t4.5 0.5t5.5 1.5q37 9 53 40.5t17 68.5v3.5v3.5q0 17 -2.5 33t-6.5 29v0zM378 600q6 -8 9 -17t3 -18q0 -13 -5.5 -25t-16.5 -20q-5 -4 -11 -7.5t-12 -5.5q-3 -2 -6 -3t-5 -2t-3.5 -1.5t-3.5 -1.5l-76 -39q-1 -1 -2.5 -1.5t-2.5 -0.5h-2.5h-2.5 q-7 0 -14 4t-12 11q-4 5 -6.5 11t-1.5 12v2.5v2.5q1 3 2 5.5t3 4.5l55 63q2 3 4 5.5t4 5.5q5 7 10.5 13t12.5 11q8 6 16.5 9t18.5 3q13 0 24.5 -5t20.5 -16v0z" />
<glyph unicode="&#xf4;" horiz-adv-x="473" d="M434 207q0 -89 -61 -157.5t-153 -68.5t-154 68.5t-62 157.5t62 157.5t154 68.5t153 -68.5t61 -157.5v0zM330 231q-3 9 -7 18.5t-9 19.5q-20 35 -53 65t-72 29h-5.5h-4.5t-4.5 -0.5t-5.5 -1.5q-36 -8 -52 -39t-18 -66v-4.5v-5.5q0 -17 3 -33t7 -30q3 -9 7 -18.5t9 -19.5 q19 -35 52 -65t72 -29h5.5h4.5t4.5 0.5t5.5 1.5q37 9 53 40.5t17 68.5v3.5v3.5q0 17 -2.5 33t-6.5 29v0zM375 446q-4 -6 -10.5 -9.5t-13.5 -3.5q-3 0 -6 1l-6 2l-52 27l-52 27l-103 -54q-1 -1 -3 -1.5t-3 -0.5q-2 -1 -3.5 -1h-3.5q-7 0 -13 3.5t-11 9.5q-2 4 -3.5 8.5 t-1.5 8.5q0 5 2.5 10.5t6.5 9.5l117 107q3 3 7 4.5t8 2.5h2.5h2.5q5 0 10 -2t8 -5l118 -107q5 -4 7 -9.5t2 -10.5q0 -4 -1.5 -8.5t-4.5 -8.5v0z" />
<glyph unicode="&#xf5;" horiz-adv-x="473" d="M434 207q0 -89 -61 -157.5t-153 -68.5t-154 68.5t-62 157.5t62 157.5t154 68.5t153 -68.5t61 -157.5v0zM330 231q-3 9 -7 18.5t-9 19.5q-20 35 -53 65t-72 29h-5.5h-4.5t-4.5 -0.5t-5.5 -1.5q-36 -8 -52 -39t-18 -66v-4.5v-5.5q0 -17 3 -33t7 -30q3 -9 7 -18.5t9 -19.5 q19 -35 52 -65t72 -29h5.5h4.5t4.5 0.5t5.5 1.5q37 9 53 40.5t17 68.5v3.5v3.5q0 17 -2.5 33t-6.5 29v0zM385 560l-6 -24q-7 -30 -31 -48.5t-54 -18.5h-4.5h-4.5q-3 0 -5.5 0.5t-4.5 1.5l-95 22q-4 1 -7 -1t-4 -5q0 -1 -0.5 -2.5t-0.5 -2.5q-1 -1 -1 -2.5v-2.5 q-3 -13 -11 -18.5t-17 -5.5h-1.5t-1.5 1h-1.5h-1.5q-9 2 -15.5 9t-6.5 18v4t1 4q1 3 1.5 6.5t1.5 6.5q0 3 0.5 6t1.5 6q8 30 32 48.5t54 18.5q5 0 9.5 -0.5t8.5 -1.5l96 -22h1.5h0.5q3 0 5 1.5t3 4.5q0 1 0.5 2.5t1.5 2.5q0 1 0.5 2.5t0.5 2.5q2 11 9 17t16 7h1.5h1.5h1.5 h1.5q1 -1 1.5 -1h1.5q9 -2 15.5 -9.5t6.5 -18.5v-2v-2t-0.5 -2t-0.5 -2v0z" />
<glyph unicode="&#xf6;" horiz-adv-x="473" d="M434 207q0 -89 -61 -157.5t-153 -68.5t-154 68.5t-62 157.5t62 157.5t154 68.5t153 -68.5t61 -157.5v0zM330 231q-3 9 -7 18.5t-9 19.5q-20 35 -53 65t-72 29h-5.5h-4.5t-4.5 -0.5t-5.5 -1.5q-36 -8 -52 -39t-18 -66v-4.5v-5.5q0 -17 3 -33t7 -30q3 -9 7 -18.5t9 -19.5 q19 -35 52 -65t72 -29h5.5h4.5t4.5 0.5t5.5 1.5q37 9 53 40.5t17 68.5v3.5v3.5q0 17 -2.5 33t-6.5 29v0zM230 503q0 -21 -15 -36t-36 -15t-36 15t-15 36t15 36t36 15t36 -15t15 -36v0zM345 503q0 -21 -15 -36t-37 -15q-21 0 -36 15t-15 36t15 36t36 15q22 0 37 -15t15 -36v0 z" />
<glyph unicode="&#xf7;" />
<glyph unicode="&#xf8;" horiz-adv-x="473" d="M394 408q7 8 13.5 10.5t13.5 2.5q5 0 9.5 -2t8.5 -6t6 -9t2 -10q-1 -6 -3.5 -12.5t-9.5 -13.5l-26 -26q21 -28 32 -62.5t11 -72.5q0 -89 -61 -157.5t-153 -68.5q-40 0 -75 14t-63 39l-12.5 -12.5l-5.5 -5.5q-7 -7 -14 -10t-14 -3q-5 0 -9.5 2t-7.5 5q-4 4 -5.5 8.5 t-1.5 9.5q0 7 3 13.5t10 13.5l20 20q-19 29 -30 62.5t-11 69.5q0 89 62 157.5t154 68.5q38 0 72 -13t62 -36l1.5 1.5l1.5 1.5l0.5 0.5l0.5 0.5q8 8 13.5 14l5.5 6v0zM332 266l-162 -162q19 -22 43 -38t52 -16q5 0 10.5 1t10.5 2q37 9 53 40.5t17 68.5v3.5v3.5q0 17 -2.5 33 t-6.5 29q-3 8 -6.5 17t-8.5 18v0zM138 152l158 161q-19 22 -41 36.5t-48 14.5q-5 0 -10.5 -0.5t-10.5 -2.5q-36 -8 -52 -39t-18 -66v-4.5v-5.5q0 -17 3 -33t7 -30q1 -4 2.5 -8t2.5 -7q2 -4 3.5 -8t3.5 -8v0z" />
<glyph unicode="&#xf9;" horiz-adv-x="590" d="M534 85q2 -3 2.5 -6.5t0.5 -7.5v-2.5t-1 -2.5q-1 -6 -5 -11t-11 -9l-108 -54q-2 0 -4 -1l-4 -2q-3 0 -5 -0.5t-4 -0.5q-3 0 -6 1t-6 3q-5 3 -8.5 9t-3.5 15v16q-19 -17 -44 -28t-52 -15q-5 -1 -10.5 -1.5t-11.5 -0.5q-73 0 -130.5 42.5t-58.5 123.5v188l-21 -11 q-4 -1 -7.5 -2t-6.5 -1q-9 0 -15.5 4t-9.5 11q-1 3 -2 6.5t-1 7.5v2.5t1 2.5q1 6 5 11t11 9l151 76q2 1 4.5 1.5t4.5 0.5q8 0 14.5 -4.5t10.5 -11.5q2 -4 2.5 -7.5t0.5 -7.5q0 -7 -3 -13t-10 -9q-14 -7 -22.5 -21t-10.5 -29q-1 -2 -1 -4.5v-4.5v-203q0 -39 25 -70t66 -31 h6.5t6.5 1q40 4 74 31.5t34 70.5v200l-22 -10q-4 -2 -7.5 -3t-6.5 -1q-8 0 -14.5 4.5t-9.5 11.5q-1 3 -2.5 6.5t-1.5 7.5q1 7 5 13.5t12 10.5l151 76q1 0 2.5 0.5t2.5 0.5q1 1 2.5 1h2.5q8 0 14.5 -4t10.5 -12q1 -1 1.5 -3t0.5 -3q1 -2 1 -3.5v-3.5q0 -7 -3 -13.5t-10 -10.5 q-16 -9 -25 -25t-9 -34l-1 -270l30 15q4 2 7.5 3t7.5 1q8 -1 14.5 -5.5t9.5 -10.5v0zM323 509q3 -4 4 -7.5t1 -8.5q0 -6 -2 -11.5t-6 -10.5q-5 -7 -11.5 -11.5t-14.5 -4.5h-2.5t-2.5 1q-1 0 -2.5 0.5t-2.5 1.5l-76 38q-4 2 -8.5 4t-9.5 4l-12 6t-11 7q-11 9 -16.5 21 t-5.5 25v4.5t1 4.5q1 7 4 13.5t7 12.5q8 11 20 16.5t25 4.5h4.5t4.5 -1q7 -1 13.5 -3.5t12.5 -7.5t11.5 -11.5t11.5 -12.5v-1l1 -1q1 -2 3 -4.5t4 -4.5l55 -63v0z" />
<glyph unicode="&#xfa;" horiz-adv-x="590" d="M534 85q2 -3 2.5 -6.5t0.5 -7.5v-2.5t-1 -2.5q-1 -6 -5 -11t-11 -9l-108 -54q-2 0 -4 -1l-4 -2q-3 0 -5 -0.5t-4 -0.5q-3 0 -6 1t-6 3q-5 3 -8.5 9t-3.5 15v16q-19 -17 -44 -28t-52 -15q-5 -1 -10.5 -1.5t-11.5 -0.5q-73 0 -130.5 42.5t-58.5 123.5v188l-21 -11 q-4 -1 -7.5 -2t-6.5 -1q-9 0 -15.5 4t-9.5 11q-1 3 -2 6.5t-1 7.5v2.5t1 2.5q1 6 5 11t11 9l151 76q2 1 4.5 1.5t4.5 0.5q8 0 14.5 -4.5t10.5 -11.5q2 -4 2.5 -7.5t0.5 -7.5q0 -7 -3 -13t-10 -9q-14 -7 -22.5 -21t-10.5 -29q-1 -2 -1 -4.5v-4.5v-203q0 -39 25 -70t66 -31 h6.5t6.5 1q40 4 74 31.5t34 70.5v200l-22 -10q-4 -2 -7.5 -3t-6.5 -1q-8 0 -14.5 4.5t-9.5 11.5q-1 3 -2.5 6.5t-1.5 7.5q1 7 5 13.5t12 10.5l151 76q1 0 2.5 0.5t2.5 0.5q1 1 2.5 1h2.5q8 0 14.5 -4t10.5 -12q1 -1 1.5 -3t0.5 -3q1 -2 1 -3.5v-3.5q0 -7 -3 -13.5t-10 -10.5 q-16 -9 -25 -25t-9 -34l-1 -270l30 15q4 2 7.5 3t7.5 1q8 -1 14.5 -5.5t9.5 -10.5v0zM438 591q6 -8 9 -17t3 -18q0 -13 -5.5 -25t-16.5 -20q-5 -4 -11 -7.5t-12 -5.5q-3 -2 -6 -3t-5 -2t-3.5 -1.5t-3.5 -1.5l-76 -39q-1 -1 -2.5 -1.5t-2.5 -0.5h-2.5h-2.5q-7 0 -14 4t-12 11 q-4 5 -6.5 11t-1.5 12v2.5v2.5q1 3 2 5.5t3 4.5l55 63q2 3 4 5.5t4 5.5q5 7 10.5 13t12.5 11q8 6 16.5 9t18.5 3q13 0 24.5 -5t20.5 -16v0z" />
<glyph unicode="&#xfb;" horiz-adv-x="590" d="M534 85q2 -3 2.5 -6.5t0.5 -7.5v-2.5t-1 -2.5q-1 -6 -5 -11t-11 -9l-108 -54q-2 0 -4 -1l-4 -2q-3 0 -5 -0.5t-4 -0.5q-3 0 -6 1t-6 3q-5 3 -8.5 9t-3.5 15v16q-19 -17 -44 -28t-52 -15q-5 -1 -10.5 -1.5t-11.5 -0.5q-73 0 -130.5 42.5t-58.5 123.5v188l-21 -11 q-4 -1 -7.5 -2t-6.5 -1q-9 0 -15.5 4t-9.5 11q-1 3 -2 6.5t-1 7.5v2.5t1 2.5q1 6 5 11t11 9l151 76q2 1 4.5 1.5t4.5 0.5q8 0 14.5 -4.5t10.5 -11.5q2 -4 2.5 -7.5t0.5 -7.5q0 -7 -3 -13t-10 -9q-14 -7 -22.5 -21t-10.5 -29q-1 -2 -1 -4.5v-4.5v-203q0 -39 25 -70t66 -31 h6.5t6.5 1q40 4 74 31.5t34 70.5v200l-22 -10q-4 -2 -7.5 -3t-6.5 -1q-8 0 -14.5 4.5t-9.5 11.5q-1 3 -2.5 6.5t-1.5 7.5q1 7 5 13.5t12 10.5l151 76q1 0 2.5 0.5t2.5 0.5q1 1 2.5 1h2.5q8 0 14.5 -4t10.5 -12q1 -1 1.5 -3t0.5 -3q1 -2 1 -3.5v-3.5q0 -7 -3 -13.5t-10 -10.5 q-16 -9 -25 -25t-9 -34l-1 -270l30 15q4 2 7.5 3t7.5 1q8 -1 14.5 -5.5t9.5 -10.5v0zM429 482q-4 -6 -10.5 -9.5t-13.5 -3.5q-3 0 -6 1l-6 2l-52 27l-52 27l-103 -54q-1 -1 -3 -1.5t-3 -0.5q-2 -1 -3.5 -1h-3.5q-7 0 -13 3.5t-11 9.5q-2 4 -3.5 8.5t-1.5 8.5q0 5 2.5 10.5 t6.5 9.5l117 107q3 3 7 4.5t8 2.5h2.5h2.5q5 0 10 -2t8 -5l118 -107q5 -4 7 -9.5t2 -10.5q0 -4 -1.5 -8.5t-4.5 -8.5v0z" />
<glyph unicode="&#xfc;" horiz-adv-x="590" d="M534 85q2 -3 2.5 -6.5t0.5 -7.5v-2.5t-1 -2.5q-1 -6 -5 -11t-11 -9l-108 -54q-2 0 -4 -1l-4 -2q-3 0 -5 -0.5t-4 -0.5q-3 0 -6 1t-6 3q-5 3 -8.5 9t-3.5 15v16q-19 -17 -44 -28t-52 -15q-5 -1 -10.5 -1.5t-11.5 -0.5q-73 0 -130.5 42.5t-58.5 123.5v188l-21 -11 q-4 -1 -7.5 -2t-6.5 -1q-9 0 -15.5 4t-9.5 11q-1 3 -2 6.5t-1 7.5v2.5t1 2.5q1 6 5 11t11 9l151 76q2 1 4.5 1.5t4.5 0.5q8 0 14.5 -4.5t10.5 -11.5q2 -4 2.5 -7.5t0.5 -7.5q0 -7 -3 -13t-10 -9q-14 -7 -22.5 -21t-10.5 -29q-1 -2 -1 -4.5v-4.5v-203q0 -39 25 -70t66 -31 h6.5t6.5 1q40 4 74 31.5t34 70.5v200l-22 -10q-4 -2 -7.5 -3t-6.5 -1q-8 0 -14.5 4.5t-9.5 11.5q-1 3 -2.5 6.5t-1.5 7.5q1 7 5 13.5t12 10.5l151 76q1 0 2.5 0.5t2.5 0.5q1 1 2.5 1h2.5q8 0 14.5 -4t10.5 -12q1 -1 1.5 -3t0.5 -3q1 -2 1 -3.5v-3.5q0 -7 -3 -13.5t-10 -10.5 q-16 -9 -25 -25t-9 -34l-1 -270l30 15q4 2 7.5 3t7.5 1q8 -1 14.5 -5.5t9.5 -10.5v0zM296 525q0 -21 -15 -36t-36 -15t-36 15t-15 36t15 36t36 15t36 -15t15 -36v0zM411 525q0 -21 -15 -36t-37 -15q-21 0 -36 15t-15 36t15 36t36 15q22 0 37 -15t15 -36v0z" />
<glyph unicode="&#xfd;" horiz-adv-x="200" />
<glyph unicode="&#xfe;" horiz-adv-x="520" d="M491 182q0 -86 -59 -152t-148 -66q-26 0 -51 7t-47 19l-0.5 0.5l-0.5 0.5q-1 0 -1.5 0.5l-0.5 0.5v-191h63q15 1 22.5 -8t7.5 -19q0 -11 -7.5 -20t-22.5 -9l-220 -1q-15 1 -22 10t-7 20q0 10 7 19t22 9l63 -1v756l-24 -12q-4 -2 -7.5 -3t-7.5 -1q-8 0 -14.5 4.5 t-9.5 11.5l-2 6t-1 7v2.5t1 2.5q1 6 5 11t11 9l132 67q5 2 8.5 3t7.5 1q8 0 14.5 -4.5t9.5 -11.5q1 -1 1.5 -3t0.5 -3q1 -2 1 -3.5v-3.5q0 -7 -4 -14t-13 -12l-15 -7v-230h0.5t1.5 1h0.5h0.5q23 13 47.5 19.5t50.5 6.5q89 0 148 -66.5t59 -152.5v0zM397 213q-2 7 -4.5 15 t-6.5 15q-16 37 -48 68t-72 31h-6t-5 -1q-3 0 -6 -0.5t-6 -1.5q-17 -4 -32 -14t-28 -22v-241q20 -19 46.5 -30.5t54.5 -11.5q59 0 90 41.5t31 96.5q0 7 -0.5 14t-1.5 14q-1 6 -2.5 13t-3.5 14v0z" />
<glyph unicode="&#xff;" horiz-adv-x="578" d="M526 373q0 -10 -7.5 -19t-21.5 -9h-59q-10 -28 -21 -56.5t-22 -56.5q-50 -125 -108.5 -247t-125.5 -236q-4 -6 -10.5 -10t-14.5 -4l-64 -1q-16 1 -24.5 12.5t-2.5 25.5q1 2 2 4.5t3 4.5q5 6 9.5 11t8.5 11q15 18 30 35t29 35q26 31 48.5 63t38.5 66l-129 343h-55 q-15 0 -22.5 9t-7.5 19q0 11 7.5 19.5t22.5 8.5h200q15 0 22.5 -8.5t7.5 -19.5q0 -10 -7.5 -19t-22.5 -9h-39l86 -242q14 30 27 60.5t26 60.5t25 60.5t23 60.5h-35q-15 0 -22.5 9t-7.5 19q0 11 7.5 19.5t22.5 8.5h154q14 0 21.5 -8.5t7.5 -19.5v0zM299 480q0 -21 -15 -36 t-36 -15t-36 15t-15 36t15 36t36 15t36 -15t15 -36v0zM414 480q0 -21 -15 -36t-37 -15q-21 0 -36 15t-15 36t15 36t36 15q22 0 37 -15t15 -36v0z" />
<glyph unicode="&#x152;" horiz-adv-x="1209" d="M1174 177l-40 -156q0 -1 -0.5 -1.5t-0.5 -1.5q-2 -5 -8 -9.5t-12 -7.5q-2 0 -3.5 -0.5t-3.5 -0.5h-553q-34 -12 -70.5 -18.5t-74.5 -6.5q-157 0 -274.5 105t-117.5 261q0 155 117.5 261t274.5 106q38 0 74.5 -7t70.5 -20h529q2 0 3.5 -0.5t3.5 -0.5q6 -2 11.5 -7t7.5 -10 q1 -1 1 -1.5v-1.5l30 -123q1 -2 1 -4.5v-4.5q0 -10 -4.5 -16.5t-12.5 -9.5q-1 0 -2.5 -0.5t-2.5 -0.5q-1 -1 -2.5 -1h-2.5h-2.5t-2.5 1q-6 1 -11 4.5t-9 10.5q-5 8 -11.5 17t-14.5 19q-19 22 -44 42.5t-52 27.5q-6 2 -12 3t-12 1h-239v-229h240q5 0 10.5 2t11.5 5 q11 6 21 16t17 21q3 6 5.5 12t2.5 11q1 17 10 25t19 8q11 0 19.5 -8.5t8.5 -25.5v-213q0 -16 -8.5 -24.5t-19.5 -9.5q-10 0 -19 8.5t-10 25.5q0 7 -3.5 18t-9.5 23q-9 16 -21 30t-24 19q-3 1 -5.5 1.5t-4.5 0.5h-240v-287h198q82 2 139 30.5t80 106.5q3 11 10.5 16t16.5 5h2 h2t2 -0.5t2 -0.5q8 -2 14.5 -9t5.5 -18v-3.5t-1 -4.5v0zM584 86v460q-40 44 -93.5 73t-112.5 29q-19 0 -38 -3.5t-39 -10.5q-83 -30 -121.5 -102t-39.5 -152v-3v-2v-10.5t1 -10.5q1 -26 6.5 -52t14.5 -50q31 -85 107 -152t170 -67q19 0 38.5 3.5t38.5 10.5q20 8 37 17.5 t31 21.5v0z" />
<glyph unicode="&#x153;" horiz-adv-x="781" d="M740 92q-31 -48 -82 -75t-109 -27q-42 0 -80.5 14.5t-68.5 40.5q-28 -30 -66.5 -47t-82.5 -17q-92 0 -154 68.5t-62 157.5t62 157.5t154 68.5q44 0 82 -17t66 -46q29 26 65 40.5t74 16.5h5.5h5.5q23 0 45 -4.5t43 -15.5q21 -10 38.5 -25.5t30.5 -32.5q3 -4 4 -7.5t1 -8.5 q0 -7 -3.5 -14t-10.5 -11l-262 -142q12 -31 27.5 -54t44.5 -40q17 -9 34.5 -13.5t34.5 -4.5q35 0 65 18t51 51q5 8 11.5 11.5t13.5 3.5h2.5t2.5 -1q3 0 5.5 -1t4.5 -3q6 -4 10 -10t3 -14q0 -4 -1 -8t-4 -9v0zM356 97q-15 25 -23 52.5t-8 58.5q0 19 3 37.5t9 35.5 q-19 32 -50 57.5t-68 24.5h-9t-10 -2q-36 -8 -52 -39t-18 -66v-4.5v-5.5q0 -17 3 -33t7 -30q3 -9 7 -18.5t9 -19.5q19 -35 52 -65t72 -29h5.5h4.5t4.5 0.5t5.5 1.5q20 5 34 16.5t22 27.5v0zM597 318q-16 15 -35.5 22.5t-39.5 7.5q-10 0 -21.5 -2t-22.5 -7q-28 -11 -43 -39 t-15 -63v-4t1 -3v-4v-4l176 96v0z" />
<glyph unicode="&#x178;" horiz-adv-x="808" d="M780 654q0 -10 -7.5 -19t-22.5 -9h-78l-233 -385v-186h92q15 0 22.5 -8.5t7.5 -19.5v-1.5v-1.5q-1 -9 -8.5 -16.5t-21.5 -7.5h-311q-14 0 -21.5 7.5t-8.5 16.5v1.5v1.5q0 11 7.5 19.5t22.5 8.5h100v190l-227 381h-64q-15 0 -22 9t-7 19v1.5v1.5q0 9 7.5 16.5t21.5 7.5 h264q15 0 22.5 -7.5t8.5 -16.5v-1.5v-1.5q0 -10 -7.5 -19t-23.5 -9h-60l185 -311l189 311h-76q-15 0 -23 9t-8 19v1.5v1.5q1 9 8.5 16.5t22.5 7.5h219q14 0 21.5 -7.5t8.5 -16.5v-1.5v-1.5v0zM417 744q0 -21 -15 -36t-36 -15t-36 15t-15 36t15 36t36 15t36 -15t15 -36v0z M532 744q0 -21 -15 -36t-37 -15q-21 0 -36 15t-15 36t15 36t36 15q22 0 37 -15t15 -36v0z" />
<glyph unicode="&#x2c6;" horiz-adv-x="320" d="M293 824l-6 -24q-7 -30 -31 -48.5t-54 -18.5h-4.5h-4.5q-3 0 -5.5 0.5t-4.5 1.5l-95 22q-4 1 -7 -1t-4 -5q0 -1 -0.5 -2.5t-0.5 -2.5q-1 -1 -1 -2.5v-2.5q-3 -13 -11 -18.5t-17 -5.5h-1.5t-1.5 1h-1.5h-1.5q-9 2 -15.5 9t-6.5 18v4t1 4q1 3 1.5 6.5t1.5 6.5q0 3 0.5 6 t1.5 6q8 30 32 48.5t54 18.5q5 0 9.5 -0.5t8.5 -1.5l96 -22h1.5h0.5q3 0 5 1.5t3 4.5q0 1 0.5 2.5t1.5 2.5q0 1 0.5 2.5t0.5 2.5q2 11 9 17t16 7h1.5h1.5h1.5h1.5q1 -1 1.5 -1h1.5q9 -2 15.5 -9.5t6.5 -18.5v-2v-2t-0.5 -2t-0.5 -2v0z" />
<glyph unicode="&#x2dc;" horiz-adv-x="320" d="M300 728q-4 -6 -10.5 -9.5t-13.5 -3.5q-3 0 -6 1l-6 2l-52 27l-52 27l-103 -54q-1 -1 -3 -1.5t-3 -0.5q-2 -1 -3.5 -1h-3.5q-7 0 -13 3.5t-11 9.5q-2 4 -3.5 8.5t-1.5 8.5q0 5 2.5 10.5t6.5 9.5l117 107q3 3 7 4.5t8 2.5h2.5h2.5q5 0 10 -2t8 -5l118 -107q5 -4 7 -9.5 t2 -10.5q0 -4 -1.5 -8.5t-4.5 -8.5v0z" />
<glyph unicode="&#x2000;" horiz-adv-x="445" />
<glyph unicode="&#x2001;" horiz-adv-x="891" />
<glyph unicode="&#x2002;" horiz-adv-x="445" />
<glyph unicode="&#x2003;" horiz-adv-x="891" />
<glyph unicode="&#x2004;" horiz-adv-x="297" />
<glyph unicode="&#x2005;" horiz-adv-x="222" />
<glyph unicode="&#x2006;" horiz-adv-x="148" />
<glyph unicode="&#x2007;" horiz-adv-x="148" />
<glyph unicode="&#x2008;" horiz-adv-x="111" />
<glyph unicode="&#x2009;" horiz-adv-x="178" />
<glyph unicode="&#x200a;" horiz-adv-x="49" />
<glyph unicode="&#x2010;" horiz-adv-x="215" d="M205 322q0 -10 -7.5 -19t-22.5 -9h-135q-15 0 -22.5 9t-7.5 19q0 11 7.5 19.5t22.5 8.5h135q15 0 22.5 -8.5t7.5 -19.5v0z" />
<glyph unicode="&#x2011;" horiz-adv-x="215" d="M205 322q0 -10 -7.5 -19t-22.5 -9h-135q-15 0 -22.5 9t-7.5 19q0 11 7.5 19.5t22.5 8.5h135q15 0 22.5 -8.5t7.5 -19.5v0z" />
<glyph unicode="&#x2012;" horiz-adv-x="215" d="M205 322q0 -10 -7.5 -19t-22.5 -9h-135q-15 0 -22.5 9t-7.5 19q0 11 7.5 19.5t22.5 8.5h135q15 0 22.5 -8.5t7.5 -19.5v0z" />
<glyph unicode="&#x2013;" d="M485 322q0 -10 -7.5 -19t-22.5 -9h-415q-15 0 -22.5 9t-7.5 19q0 11 7.5 19.5t22.5 8.5h415q15 0 22.5 -8.5t7.5 -19.5v0z" />
<glyph unicode="&#x2014;" horiz-adv-x="1000" d="M985 322q0 -10 -7.5 -19t-22.5 -9h-915q-15 0 -22.5 9t-7.5 19q0 11 7.5 19.5t22.5 8.5h915q15 0 22.5 -8.5t7.5 -19.5v0z" />
<glyph unicode="&#x2018;" horiz-adv-x="121" d="M25 666q11 17 28 28.5t35 10.5h5t6 -1v-5q-13 -9 -18.5 -21.5t3.5 -25.5q1 -2 2.5 -4t3.5 -4q7 -7 10.5 -15.5t3.5 -18.5q0 -4 -1 -8.5t-3 -9.5q-5 -13 -17 -20.5t-26 -7.5h-4.5t-4.5 1q-3 0 -5.5 1t-4.5 2q-16 9 -22.5 22t-6.5 28q0 4 0.5 8t1.5 8q2 8 5.5 16.5 t8.5 15.5v0z" />
<glyph unicode="&#x2019;" horiz-adv-x="121" d="M91 592q-11 -16 -28 -28t-35 -11h-5t-6 1v5q13 9 18.5 21.5t-3.5 25.5q-1 2 -2.5 4t-3.5 4q-7 7 -10.5 15.5t-3.5 18.5q0 5 1 9.5t3 8.5q5 14 17.5 21t25.5 7h4.5t5.5 -1q2 0 4.5 -1t4.5 -2q16 -9 22.5 -22t6.5 -28q0 -4 -0.5 -8t-1.5 -8q-2 -8 -5.5 -16t-8.5 -16v0z" />
<glyph unicode="&#x201a;" horiz-adv-x="121" d="M91 -18q-11 -16 -28 -27.5t-35 -10.5h-5t-6 1v4q13 10 18.5 22.5t-3.5 25.5q-1 2 -2.5 3.5l-3.5 3.5q-7 7 -10.5 15.5t-3.5 18.5q0 5 1 9.5t3 8.5q5 14 17.5 21t25.5 7h4.5t5.5 -1q2 0 4.5 -1t4.5 -2q16 -9 22.5 -22t6.5 -28q0 -4 -0.5 -8t-1.5 -8q-2 -8 -5.5 -16 t-8.5 -15v-1z" />
<glyph unicode="&#x201c;" horiz-adv-x="217" d="M25 666q11 17 28 28.5t35 10.5h5t6 -1v-5q-13 -9 -18.5 -21.5t3.5 -25.5q1 -2 2.5 -4t3.5 -4q7 -7 10.5 -15.5t3.5 -18.5q0 -4 -1 -8.5t-3 -9.5q-5 -13 -17 -20.5t-26 -7.5h-4.5t-4.5 1q-3 0 -5.5 1t-4.5 2q-16 9 -22.5 22t-6.5 28q0 4 0.5 8t1.5 8q2 8 5.5 16.5 t8.5 15.5v0zM125 666q11 17 28 28.5t35 10.5h5t6 -1v-5q-13 -9 -18.5 -21.5t3.5 -25.5q1 -2 2.5 -4t3.5 -4q7 -7 10.5 -15.5t3.5 -18.5q0 -4 -1 -8.5t-3 -9.5q-5 -13 -17 -20.5t-26 -7.5h-4.5t-4.5 1q-3 0 -5.5 1t-4.5 2q-16 9 -22.5 22t-6.5 28q0 4 0.5 8t1.5 8 q2 8 5.5 16.5t8.5 15.5v0z" />
<glyph unicode="&#x201d;" horiz-adv-x="217" d="M91 592q-11 -16 -28 -28t-35 -11h-5t-6 1v5q13 9 18.5 21.5t-3.5 25.5q-1 2 -2.5 4t-3.5 4q-7 7 -10.5 15.5t-3.5 18.5q0 5 1 9.5t3 8.5q5 14 17.5 21t25.5 7h4.5t5.5 -1q2 0 4.5 -1t4.5 -2q16 -9 22.5 -22t6.5 -28q0 -4 -0.5 -8t-1.5 -8q-2 -8 -5.5 -16t-8.5 -16v0z M191 592q-11 -16 -28 -28t-35 -11h-5t-6 1v5q13 9 18.5 21.5t-3.5 25.5q-1 2 -2.5 4t-3.5 4q-7 7 -10.5 15.5t-3.5 18.5q0 5 1 9.5t3 8.5q5 14 17.5 21t25.5 7h4.5t5.5 -1q2 0 4.5 -1t4.5 -2q16 -9 22.5 -22t6.5 -28q0 -4 -0.5 -8t-1.5 -8q-2 -8 -5.5 -16t-8.5 -16v0z" />
<glyph unicode="&#x201e;" horiz-adv-x="228" d="M91 -18q-11 -16 -28 -27.5t-35 -10.5h-5t-6 1v4q13 10 18.5 22.5t-3.5 25.5q-1 2 -2.5 3.5l-3.5 3.5q-7 7 -10.5 15.5t-3.5 18.5q0 5 1 9.5t3 8.5q5 14 17.5 21t25.5 7h4.5t5.5 -1q2 0 4.5 -1t4.5 -2q16 -9 22.5 -22t6.5 -28q0 -4 -0.5 -8t-1.5 -8q-2 -8 -5.5 -16 t-8.5 -15v-1zM201 -18q-11 -16 -28 -27.5t-35 -10.5h-5t-6 1v4q13 10 18.5 22.5t-3.5 25.5q-1 2 -2.5 3.5l-3.5 3.5q-7 7 -10.5 15.5t-3.5 18.5q0 5 1 9.5t3 8.5q5 14 17.5 21t25.5 7h4.5t5.5 -1q2 0 4.5 -1t4.5 -2q16 -9 22.5 -22t6.5 -28q0 -4 -0.5 -8t-1.5 -8 q-2 -8 -5.5 -16t-8.5 -15v-1z" />
<glyph unicode="&#x2022;" horiz-adv-x="246" d="M219 357q0 -37 -27.5 -65.5t-66.5 -28.5q-37 0 -65.5 28.5t-28.5 65.5q0 39 28.5 66.5t65.5 27.5q39 0 66.5 -27.5t27.5 -66.5v0z" />
<glyph unicode="&#x2026;" horiz-adv-x="457" d="M135 37q0 -19 -13.5 -32.5t-33.5 -13.5q-19 0 -33 13.5t-14 32.5q0 20 14 33.5t33 13.5q20 0 33.5 -13.5t13.5 -33.5v0zM275 37q0 -19 -13.5 -32.5t-33.5 -13.5q-19 0 -33 13.5t-14 32.5q0 20 14 33.5t33 13.5q20 0 33.5 -13.5t13.5 -33.5v0zM415 37q0 -19 -13.5 -32.5 t-33.5 -13.5q-19 0 -33 13.5t-14 32.5q0 20 14 33.5t33 13.5q20 0 33.5 -13.5t13.5 -33.5v0z" />
<glyph unicode="&#x202f;" horiz-adv-x="178" />
<glyph unicode="&#x2039;" horiz-adv-x="190" d="M179 232q2 -4 3 -8t1 -7q0 -4 -2 -8t-5 -7q-4 -3 -9 -4t-11 1q-2 1 -4.5 3t-5.5 4l-112 101q-7 7 -11 16t-4 19t4 18.5t11 15.5l111 103q3 3 5.5 4.5t4.5 2.5t4.5 1.5t5.5 0.5t6 -1t5 -3q3 -2 5 -6.5t2 -9.5q0 -3 -1 -6.5t-3 -7.5l-54 -111l54 -111v0z" />
<glyph unicode="&#x203a;" horiz-adv-x="190" d="M21 232l54 111l-54 111q-2 4 -3 7.5t-1 7.5q0 5 2 9t5 6t6 3t6 1q2 0 4.5 -0.5t5.5 -1.5q2 -1 4.5 -3t4.5 -4l111 -103q8 -7 11.5 -16t3.5 -19t-3.5 -18.5t-11.5 -15.5l-112 -101q-2 -2 -5 -4t-5 -3q-6 -2 -11 -1t-9 4q-3 3 -5 7t-2 8t1 7.5t3 7.5v0z" />
<glyph unicode="&#x205f;" horiz-adv-x="222" />
<glyph unicode="&#x2122;" />
<glyph unicode="&#xe000;" horiz-adv-x="410" d="M0 410h410v-410h-410v410z" />
</font>
</defs>
</svg>
