<?xml version="1.0" standalone="no"?>
<!DOCTYPE svg PUBLIC "-//W3C//DTD SVG 1.1//EN" "http://www.w3.org/Graphics/SVG/1.1/DTD/svg11.dtd" >
<svg xmlns="http://www.w3.org/2000/svg">
<metadata></metadata>
<defs>
<font id="abril_fatfaceregular" horiz-adv-x="1085" >
<font-face units-per-em="2048" ascent="1638" descent="-410" />
<missing-glyph horiz-adv-x="368" />
<glyph unicode="&#xfb01;" horiz-adv-x="1323" d="M14 938v37h119v4q0 286 160 445t473 159q173 0 272 -72.5t99 -177.5q0 -88 -48.5 -133t-125.5 -45q-81 0 -125.5 40t-44.5 105q0 39 12 89l84 22q26 69 -19 103t-125 34q-231 0 -231 -245v-328h674v-938h115v-37h-588v37h92v901h-293v-901h131v-37h-625v37h113v901h-119z " />
<glyph unicode="&#xfb02;" horiz-adv-x="1320" d="M14 938v37h119v4q0 287 123 445.5t367 158.5q235 0 305 -139l215 92h45v-1499h115v-37h-588v37h92v1046l22 117q-25 -20 -79 -20q-61 0 -98.5 39.5t-37.5 101.5q0 34 13 88h78q14 35 14 66q0 37 -22 55t-56 18q-41 0 -66.5 -15.5t-38.5 -49.5t-17.5 -75t-4.5 -105v-328 h188v-37h-188v-901h119v-37h-613v37h113v901h-119z" />
<glyph unicode="&#xfb03;" horiz-adv-x="2000" d="M14 938v37h119v4q0 281 121 419t369 138q134 0 209.5 -43t101.5 -111q159 201 510 201q173 0 272 -72.5t99 -177.5q0 -88 -49 -133t-126 -45q-81 0 -125.5 40t-44.5 105q0 35 13 89l84 22q26 69 -19 103t-125 34q-231 0 -231 -245v-328h674v-938h114v-37h-587v37h92v901 h-293v-901h131v-37h-625v37h113v901h-297v-901h102v-37h-596v37h113v901h-119zM514 975h297v4l33 174q-28 -25 -76 -25q-73 0 -113.5 40.5t-40.5 105.5q0 34 13 88h78q19 50 12 80.5t-27 44.5t-49 14q-41 0 -66.5 -15.5t-38.5 -50t-17.5 -75.5t-4.5 -105v-280z" />
<glyph unicode="&#xfb04;" horiz-adv-x="1994" d="M14 938v37h119v4q0 281 121 419t369 138q225 0 297 -125q127 172 376 172q236 0 306 -139l215 92h45v-1499h114v-37h-587v37h92v1044l22 119q-20 -20 -73 -20q-67 0 -104.5 38.5t-37.5 102.5q0 38 12 88h78q21 50 14 80.5t-27 44.5t-50 14q-41 0 -66.5 -15.5t-38.5 -49.5 t-17.5 -75t-4.5 -105v-328h188v-37h-188v-901h119v-37h-613v37h113v901h-293v-901h102v-37h-596v37h113v901h-119zM514 975h293v4l35 174q-25 -25 -80 -25q-69 0 -108.5 40.5t-39.5 105.5q0 34 13 88h78q19 50 12 80.5t-27 44.5t-49 14q-41 0 -66.5 -15.5t-38.5 -50 t-17.5 -75.5t-4.5 -105v-280z" />
<glyph horiz-adv-x="2048" />
<glyph horiz-adv-x="2048" />
<glyph unicode="&#xd;" horiz-adv-x="2048" />
<glyph unicode=" "  horiz-adv-x="368" />
<glyph unicode="&#x09;" horiz-adv-x="368" />
<glyph unicode="&#xa0;" horiz-adv-x="368" />
<glyph unicode="!" horiz-adv-x="772" d="M227 133q0 67 41.5 111.5t112.5 44.5t114.5 -38t43.5 -114q0 -72 -41 -114.5t-113 -42.5q-83 0 -120.5 44t-37.5 109zM231 1290q0 89 48 127.5t118 38.5q156 0 156 -166q0 -72 -22.5 -164.5t-49 -170.5t-49 -192t-22.5 -224v-174h-45v176q0 109 -21 224t-46 195 t-46 171.5t-21 158.5z" />
<glyph unicode="&#x22;" horiz-adv-x="684" d="M102 1530q80 41 134 41q31 0 50 -20t19 -56q0 -47 -18 -135l-82 -375h-43zM406 1530q80 41 133 41q31 0 50 -20t19 -56q0 -47 -18 -135l-82 -375h-43z" />
<glyph unicode="#" horiz-adv-x="1245" d="M92 346l33 189h240l53 299h-246l31 190h239l43 287h54l-45 -287h352l43 287h53l-45 -287h262l-29 -190h-258l-49 -299h258l-28 -189h-254l-58 -346h-51l58 346h-357l-57 -346h-51l55 346h-246zM416 535h356l49 299h-352z" />
<glyph unicode="$" horiz-adv-x="1157" d="M127 455h33q55 -119 136 -223.5t175 -159.5v460q-79 27 -136.5 61.5t-105.5 87t-72 128.5t-24 176q0 153 89 272t249 150v170h57v-162q7 0 23 1t24 1q43 0 80 -6v166h58v-174q39 -8 104.5 -27.5t89.5 -19.5q22 0 33 9.5t21 31.5h20l14 -404h-30q-60 114 -120 197.5 t-132 132.5v-422q62 -21 109 -42.5t97 -58t82.5 -81.5t53 -112t20.5 -150q0 -189 -97.5 -314.5t-264.5 -154.5v-133h-58v127q-12 -2 -37 -2q-46 0 -90 6v-131h-57v137q-60 8 -143.5 27.5t-100.5 19.5q-21 0 -32.5 -13.5t-22.5 -45.5h-27zM317 1174q0 -71 38.5 -116.5 t115.5 -78.5v387q-70 -21 -112 -72t-42 -120zM528 45q55 -22 111 -22h16v448q-61 23 -125 43h-2v-469zM528 956q80 -24 127 -36v434q-52 22 -104 22q-17 0 -23 -2v-418zM713 31q73 19 120.5 69t47.5 131q0 73 -41.5 125t-126.5 93v-418z" />
<glyph unicode="%" horiz-adv-x="1572" d="M61 1100q0 156 98.5 256t260.5 100q163 0 254.5 -88t91.5 -252q0 -161 -100 -256.5t-254 -95.5q-167 0 -259 95t-92 241zM313 1102q0 -61 0.5 -91.5t3.5 -73t9.5 -62.5t17.5 -41t29 -29t43 -8q36 0 57.5 19t30 69.5t10.5 92.5t2 134q0 47 -0.5 73t-1.5 61.5t-3.5 54.5 t-7.5 43t-12 35.5t-17 23t-24 16t-32 4.5q-26 0 -44 -7.5t-29.5 -29.5t-18 -42t-9.5 -65t-3.5 -77.5t-0.5 -99.5zM315 0l863 1434h82l-861 -1434h-84zM817 315q0 156 98.5 256.5t260.5 100.5q163 0 254.5 -88t91.5 -252q0 -161 -100.5 -256.5t-254.5 -95.5 q-167 0 -258.5 94.5t-91.5 240.5zM1069 317q0 -63 0.5 -92t3 -72.5t9 -62.5t17.5 -41t29 -29.5t43 -7.5q19 0 33.5 5t24.5 18t17.5 25.5t12.5 38t7.5 44t3.5 55t1.5 60.5t0.5 70q0 47 -0.5 73t-1.5 61.5t-3.5 54.5t-7.5 43t-12 35.5t-17 23t-24 16t-32 4.5q-26 0 -44 -7.5 t-29.5 -29.5t-18 -42.5t-9.5 -65.5t-3.5 -77.5t-0.5 -99.5z" />
<glyph unicode="&#x26;" horiz-adv-x="1683" d="M133 362q0 137 74 222t248 123q-91 82 -136 166t-45 188q0 82 26 149t70.5 112t105 75.5t128 44.5t141.5 14q207 0 308.5 -73t101.5 -199q0 -218 -330 -332q44 -30 149.5 -97t184 -122.5t137.5 -112.5q32 143 35 299h-162v41h357v-41h-144q-3 -194 -39 -346 q59 -65 92.5 -113.5t60 -128t26.5 -174.5q0 -144 -71.5 -276t-190 -212.5t-248.5 -80.5q-133 0 -207 55t-74 152q0 76 48 124t122 48q78 0 121 -38t43 -110q0 -29 -12 -73h-72q-36 -109 74 -109q99 0 154 96t55 234q0 87 -28 153.5t-81 137.5q-156 -178 -436 -178 q-127 0 -230 20.5t-184.5 64.5t-126.5 119.5t-45 177.5zM453 420q0 -72 9.5 -129.5t28 -100t45.5 -73t63.5 -49t80 -27t96.5 -8.5q216 0 344 168q-51 54 -111.5 103t-152.5 110q-13 8 -61.5 39.5t-63 41.5t-53.5 35.5t-57 39t-46.5 34t-50 37.5t-41.5 35q-30 -65 -30 -256z M551 1204q0 -95 49 -162.5t188 -164.5q27 14 47.5 31t34 33t23 38.5t14.5 40t7.5 46.5t3 49.5t0.5 55.5q0 242 -179 242q-35 0 -66 -10t-59.5 -32t-45.5 -65t-17 -102z" />
<glyph unicode="'" horiz-adv-x="380" d="M102 1530q80 41 134 41q31 0 50 -20t19 -56q0 -47 -18 -135l-82 -375h-43z" />
<glyph unicode="(" horiz-adv-x="718" d="M102 627q0 139 26.5 275t81 259t131 218t185 152.5t234.5 61.5v-41q-49 -2 -86.5 -18t-63.5 -40.5t-44 -69.5t-28 -89.5t-15.5 -118t-7 -138.5t-1.5 -165v-587q0 -89 2 -152t8 -130t16.5 -112t29 -87.5t44.5 -67.5t62.5 -40.5t83.5 -17.5v-43q-131 1 -241 57.5 t-186 149.5t-129 216.5t-77.5 256.5t-24.5 271z" />
<glyph unicode=")" horiz-adv-x="718" d="M-41 -285q49 2 86.5 18t63.5 40.5t44 69.5t28 89.5t15.5 118t7 138.5t1.5 165v588q0 104 -3 175.5t-11.5 145t-25 120t-43.5 86t-67.5 58.5t-95.5 21v43q131 -1 241 -57.5t185.5 -149.5t128.5 -216t77.5 -256t24.5 -271q0 -140 -26 -275.5t-80.5 -259t-131 -218 t-185 -152.5t-234.5 -62v41z" />
<glyph unicode="*" horiz-adv-x="1083" d="M123 1321q0 49 25.5 91t74.5 42q21 0 40.5 -10t28.5 -18t44 -40l186 -178l-90 359q67 53 135 53q44 0 72.5 -22.5t28.5 -59.5q0 -46 -27 -119l-80 -213l182 183q65 65 117 65q49 0 75 -38t26 -95q0 -39 -9 -76l-374 -67l270 -72q23 -6 38.5 -11.5t34 -16t28 -28.5 t9.5 -42q0 -52 -40 -90t-99 -62l-264 293l92 -385q-67 -53 -135 -53q-44 0 -72 22t-28 60q0 45 18 100l88 258l-254 -295q-56 21 -97.5 60t-41.5 92q0 24 9 41t29 28.5t38.5 18t50.5 14.5l244 68l-365 67q-8 33 -8 76z" />
<glyph unicode="+" d="M78 616v68h420v401h77v-401h433v-68h-433v-428h-77v428h-420z" />
<glyph unicode="," horiz-adv-x="536" d="M72 166q0 74 48 121t126 47q92 0 145 -65.5t53 -164.5q0 -120 -63 -219t-205 -204l-24 30q126 108 165 169t39 126q0 42 -18.5 63t-44.5 25l-98 -88q-47 16 -85 58.5t-38 101.5z" />
<glyph unicode="-" horiz-adv-x="720" d="M102 569v62h516v-62h-516z" />
<glyph unicode="." horiz-adv-x="542" d="M92 156q0 78 46.5 129t129.5 51q84 0 133.5 -43.5t49.5 -130.5q0 -83 -46 -132.5t-131 -49.5q-94 0 -138 52t-44 124z" />
<glyph unicode="/" horiz-adv-x="718" d="M16 -199l605 1827h81l-602 -1827h-84z" />
<glyph unicode="0" horiz-adv-x="1359" d="M61 719q0 196 45.5 340t130 229.5t195 126.5t248.5 41q140 0 250 -40t194 -125.5t129 -230t45 -341.5t-46 -342t-130.5 -230.5t-194 -126t-247.5 -40.5q-158 0 -277.5 55t-193.5 154.5t-111 232.5t-37 297zM481 612q0 -302 13 -394q18 -131 81 -171q39 -24 105 -24 q49 0 82.5 11.5t56 46t35 70t18.5 113t7.5 143t1.5 189.5v180q0 332 -13 431q-17 137 -77 178q-40 28 -111 28q-107 0 -150 -78q-41 -76 -47 -295q-2 -73 -2 -245v-183z" />
<glyph unicode="1" horiz-adv-x="870" d="M31 1393l463 63h165v-1417h160v-39h-774v39h215v1341l-225 -28z" />
<glyph unicode="2" horiz-adv-x="1130" d="M72 1143q0 138 118 225.5t355 87.5q239 0 367 -87.5t128 -264.5q0 -160 -110.5 -273.5t-488.5 -385.5q-38 -28 -58 -42l-125 -90h492q74 0 124.5 16.5t81.5 52t48 78t30 107.5h35l-20 -567h-963v238l207 190q106 97 173 172t118.5 159t73.5 172t22 195q0 157 -38.5 224 t-141.5 67q-82 0 -119 -46.5t-37 -106.5q0 -26 12 -60h62q16 -43 16 -92q0 -71 -51 -115.5t-129 -44.5q-90 0 -136 55t-46 136z" />
<glyph unicode="3" horiz-adv-x="1173" d="M61 289q0 85 48 140.5t139 55.5q77 0 126.5 -44t49.5 -115q0 -50 -16 -93h-64q-12 -35 -12 -67q0 -25 6 -47t22.5 -46t53 -38.5t90.5 -14.5q51 0 88 17t60 47.5t37 79t19 104t5 131.5q0 106 -21.5 178t-56 110.5t-88.5 64.5q-84 -18 -178 -27l-7 45q63 7 105.5 16t77 27 t54.5 42t33 63.5t18 88t5 119.5q0 144 -33.5 218.5t-117.5 74.5q-75 0 -109.5 -47.5t-34.5 -107.5q0 -23 13 -60h59q17 -46 17 -92q0 -71 -51.5 -115.5t-129.5 -44.5q-90 0 -136 55t-46 136q0 136 123 224.5t350 88.5q256 0 368.5 -83.5t112.5 -242.5q0 -133 -109.5 -220.5 t-314.5 -121.5v-4q255 -18 375.5 -118t120.5 -260q0 -196 -158.5 -311t-441.5 -115q-63 0 -122.5 8.5t-120.5 30.5t-106 55.5t-73.5 89t-28.5 125.5z" />
<glyph unicode="4" horiz-adv-x="1234" d="M10 367v39l578 1028h354v-1018h203v178h39v-379h-39v152h-203v-328h141v-39h-710v39h192v328h-555zM76 416h489v862z" />
<glyph unicode="5" horiz-adv-x="1105" d="M33 295q0 81 48 135.5t138 54.5q79 0 127.5 -41.5t48.5 -117.5q0 -56 -18 -105h-68q-12 -34 -12 -67q0 -23 7 -44.5t23 -42.5t48 -34t76 -13q32 0 57.5 7t44 24t32 35.5t22 52.5t13.5 62.5t7.5 77.5t3 87t0.5 101q0 84 -3.5 137t-14.5 100t-31.5 72t-53.5 39t-82 14 q-119 0 -262 -88l-34 17v653l32 25q123 -18 377.5 -44t300.5 -26q34 0 52 19.5t30 66.5l31 -4q-16 -166 -36.5 -253.5t-46 -119t-67.5 -31.5q-13 0 -27 1.5t-33.5 6t-31 7t-39.5 10t-39 10.5l-446 117l-10 -397q150 80 321 80q119 0 212 -24.5t151 -64.5t95.5 -96.5 t52.5 -116t15 -126.5q0 -220 -156.5 -345.5t-430.5 -125.5q-54 0 -107.5 8t-112 30.5t-103 56.5t-73 91t-28.5 129z" />
<glyph unicode="6" horiz-adv-x="1261" d="M70 631q0 396 177 610.5t486 214.5q211 0 323.5 -85.5t112.5 -221.5q0 -79 -50 -135t-138 -56q-75 0 -124.5 44.5t-49.5 115.5q0 48 16 94h66q12 34 12 74q0 129 -149 129q-94 0 -153 -61t-91.5 -210t-34.5 -399q105 166 324 166q188 0 305 -109.5t117 -314.5 q0 -234 -154 -370.5t-412 -136.5q-583 0 -583 651zM477 457v-80t1.5 -70.5t3.5 -65.5t6 -55.5t10.5 -49.5t15.5 -39t21.5 -33t28.5 -22t36 -15t45 -4q40 0 69.5 12.5t48 41.5t30 60.5t16.5 86t6.5 99.5t1.5 119q0 62 -0.5 100t-2.5 83t-6 71t-11 54.5t-17 43t-25 27.5 t-34.5 18t-44.5 5q-67 0 -114.5 -53t-69.5 -134q-15 -63 -15 -200z" />
<glyph unicode="7" horiz-adv-x="1044" d="M84 913l22 521h918v-222l-227 -397q-106 -186 -158 -300t-65 -174.5t-13 -137.5q0 -98 62 -185l-15 -24q-57 -14 -127 -14q-112 0 -174.5 60t-62.5 140q0 68 20.5 125.5t91 159t211.5 264.5l338 391h-524q-62 0 -99 -4.5t-66.5 -16t-46.5 -36.5t-29 -59t-23 -91h-33z" />
<glyph unicode="8" horiz-adv-x="1251" d="M51 371q0 168 114.5 265t344.5 112v6q-199 10 -309.5 99.5t-110.5 229.5q0 173 137.5 273t403.5 100q263 0 397.5 -94t134.5 -266q0 -146 -104 -236.5t-301 -105.5v-6q442 -38 442 -375q0 -196 -138.5 -294.5t-430.5 -98.5q-580 0 -580 391zM451 371q0 -189 35.5 -268.5 t144.5 -79.5q45 0 77 14.5t51.5 41t30.5 72t15 97.5t4 129q0 186 -37 268t-141 82q-107 0 -143.5 -82.5t-36.5 -273.5zM489 1096q0 -76 2 -117.5t9.5 -87t23.5 -67.5t43.5 -36t69.5 -14q28 0 49 7.5t35.5 18t24 34.5t15 44t8 61t3 70.5t0.5 86.5t-1.5 94t-6 77t-14 63.5 t-25 44t-39 29.5t-55.5 9q-39 0 -65 -14.5t-41.5 -38t-23.5 -67t-10 -86t-2 -111.5z" />
<glyph unicode="9" horiz-adv-x="1261" d="M47 969q0 126 46.5 222t128 152.5t183.5 84.5t222 28q273 0 421 -158.5t148 -492.5q0 -397 -172.5 -611t-480.5 -214q-214 0 -336.5 81t-122.5 213q0 82 50 142.5t138 60.5q77 0 125.5 -44t48.5 -116q0 -48 -16 -94h-61q-15 -35 -15 -73q0 -53 44 -91.5t130 -38.5 q92 0 148 61.5t85.5 209.5t31.5 399q-105 -166 -324 -166q-185 0 -303.5 119t-118.5 326zM449 993q0 -62 0.5 -100t2.5 -83t6 -70.5t11 -54t17 -43t25 -27.5t34.5 -18t44.5 -5q67 0 114.5 52.5t69.5 133.5q14 59 14 201v80t-1 70.5t-3.5 65.5t-6 55t-9.5 50t-14.5 39 t-20.5 33t-27 22t-34 15t-43 4q-36 0 -64 -11t-47 -28t-32 -48.5t-20.5 -61.5t-11 -79.5t-4.5 -89t-1 -102.5z" />
<glyph unicode=":" horiz-adv-x="542" d="M92 156q0 78 46.5 129t129.5 51q84 0 133.5 -43.5t49.5 -130.5q0 -83 -46 -132.5t-131 -49.5q-94 0 -138 52t-44 124zM92 834q0 78 46.5 129t129.5 51q84 0 133.5 -43.5t49.5 -130.5q0 -84 -46 -133.5t-131 -49.5q-94 0 -138 52.5t-44 124.5z" />
<glyph unicode=";" horiz-adv-x="536" d="M72 166q0 74 48 121t126 47q92 0 145 -65.5t53 -164.5q0 -120 -63 -219t-205 -204l-24 30q126 108 165 169t39 126q0 42 -18.5 63t-44.5 25l-98 -88q-47 16 -85 58.5t-38 101.5zM74 834q0 78 46.5 129t129.5 51q84 0 133.5 -43.5t49.5 -130.5q0 -83 -46 -132.5 t-131 -49.5q-94 0 -138 52t-44 124z" />
<glyph unicode="&#x3c;" d="M80 573v54l926 391v-72l-816 -344l816 -350v-76z" />
<glyph unicode="=" d="M78 389v68h930v-68h-930zM78 709v67h930v-67h-930z" />
<glyph unicode="&#x3e;" d="M80 176v72l815 348l-815 346v76l926 -397v-54z" />
<glyph unicode="?" horiz-adv-x="1187" d="M119 1143q0 133 120.5 223t346.5 90q224 0 345.5 -86.5t121.5 -253.5q0 -110 -54 -195t-151 -173l-309 -275v-119h-52v430q0 35 23 58l127 129q60 60 82 112t22 136q0 198 -184 198q-89 0 -129.5 -46.5t-40.5 -106.5q0 -26 12 -60h66q16 -43 16 -92q0 -71 -51 -115.5 t-129 -44.5q-90 0 -136 55t-46 136zM356 133q0 67 41.5 111.5t112.5 44.5t114.5 -38t43.5 -114q0 -72 -41 -114.5t-113 -42.5q-83 0 -120.5 44t-37.5 109z" />
<glyph unicode="@" horiz-adv-x="1800" d="M143 348q0 235 101 422t287.5 294t424.5 107q153 0 281.5 -44.5t222 -128t145.5 -211t52 -287.5q0 -256 -108 -385t-304 -129q-120 0 -180.5 39.5t-87.5 107.5q-54 -143 -201 -143q-143 0 -221 90.5t-78 220.5q0 104 25.5 190.5t67 144t95.5 97.5t110 58t112 18 q60 0 99 -19t79 -57l35 62h223l-66 -373q-24 -147 -24 -217q0 -83 24 -121.5t93 -38.5q41 0 84.5 28.5t82 81.5t63 139.5t24.5 190.5q0 299 -174 470t-488 171q-147 0 -280.5 -52.5t-236.5 -149t-163.5 -244t-60.5 -324.5q0 -146 43 -263.5t115 -194t170 -128.5t202.5 -74 t218.5 -22q276 0 477 170l33 -37q-91 -85 -230.5 -133.5t-281.5 -48.5q-129 0 -246 26.5t-219.5 84t-177.5 141t-118.5 204.5t-43.5 267zM715 205q0 -91 25.5 -131.5t78.5 -40.5q59 0 105 65.5t61 167.5l70 439q-58 61 -135 61q-49 0 -87 -44.5t-59.5 -108t-35.5 -145 t-18.5 -145.5t-4.5 -118z" />
<glyph unicode="A" horiz-adv-x="1421" d="M12 0v39h97l522 1407h168l516 -1407h94v-39h-670v39h146l-150 442h-405l-158 -442h154v-39h-314zM348 526h371l-178 537z" />
<glyph unicode="B" horiz-adv-x="1349" d="M43 0v39h133v1356h-133v39h612q284 0 427 -76.5t143 -259.5q0 -281 -338 -336v-4q409 -52 409 -357q0 -93 -31.5 -163t-86.5 -115t-138.5 -73t-178.5 -39t-216 -11h-602zM575 39h97q112 0 157 77.5t45 229.5v109q0 136 -55 203t-196 67h-48v-686zM575 764h54 q106 0 148 64.5t42 197.5v96q0 152 -37 212.5t-141 60.5h-66v-631z" />
<glyph unicode="C" horiz-adv-x="1413" d="M84 698q0 183 51.5 327t145 238.5t223 143.5t287.5 49q93 0 172.5 -16t132 -31.5t78.5 -15.5q23 0 33 9t22 32h22l17 -445h-37q-93 207 -190.5 316.5t-221.5 109.5q-158 0 -237.5 -149.5t-79.5 -462.5v-162q0 -290 84.5 -455.5t247.5 -165.5q119 0 220.5 113.5 t192.5 325.5h37l-14 -457h-23q-12 23 -22 32t-33 9q-25 0 -81 -15.5t-142.5 -31.5t-184.5 -16q-334 0 -517 179.5t-183 538.5z" />
<glyph unicode="D" horiz-adv-x="1546" d="M43 0v39h135v1356h-135v39h633q195 0 337.5 -37t244.5 -118t153 -215t51 -323q0 -170 -41 -299t-113 -212t-179.5 -135.5t-230 -73.5t-275.5 -21h-580zM578 39h77q207 0 296 146.5t89 490.5v119q0 149 -16 253.5t-46 172.5t-82 106.5t-115 53t-154 14.5h-49v-1356z" />
<glyph unicode="E" horiz-adv-x="1277" d="M43 0v45h121v1344h-121v45h1065l20 -406h-36q-44 105 -84 170t-93.5 110t-119.5 63t-160 18h-72v-633h70q96 0 161.5 73t92.5 195h31v-606h-35q-37 153 -100 218.5t-171 65.5h-49v-657h78q188 0 321 113t181 288h41l-17 -446h-1124z" />
<glyph unicode="F" horiz-adv-x="1212" d="M43 0v45h121v1344h-121v45h1065l20 -426h-36q-75 221 -174.5 301t-296.5 80h-58v-666h92q98 0 163.5 71t90.5 197h31v-606h-35q-34 154 -92 219.5t-158 65.5h-92v-625h254v-45h-774z" />
<glyph unicode="G" horiz-adv-x="1480" d="M84 698q0 183 51.5 327t145 238.5t223 143.5t287.5 49q93 0 175.5 -16t138 -31.5t81.5 -15.5q23 0 33 9t22 32h23l16 -445h-37q-47 95 -91 165t-97.5 132.5t-114 95.5t-125.5 33q-313 0 -313 -612v-162q0 -308 77 -464.5t220 -156.5q52 0 84 9.5t47 33t19.5 49t4.5 70.5 v398h-131v45h590v-45h-80v-578h-30q-20 28 -42 39.5t-63 11.5q-31 0 -98.5 -18.5t-153 -36.5t-162.5 -18q-334 0 -517 179.5t-183 538.5z" />
<glyph unicode="H" horiz-adv-x="1533" d="M43 0v39h121v1356h-121v39h639v-39h-119v-635h408v635h-121v39h641v-39h-121v-1356h121v-39h-641v39h121v668h-408v-668h119v-39h-639z" />
<glyph unicode="I" horiz-adv-x="727" d="M51 0v39h113v1356h-113v39h625v-39h-113v-1356h113v-39h-625z" />
<glyph unicode="J" horiz-adv-x="1058" d="M53 223q0 87 49.5 138t133.5 51q85 0 127.5 -43.5t42.5 -114.5q0 -47 -23 -111h-80q-18 -30 -18 -53q0 -32 28 -52t72 -20q56 0 82.5 27.5t36.5 97t10 219.5v1033h-154v39h666v-39h-113v-885q0 -276 -125 -402t-374 -126q-166 0 -263.5 63.5t-97.5 177.5z" />
<glyph unicode="K" horiz-adv-x="1503" d="M51 0v39h113v1356h-113v39h625v-39h-113v-647l17 4l577 643h-162v39h359v-39h-123l-352 -394l491 -962h111v-39h-658v39h97l-338 653l-19 -4v-649h113v-39h-625z" />
<glyph unicode="L" horiz-adv-x="1220" d="M43 0v45h121v1344h-121v45h737v-45h-217v-1344h74q47 0 88.5 8t78 25t67.5 38t60 52.5t52.5 63t49 75t46 82t45.5 90.5h43l-39 -479h-1085z" />
<glyph unicode="M" horiz-adv-x="1720" d="M51 0v39h113v1356h-113v39h553l273 -1055l245 1055h547v-39h-113v-1356h113v-39h-625v39h113v1280h-8l-307 -1319h-256l-361 1325h-8v-1286h113v-39h-279z" />
<glyph unicode="N" horiz-adv-x="1372" d="M51 0v39h113v1356h-113v39h565l537 -1028v989h-113v39h281v-39h-113v-1395h-286l-703 1325v-1286h113v-39h-281z" />
<glyph unicode="O" horiz-adv-x="1531" d="M84 694q0 358 181 560t519 202q326 0 495 -191t169 -544t-171 -547t-517 -194q-337 0 -506.5 185t-169.5 529zM504 629q0 -91 2 -155.5t8.5 -132.5t18 -113t31 -87t47.5 -66t67 -38t90 -14q57 0 98.5 15.5t70 52t46.5 82t27.5 120t12.5 151.5t3 189v151q0 123 -2 194.5 t-10 153.5t-24.5 125.5t-45 84t-72 56t-104.5 15.5q-41 0 -74.5 -8.5t-59 -23t-45 -41t-33.5 -54.5t-23.5 -72.5t-15 -85.5t-8.5 -103t-4 -116t-1 -133v-147z" />
<glyph unicode="P" horiz-adv-x="1298" d="M31 0v39h133v1356h-133v39h602q152 0 259.5 -19t189.5 -64t122.5 -125.5t40.5 -199.5q0 -102 -31.5 -179t-87.5 -126t-141 -79t-182.5 -42t-222.5 -12h-17v-549h256v-39h-788zM563 627h43q124 0 170.5 84t46.5 272v98q0 175 -44.5 244.5t-160.5 69.5h-55v-768z" />
<glyph unicode="Q" horiz-adv-x="1531" d="M84 694q0 358 181 560t519 202q326 0 495 -191t169 -544q0 -325 -143.5 -510.5t-438.5 -212.5v-14q116 -12 173 -63.5t85 -137.5q30 -85 51.5 -115t67.5 -30q40 0 62.5 39t29.5 124l45 -4q-4 -135 -83.5 -206.5t-209.5 -71.5q-81 0 -141.5 20t-100.5 59.5t-65 86 t-45 112.5q-26 85 -44 109t-48 24q-57 0 -151 -84l-29 33q33 33 84.5 63t101.5 38v12q-278 29 -421.5 210.5t-143.5 491.5zM504 629q0 -91 2 -155.5t8.5 -132.5t18 -113t31 -87t47.5 -66t67 -38t90 -14q57 0 98.5 15.5t70 52t46.5 82t27.5 120t12.5 151.5t3 189v151 q0 123 -2 194.5t-10 153.5t-24.5 125.5t-45 84t-72 56t-104.5 15.5q-41 0 -74.5 -8.5t-59 -23t-45 -41t-33.5 -54.5t-23.5 -72.5t-15 -85.5t-8.5 -103t-4 -116t-1 -133v-147z" />
<glyph unicode="R" horiz-adv-x="1466" d="M31 0v39h133v1356h-133v39h618q98 0 170.5 -3.5t142 -12.5t117 -25t88.5 -42t65 -62t37 -85.5t13 -113.5q0 -92 -23 -156t-70.5 -102.5t-108 -57.5t-146.5 -26v-7q167 -22 232 -98.5t65 -253.5v-108q0 -107 11 -144t52 -37q16 0 27 5.5t24 22.5t23.5 53.5t20.5 94.5 l34 -4q-23 -175 -79 -233.5t-199 -58.5q-194 0 -264 78.5t-70 295.5v150q0 115 -29.5 168t-109.5 53h-109v-686h133v-39h-665zM563 764h66q117 0 173 71.5t56 233.5v59q0 84 -14.5 138t-46 81.5t-69.5 37.5t-97 10h-68v-631z" />
<glyph unicode="S" horiz-adv-x="1228" d="M104 467h35q40 -81 94.5 -156.5t122 -141.5t148.5 -106t162 -40q65 0 122 21.5t97.5 72t40.5 121.5q0 50 -16.5 89.5t-43.5 67.5t-78 53.5t-104 44t-137 42.5q-82 23 -141.5 47t-118.5 62.5t-95 86.5t-58.5 119.5t-22.5 161.5q0 87 32 166t91.5 141.5t153.5 99.5t208 37 q82 0 157.5 -16t128.5 -31.5t79 -15.5q24 0 35.5 9t23.5 32h22l15 -414h-33q-36 64 -67.5 114t-76.5 105t-90 91t-102.5 59.5t-118.5 23.5q-110 0 -180 -58t-70 -149q0 -45 17.5 -80.5t44 -60t75 -47t94 -37t116.5 -33.5q60 -16 99 -28t94.5 -34t91.5 -45t76 -59.5 t63.5 -79.5t39 -102.5t15.5 -130.5q0 -221 -138 -355t-364 -134q-87 0 -181 15t-160.5 30.5t-86.5 15.5q-23 0 -35 -14t-26 -47h-29z" />
<glyph unicode="T" horiz-adv-x="1398" d="M74 920l20 514h1209l20 -514h-39q-26 79 -45 132t-42 107t-43 87.5t-45 64t-52 46.5t-60 25t-73 9h-25v-1348h174v-43h-747v43h174v1348h-27q-46 0 -83.5 -12t-69.5 -40.5t-57.5 -63.5t-51.5 -93t-47.5 -116t-50.5 -146h-39z" />
<glyph unicode="U" horiz-adv-x="1398" d="M43 1395v39h645v-39h-133v-959q0 -91 12.5 -156.5t45 -121t94 -83.5t153.5 -28q161 0 250.5 104.5t89.5 317.5v926h-133v39h299v-39h-113v-912q0 -99 -14 -173.5t-49.5 -139t-94.5 -105t-150.5 -63t-215.5 -22.5q-104 0 -188 15.5t-157.5 52.5t-122.5 96.5t-77 150.5 t-28 211v889h-113z" />
<glyph unicode="V" horiz-adv-x="1402" d="M12 1395v39h670v-39h-145l344 -1024l356 1024h-160v39h314v-39h-97l-493 -1415h-172l-523 1415h-94z" />
<glyph unicode="W" horiz-adv-x="2078" d="M12 1395v39h666v-39h-143l333 -981l170 590l-123 391h-116v39h635v-39h-121l305 -969l246 969h-207v39h409v-39h-135l-377 -1415h-182l-303 925l-266 -925h-178l-516 1415h-97z" />
<glyph unicode="X" horiz-adv-x="1456" d="M-12 1393v41h690v-41h-139l276 -496l309 496h-213v41h420v-41h-135l-346 -553l465 -801h119v-39h-701v39h135l-305 541l-325 -541h217v-39h-424v39h137l358 602l-428 752h-110z" />
<glyph unicode="Y" horiz-adv-x="1312" d="M12 1401v33h656v-33h-133l278 -641l291 641h-207v33h403v-33h-135l-309 -684v-678h125v-39h-649v39h125v639l-348 723h-97z" />
<glyph unicode="Z" horiz-adv-x="1253" d="M98 0v39l613 1350h-84q-95 0 -159 -17t-121 -66.5t-102.5 -123t-107.5 -201.5h-37l31 453h1014v-45l-606 -1342h69q184 0 324.5 118t202.5 335h36l-24 -500h-1049z" />
<glyph unicode="[" horiz-adv-x="673" d="M125 -328v1927h590v-36h-92q-75 0 -97 -18.5t-22 -88.5v-1638q0 -76 19.5 -92.5t97.5 -16.5h94v-37h-590z" />
<glyph unicode="\" horiz-adv-x="718" d="M16 1628h84l605 -1827h-87z" />
<glyph unicode="]" horiz-adv-x="671" d="M-41 -291h94q78 0 97.5 16.5t19.5 92.5v1638q0 70 -22 88.5t-97 18.5h-92v36h590v-1927h-590v37z" />
<glyph unicode="^" horiz-adv-x="1146" d="M123 614l387 746h100l414 -746l-76 -30l-389 688l-358 -690z" />
<glyph unicode="_" horiz-adv-x="1024" d="M0 -141h1024v-76h-1024v76z" />
<glyph unicode="`" horiz-adv-x="1024" d="M276 1411q0 45 34 74.5t98 15.5l96 -20l129 -391l-23 -15l-274 228q-60 54 -60 108z" />
<glyph unicode="a" horiz-adv-x="1124" d="M41 227q0 61 21.5 106t59.5 73t98.5 45t129.5 23.5t162 6.5h59v158q0 195 -21 261.5t-83 66.5q-36 0 -66 -19t-30 -63q0 -25 12 -60h51q17 -46 17 -92q0 -71 -51.5 -115.5t-129.5 -44.5q-91 0 -133.5 45.5t-42.5 124.5q0 252 428 252q243 0 336.5 -83t93.5 -304v-415 q0 -107 60 -107q70 0 82 211l30 -2q-7 -180 -66.5 -247.5t-195.5 -67.5q-244 0 -282 151q-26 -77 -79.5 -114t-156.5 -37q-303 0 -303 247zM430 229q0 -106 11 -137t42 -31q33 0 60.5 53t27.5 144v191h-14q-127 0 -127 -187v-33z" />
<glyph unicode="b" horiz-adv-x="1204" d="M20 0v37h113v1462h-113v37h494v-717q37 84 100.5 130t173.5 46q179 0 277 -127t98 -383q0 -259 -105 -382t-317 -123q-106 0 -161.5 32.5t-77.5 108.5l-15 -121h-467zM514 250q0 -88 35.5 -149.5t97.5 -61.5q72 0 96.5 90.5t24.5 314.5v107q0 145 -9.5 221.5t-28.5 105.5 t-56 29q-67 0 -113.5 -74t-46.5 -202v-381z" />
<glyph unicode="c" horiz-adv-x="989" d="M31 475q0 254 144.5 387t402.5 133q182 0 278 -70.5t96 -189.5q0 -93 -46 -142.5t-124 -49.5q-83 0 -132.5 43.5t-49.5 126.5q0 37 10 73h68q14 41 14 74q0 50 -26.5 74t-71.5 24q-90 0 -129 -97.5t-39 -325.5v-107q0 -203 45 -291t162 -88q66 0 119.5 25.5t87 67.5 t53 85.5t29.5 89.5l36 -4q-8 -39 -18.5 -69.5t-30.5 -72.5t-51.5 -73t-76 -59.5t-111 -43.5t-148.5 -15q-237 0 -364 128t-127 367z" />
<glyph unicode="d" horiz-adv-x="1204" d="M41 485q0 510 405 510q179 0 238 -100v604h-125v37h512v-1499h100v-37h-454l-23 143q-34 -81 -100.5 -122t-181.5 -41q-175 0 -273 126.5t-98 378.5zM436 424q0 -147 10.5 -222t33.5 -104.5t69 -29.5q53 0 97 53t44 158v446q0 89 -34.5 150t-98.5 61q-72 0 -96.5 -90.5 t-24.5 -315.5v-106z" />
<glyph unicode="e" horiz-adv-x="1056" d="M31 485q0 129 41.5 228.5t115 160t167 91t202.5 30.5q238 0 347 -117.5t100 -349.5h-578v-79q0 -98 10 -167t36 -125.5t74.5 -85t121.5 -28.5q112 0 188.5 66.5t110.5 187.5l37 -6q-19 -71 -49.5 -124t-81 -97t-129.5 -67t-185 -23q-264 0 -396 136t-132 369zM428 569 h211v101q0 167 -19.5 226.5t-80.5 59.5q-56 0 -83.5 -64.5t-27.5 -221.5v-101z" />
<glyph unicode="f" horiz-adv-x="784" d="M14 938v37h119v8q0 145 25 252t81 187t152 120.5t232 40.5q91 0 158 -21t101.5 -56.5t50 -73t15.5 -78.5q0 -88 -47 -133t-123 -45q-80 0 -122 39.5t-42 105.5q0 34 13 88h78q19 50 12 80.5t-27 44.5t-49 14q-41 0 -66.5 -15.5t-38.5 -49.5t-17.5 -75t-4.5 -105v-328h270 v-37h-270v-901h250v-37h-744v37h113v901h-119z" />
<glyph unicode="g" horiz-adv-x="1069" d="M-20 -293q0 120 157 164l123 -55q-16 -60 -16 -113q0 -176 262 -176q159 0 245.5 59t86.5 158q0 52 -20 80t-76.5 42.5t-163.5 14.5h-199q-87 0 -150.5 16.5t-96.5 45.5t-47.5 60.5t-14.5 68.5q0 57 27 102t72 80t134 88q-121 34 -179 109t-58 202q0 154 110.5 248 t331.5 94q74 0 125 -11.5t102 -39.5q-12 56 -12 100q0 60 19 104.5t50.5 68t64.5 34.5t67 11q74 0 120 -40t46 -112q0 -67 -37 -101t-92 -34q-48 0 -82 28t-37 78l57 35q5 27 -7 45.5t-42 18.5q-88 0 -88 -136q0 -53 14 -122q72 -48 114 -108t42 -152q0 -171 -112.5 -261 t-305.5 -90q-75 0 -166 17q-90 -56 -90 -86q0 -10 9.5 -16t39 -9.5t82.5 -3.5h209q75 0 137.5 -7.5t125.5 -30t105.5 -58.5t69.5 -96.5t27 -141.5q0 -87 -32.5 -157t-100.5 -123t-180.5 -82t-264.5 -29q-258 0 -381.5 57.5t-123.5 161.5zM408 588q0 -94 12 -147t31.5 -71 t52.5 -18q31 0 48.5 16t29.5 72t12 158v100q0 110 -11.5 169t-28.5 75t-48 16q-32 0 -51.5 -17.5t-33 -76.5t-13.5 -166v-110z" />
<glyph unicode="h" horiz-adv-x="1261" d="M20 0v37h113v1462h-113v37h494v-750q15 44 35 77t54 65t88.5 49.5t127.5 17.5q318 0 318 -342v-616h114v-37h-579v37h84v665q0 85 -9 128t-24 55t-43 12q-66 0 -116 -86.5t-50 -208.5v-565h88v-37h-582z" />
<glyph unicode="i" horiz-adv-x="649" d="M12 938v37h502v-938h115v-37h-609v37h113v901h-121zM121 1307q0 83 50.5 136.5t158.5 53.5q97 0 149.5 -47.5t52.5 -140.5q0 -87 -50.5 -140t-155.5 -53q-59 0 -101.5 17t-64 46.5t-30.5 60.5t-9 67z" />
<glyph unicode="j" horiz-adv-x="636" d="M-307 -285q0 88 53.5 136.5t134.5 48.5q78 0 118 -44t40 -114q0 -36 -12 -86h-78q-33 -56 -9.5 -94.5t78.5 -38.5q48 0 71.5 30t33.5 105.5t10 226.5v1053h-133v37h514v-799q0 -164 -26.5 -288t-84 -215t-154 -138t-229.5 -47q-89 0 -155 20.5t-102 54.5t-53 72t-17 80z M119 1307q0 83 50.5 136.5t158.5 53.5q97 0 149.5 -47.5t52.5 -140.5q0 -87 -50.5 -140t-155.5 -53q-59 0 -101.5 17t-64 46.5t-30.5 60.5t-9 67z" />
<glyph unicode="k" horiz-adv-x="1269" d="M12 1499v37h502v-993l33 12l461 383h-193v37h404v-37h-144l-244 -207l355 -694h74v-37h-570v37h94l-231 475l-39 -10v-465h94v-37h-588v37h113v1462h-121z" />
<glyph unicode="l" horiz-adv-x="647" d="M12 1499v37h502v-1499h115v-37h-609v37h113v1462h-121z" />
<glyph unicode="m" horiz-adv-x="1818" d="M20 0v37h113v901h-113v37h494v-189q14 43 33.5 76.5t52 65.5t84.5 49.5t119 17.5q240 0 289 -221q14 42 36 78t57 70t88.5 53.5t119.5 19.5q141 0 221 -82t80 -260v-616h114v-37h-567v37h72v665q0 84 -8 128t-19.5 55.5t-32.5 11.5q-58 0 -103.5 -79.5t-45.5 -203.5v-577 h74v-37h-527v37h72v665q0 84 -7.5 128t-19 55.5t-32.5 11.5q-58 0 -104 -86.5t-46 -208.5v-565h74v-37h-568z" />
<glyph unicode="n" horiz-adv-x="1261" d="M25 0v37h112v901h-112v37h493v-189q15 44 35 77t54 65t88.5 49.5t127.5 17.5q318 0 318 -342v-616h114v-37h-579v37h84v665q0 85 -9 128t-24 55t-43 12q-66 0 -116 -86.5t-50 -208.5v-565h88v-37h-581z" />
<glyph unicode="o" horiz-adv-x="1112" d="M37 483q0 249 139.5 380.5t390.5 131.5q258 0 383 -122t125 -371q0 -258 -126 -390t-394 -132q-255 0 -386.5 130.5t-131.5 372.5zM430 408q0 -53 0.5 -85.5t2 -75.5t5.5 -68.5t10 -55.5t15.5 -46.5t22.5 -32t31.5 -22t41.5 -6.5q29 0 49.5 9t34 33t21.5 50.5t12 77 t5 95.5t1 122v175q0 48 -0.5 80t-2 72t-5.5 66t-9.5 54.5t-14.5 46t-21.5 32.5t-29.5 22t-38 7q-26 0 -46.5 -10t-34 -26t-23.5 -45.5t-15 -57.5t-8 -74t-3.5 -83t-0.5 -95v-159z" />
<glyph unicode="p" horiz-adv-x="1204" d="M20 -451h113v1389h-108v37h485v-162q80 182 283 182q176 0 273 -127.5t97 -382.5q0 -259 -105 -382t-317 -123q-98 0 -147.5 24.5t-79.5 75.5v-531h264v-36h-758v36zM514 250q0 -89 34.5 -150t98.5 -61q72 0 96.5 90.5t24.5 314.5v107q0 145 -9.5 221.5t-28.5 105.5 t-56 29q-66 0 -113 -77t-47 -205v-375z" />
<glyph unicode="q" horiz-adv-x="1204" d="M41 489q0 260 105 383t317 123q86 0 144 -30t95 -99l15 109h467v-37h-113v-1389h100v-36h-690v36h209v607q-37 -84 -101 -130t-175 -46q-178 0 -275.5 127t-97.5 382zM436 424q0 -145 9.5 -221.5t28.5 -105.5t56 -29q67 0 113.5 74t46.5 202v381q0 89 -36 150t-99 61 q-71 0 -95 -91.5t-24 -314.5v-106z" />
<glyph unicode="r" horiz-adv-x="1013" d="M20 0v37h113v901h-113v37h494v-197q27 105 102 161t172 56t157.5 -54t60.5 -165q0 -89 -45 -141.5t-127 -52.5q-104 0 -148 61.5t-12 169.5h74q22 41 16.5 64.5t-20.5 32t-39 8.5q-75 0 -133 -98t-58 -234v-549h145v-37h-639z" />
<glyph unicode="s" horiz-adv-x="888" d="M68 -20v366h24q54 -178 144 -249.5t225 -71.5q209 0 209 133q0 21 -6 37.5t-22 30t-31 23t-46 20.5t-53 17t-65 18l-33 9q-41 11 -71 20.5t-68.5 26t-66 33.5t-55.5 42.5t-45.5 55.5t-28.5 70.5t-11 87.5q0 157 98.5 251.5t261.5 94.5q104 0 207 -47q5 -2 12.5 -5.5 t11.5 -4.5t9.5 -3t11 -2.5t12.5 -0.5q23 0 37 13.5t35 53.5h22v-313h-24q-55 139 -134 202.5t-190 63.5q-96 0 -143 -33.5t-47 -84.5q0 -25 12 -45t31 -33.5t49 -25.5t59 -20.5t69 -19.5q25 -7 38 -10q48 -13 82.5 -24.5t77.5 -31t72.5 -45t56 -60t40 -82.5t13.5 -107 q0 -171 -102.5 -260.5t-280.5 -89.5q-128 0 -246 59q-24 16 -39 16q-45 0 -88 -75h-24z" />
<glyph unicode="t" horiz-adv-x="806" d="M10 938v37h113v264l381 94v-358h266v-37h-266v-690q0 -97 19.5 -142t70.5 -45q72 0 118 61.5t60 168.5l35 -4q-7 -66 -25.5 -116.5t-55 -96t-101 -70t-154.5 -24.5q-82 0 -141 13.5t-108 47t-74 96.5t-25 156v645h-113z" />
<glyph unicode="u" horiz-adv-x="1239" d="M8 938v37h496v-703q0 -85 9 -129.5t24 -57.5t43 -13q64 0 104.5 63t40.5 176v627h-94v37h475v-938h113v-37h-467l-23 150q-33 -82 -97 -126t-192 -44q-317 0 -317 342v616h-115z" />
<glyph unicode="v" horiz-adv-x="1089" d="M0 938v37h612v-37h-129l246 -680l221 680h-137v37h277v-37h-91l-303 -938h-233l-379 938h-84z" />
<glyph unicode="w" horiz-adv-x="1708" d="M14 938v37h621v-37h-123l188 -696l148 479l-51 217h-76v37h528v-37h-84l185 -690l182 690h-141v37h276v-37h-86l-246 -938h-280l-178 629l-193 -629h-274l-304 938h-92z" />
<glyph unicode="x" horiz-adv-x="1218" d="M0 938v37h692v-37h-143l203 -334l241 334h-147v37h305v-37h-107l-266 -377l334 -524h107v-37h-684v37h145l-225 369l-234 -369h135v-37h-321v37h135l260 409l-311 492h-119z" />
<glyph unicode="y" horiz-adv-x="1089" d="M4 -305q0 76 45 121t119 45q80 0 125 -36t45 -106q0 -29 -12 -73h-72q-17 -46 -4 -77.5t55 -31.5q84 0 149.5 82.5t125.5 253.5l45 127h-181l-350 938h-84v37h594v-37h-110l223 -680l237 680h-137v37h289v-37h-102l-383 -1104q-67 -192 -151 -269t-210 -77 q-117 0 -186.5 55.5t-69.5 151.5z" />
<glyph unicode="z" horiz-adv-x="1064" d="M74 0v31l493 907h-22q-108 0 -173.5 -13.5t-115.5 -56t-80 -107t-63 -179.5h-27l27 393h860v-37l-486 -901h27q172 0 270 90.5t154 292.5h29l-33 -420h-860z" />
<glyph unicode="{" horiz-adv-x="772" d="M49 631v33q193 4 193 239q0 84 -30 228.5t-30 185.5q0 141 94 210.5t289 69.5q117 0 189 -26l-11 -33q-44 14 -81 14q-22 0 -39.5 -4.5t-35 -17.5t-27 -41t-9.5 -70q0 -61 28.5 -244t28.5 -253q0 -143 -79 -200.5t-269 -68.5v-4q183 -14 265.5 -74.5t82.5 -205.5 q0 -64 -28.5 -259.5t-28.5 -250.5q0 -80 32.5 -109t88.5 -29q41 0 90 17l10 -33q-80 -33 -176 -33q-212 0 -313 74.5t-101 222.5q0 33 30 187.5t30 236.5q0 56 -12 98.5t-30.5 68t-45 42t-51.5 22.5t-54 7z" />
<glyph unicode="|" horiz-adv-x="653" d="M287 -260v1888h80v-1888h-80z" />
<glyph unicode="}" horiz-adv-x="772" d="M0 -295l10 33q49 -17 90 -17q56 0 88.5 29t32.5 109q0 55 -28.5 250.5t-28.5 259.5q0 145 82.5 205.5t265.5 74.5v4q-190 11 -269 68.5t-79 200.5q0 70 28.5 253t28.5 244q0 79 -31 106t-79 27q-38 0 -82 -14l-11 33q71 26 189 26q195 0 289 -69.5t94 -210.5 q0 -41 -30 -185.5t-30 -228.5q0 -235 193 -239v-33q-29 -1 -54 -7t-51.5 -22.5t-45 -42t-30.5 -68t-12 -98.5q0 -82 30 -236.5t30 -187.5q0 -148 -101 -222.5t-313 -74.5q-96 0 -176 33z" />
<glyph unicode="~" d="M123 492q17 73 35 124.5t46.5 100t69 73.5t93.5 25q66 0 240 -41t247 -41q44 0 72 18.5t53 69.5l25 -6q-37 -140 -71.5 -212t-69.5 -95t-91 -23q-90 0 -274 47q-144 37 -203 37q-104 0 -148 -88z" />
<glyph unicode="&#xa1;" horiz-adv-x="772" d="M227 842q0 65 37.5 109t120.5 44q72 0 113 -42.5t41 -114.5q0 -76 -43.5 -114t-114.5 -38t-112.5 44.5t-41.5 111.5zM231 -315q0 67 21 158.5t46 171.5t46 195t21 224v176h45v-174q0 -110 22.5 -224t49 -192t49 -170.5t22.5 -164.5q0 -166 -156 -166q-70 0 -118 38.5 t-48 127.5z" />
<glyph unicode="&#xa2;" horiz-adv-x="1054" d="M111 606q0 231 136 353t378 122h18l49 219l58 -10l-48 -213q132 -15 202.5 -78.5t70.5 -158.5q0 -86 -40.5 -130t-113.5 -44q-153 0 -153 153q0 34 10 68h63q13 41 13 67q0 44 -35.5 68.5t-79.5 24.5q-85 0 -124.5 -91t-39.5 -297v-96q0 -183 45 -262.5t156 -79.5 q62 0 111.5 23.5t80 62t48.5 78.5t26 82l39 -8q-9 -44 -21 -78t-41.5 -79t-71 -75t-113 -51.5t-163.5 -21.5q-67 0 -116 8l-47 -215l-58 12l47 215q-140 40 -213 150t-73 282z" />
<glyph unicode="&#xa3;" horiz-adv-x="1189" d="M47 68q0 64 62 108t159 45q45 86 45 187q0 82 -57 202h-182v58h157q-31 52 -47 81.5t-39 79.5t-33 99.5t-10 101.5q0 203 147 314.5t396 111.5q216 0 332.5 -88.5t116.5 -224.5q0 -81 -46.5 -136t-136.5 -55q-78 0 -129 44.5t-51 115.5q0 46 17 92h63q12 34 12 70 q0 63 -34.5 103t-114.5 40q-40 0 -69 -8.5t-48 -29.5t-30 -44.5t-16.5 -66t-7 -81t-1.5 -102.5v-417h360v-58h-360v-61q0 -45 -9 -84t-21.5 -67.5t-41 -64t-50.5 -59t-67 -67.5l6 -10q101 68 169.5 99.5t129.5 31.5q44 0 99.5 -21t98 -45.5t87.5 -45.5t72 -21q54 0 78.5 40 t31.5 148l43 -2q-9 -196 -85.5 -308t-186.5 -112q-57 0 -103 12.5t-108 42.5l-311 148q-12 -93 -62.5 -140t-124.5 -47q-54 0 -77 27.5t-23 63.5z" />
<glyph unicode="&#xa4;" d="M104 1075l39 37l185 -145q92 63 213 63q124 0 200 -61l185 141l35 -33l-154 -174q57 -85 57 -201q0 -110 -61 -204l153 -201l-36 -35l-193 158q-75 -60 -192 -60q-123 0 -203 56l-182 -152l-37 37l147 182q-57 83 -57 213q0 108 59 197zM283 696q0 -122 60.5 -197 t193.5 -75q118 0 182.5 77.5t64.5 194.5q0 124 -63 199.5t-189 75.5q-123 0 -186 -78.5t-63 -196.5z" />
<glyph unicode="&#xa5;" horiz-adv-x="1247" d="M-8 1401v33h655v-33h-133l279 -600l290 600h-206v33h403v-33h-135l-303 -629h239v-57h-245v-150h245v-57h-245v-469h125v-39h-650v39h125v469h-233v57h233v150h-233v57h205l-320 629h-96z" />
<glyph unicode="&#xa6;" horiz-adv-x="653" d="M287 -260v895h80v-895h-80zM287 844v784h80v-784h-80z" />
<glyph unicode="&#xa7;" horiz-adv-x="1431" d="M143 856q0 119 33.5 218.5t91 169t135.5 118t166 71.5t183 23q218 0 327 -79t109 -214q0 -81 -46 -135.5t-136 -54.5q-78 0 -129.5 44.5t-51.5 115.5q0 46 17 92l73 16q13 37 13 74q0 51 -38 76.5t-124 25.5q-57 0 -99.5 -20.5t-68.5 -55t-42.5 -89t-23.5 -112.5 t-10 -136q140 -29 247 -64t204 -89.5t159.5 -123.5t99 -167t36.5 -220q0 -119 -33.5 -218.5t-91 -169t-135.5 -118t-166 -71.5t-183 -23q-218 0 -327 79t-109 214q0 81 46.5 135.5t136.5 54.5q78 0 129 -44.5t51 -115.5q0 -46 -17 -92l-73 -16q-13 -37 -13 -74 q0 -51 38.5 -76.5t123.5 -25.5q57 0 99.5 20.5t68.5 55.5t42.5 89.5t23 112.5t8.5 136q-140 29 -246.5 64t-203.5 89t-159 123t-98.5 167t-36.5 220zM522 879q0 -256 82.5 -406t284.5 -231v75q0 255 -82.5 405t-284.5 230v-73z" />
<glyph unicode="&#xa8;" horiz-adv-x="1024" d="M201 1266q0 63 40 106t111 43q69 0 111.5 -37.5t42.5 -111.5q0 -69 -40 -111.5t-112 -42.5q-79 0 -116 45t-37 109zM596 1266q0 63 40.5 106t111.5 43q69 0 111 -37.5t42 -111.5q0 -69 -39.5 -111.5t-111.5 -42.5q-80 0 -117 45t-37 109z" />
<glyph unicode="&#xa9;" horiz-adv-x="1599" d="M123 627q0 155 53 283.5t145.5 214t216.5 132t265 46.5q312 0 493 -176t181 -472q0 -207 -86 -361.5t-239 -235.5t-353 -81q-165 0 -294.5 48.5t-212.5 135.5t-126 205t-43 261zM176 629q0 -285 165.5 -444.5t457.5 -159.5q289 0 457.5 165t168.5 453q0 197 -81 337 t-220 208.5t-321 68.5q-134 0 -248.5 -42.5t-198.5 -121t-132 -198t-48 -266.5zM426 651q0 192 112.5 297t303.5 105q54 0 121 -20.5t71 -20.5q5 0 8.5 1.5t6.5 5.5t5 6.5t5 8.5l4 8h18l6 -243h-28q-32 95 -91 156t-116 61q-52 0 -79 -29.5t-39.5 -107t-12.5 -228.5 q0 -211 27 -287.5t104 -76.5q73 0 130 64t91 155h25l-8 -244h-21q-1 3 -4 8.5t-5 8.5t-5 7t-6.5 5.5t-8.5 1.5q-1 0 -72.5 -21.5t-133.5 -21.5q-191 0 -299.5 99t-108.5 302z" />
<glyph unicode="&#xaa;" horiz-adv-x="929" d="M55 983q0 54 24.5 90t74.5 55.5t113 27t153 7.5h45v113q0 137 -16 181t-64 44q-74 0 -74 -51q0 -20 8 -41h41q13 -39 13 -66q0 -51 -40 -82.5t-100 -31.5q-137 0 -137 121q0 180 332 180q187 0 259.5 -59t72.5 -218v-286q0 -76 45 -76q25 0 39 29t20 114l27 -4 q-4 -127 -50.5 -175t-150.5 -48q-189 0 -219 108q-20 -56 -60 -82t-120 -26q-236 0 -236 176zM356 985q0 -69 8.5 -91t32.5 -22q26 0 47 37t21 97v127h-10q-52 0 -75.5 -29t-23.5 -96v-23z" />
<glyph unicode="&#xab;" horiz-adv-x="1011" d="M102 461q0 35 27 78l363 282l18 -14l-176 -334l174 -358l-19 -15l-325 267q-33 28 -47.5 48.5t-14.5 45.5zM463 461q0 36 26 78l363 282l18 -14l-176 -334l174 -358l-18 -15l-326 267q-33 28 -47 48.5t-14 45.5z" />
<glyph unicode="&#xac;" d="M78 616v68h930v-342h-72v274h-858z" />
<glyph unicode="&#xad;" horiz-adv-x="696" d="M96 569v62h516v-62h-516z" />
<glyph unicode="&#xae;" horiz-adv-x="940" d="M82 969q0 175 111.5 281t277.5 106q178 0 282.5 -101.5t104.5 -271.5q0 -171 -108.5 -278t-280.5 -107q-186 0 -286.5 103t-100.5 268zM135 971q0 -154 88 -241t248 -87q154 0 245 90t91 244q0 157 -94.5 246.5t-241.5 89.5q-150 0 -243 -92t-93 -250zM270 793v16h45v360 h-45v17h213q80 0 118 -18t38 -74q0 -48 -33 -70t-98 -27v-2q78 -4 106.5 -25t28.5 -71v-47q0 -18 4 -25.5t15 -7.5q28 0 36 70l17 -2q-7 -52 -29.5 -76.5t-81.5 -24.5q-52 0 -76 18t-24 58v60q0 38 -8 51.5t-33 13.5h-6v-178h16v-16h-203zM457 1008h6q33 0 43 19t10 63 t-9 61.5t-40 17.5h-10v-161z" />
<glyph unicode="&#xaf;" horiz-adv-x="1024" d="M233 1130v195h558v-195h-558z" />
<glyph unicode="&#xb0;" horiz-adv-x="673" d="M82 1284q0 104 69 175t191 71q120 0 185 -66t65 -176q0 -109 -68 -180.5t-188 -71.5q-124 0 -189 68.5t-65 179.5zM156 1284q0 -85 47.5 -136.5t136.5 -51.5q82 0 131 52.5t49 135.5q0 87 -50 138t-136 51q-82 0 -130 -52.5t-48 -136.5z" />
<glyph unicode="&#xb1;" d="M78 0v68h930v-68h-930zM78 616v68h418v360h77v-360h435v-68h-435v-387h-77v387h-418z" />
<glyph unicode="&#xb2;" horiz-adv-x="854" d="M102 1483q0 86 78.5 144.5t218.5 58.5q153 0 240.5 -55.5t87.5 -168.5q0 -112 -85.5 -190.5t-344.5 -214.5l-78 -41h328q87 0 124 37.5t52 115.5h31l-15 -362h-622v172l131 104q129 103 176 188t47 216q0 82 -19 122t-79 40q-53 0 -81.5 -36.5t-4.5 -90.5h41 q10 -30 10 -60q0 -46 -32.5 -74t-80.5 -28q-60 0 -91.5 35t-31.5 88z" />
<glyph unicode="&#xb3;" horiz-adv-x="864" d="M100 971q0 52 33 88.5t90 36.5q50 0 81.5 -27t31.5 -72q0 -25 -12 -57h-31q-12 -24 -12 -45q0 -33 28.5 -52.5t73.5 -19.5q39 0 64 15t37.5 46t17 67.5t4.5 90.5q0 93 -23 136t-73 67q-33 -6 -111 -16l-4 37q110 10 142 50t32 163q0 87 -17 127.5t-65 40.5 q-40 0 -64 -19.5t-24 -54.5q0 -24 8 -45h33q12 -32 12 -58q0 -43 -33 -70.5t-83 -27.5q-57 0 -87 34t-30 85q0 81 78 133.5t219 52.5q159 0 229 -50.5t70 -145.5q0 -79 -68 -132t-194 -73v-2q157 -10 232 -70.5t75 -156.5q0 -118 -99 -187t-274 -69q-53 0 -98 7t-90.5 25.5 t-72 56t-26.5 91.5z" />
<glyph unicode="&#xb4;" horiz-adv-x="1024" d="M334 1090l129 391l96 20q64 14 97.5 -15t33.5 -75q0 -54 -59 -108l-275 -228z" />
<glyph unicode="&#xb5;" horiz-adv-x="1378" d="M164 -418v1426l385 18v-702v-9q0 -43 0.5 -64t2.5 -54t7 -49.5t14 -34.5t23.5 -25.5t34.5 -7.5q61 0 110.5 80t49.5 211v637l362 18v-852q0 -50 14.5 -69t44.5 -19q70 0 82 211l31 -2q-7 -180 -66.5 -247.5t-195.5 -67.5q-116 0 -184 55t-88 147q-32 -90 -100 -147.5 t-156 -57.5q-27 0 -49 3t-48.5 13.5t-49 29t-47.5 51.5t-46 78l-8 -7l119 -290q7 -18 20.5 -50.5t19 -45.5t13.5 -35.5t11.5 -34.5t6 -27t2.5 -27q0 -45 -41.5 -74t-87.5 -18z" />
<glyph unicode="&#xb6;" horiz-adv-x="1286" d="M154 893q0 118 39 216t113 171t190.5 113.5t263.5 40.5h465v-39h-133v-1422q0 -249 -128.5 -367t-379.5 -118q-81 0 -144 17.5t-100 44t-60.5 62.5t-31.5 69t-8 67q0 89 54 141t134 52q78 0 118 -44t40 -114q0 -32 -13 -86h-59q-44 -75 -20.5 -122.5t96.5 -47.5 q90 0 136 68t46 237v526h-39q-281 0 -430 140t-149 395zM756 -446q66 15 116 47.5t80 73.5t48.5 96t25 107t6.5 114v1403h-198v-1585q0 -186 -78 -256z" />
<glyph unicode="&#xb7;" horiz-adv-x="614" d="M143 657q0 78 46.5 129.5t129.5 51.5q84 0 133.5 -43.5t49.5 -130.5q0 -84 -46 -133.5t-130 -49.5q-94 0 -138.5 52.5t-44.5 123.5z" />
<glyph unicode="&#xb8;" horiz-adv-x="1024" d="M264 -367q0 42 24.5 67.5t63.5 25.5q36 0 60 -22.5t34 -55.5l-53 -41q0 -30 17 -53t53 -23q39 0 56.5 36t17.5 122q0 38 -1 59t-4.5 45t-10 36t-19 20t-31.5 8q-23 0 -61 -9l-7 19l97 160h53l-82 -140q49 7 68 7q110 0 162.5 -48.5t52.5 -134.5q0 -37 -14.5 -72.5 t-45 -68t-87.5 -52.5t-132 -20q-94 0 -152.5 38t-58.5 97z" />
<glyph unicode="&#xb9;" horiz-adv-x="870" d="M176 1642l295 39h145v-835h140v-39h-570v39h142v774l-148 -16z" />
<glyph unicode="&#xba;" horiz-adv-x="1001" d="M94 1165q0 178 106.5 271.5t309.5 93.5q397 0 397 -352q0 -371 -407 -371q-201 0 -303.5 92.5t-102.5 265.5zM397 1110q0 -71 3.5 -114t14 -81.5t32.5 -55.5t57 -17q64 0 82 56.5t18 209.5v123q0 67 -3 109t-12.5 80t-30 55.5t-52.5 17.5q-28 0 -48 -12.5t-32 -34 t-18.5 -57t-8.5 -73t-2 -91.5v-115z" />
<glyph unicode="&#xbb;" horiz-adv-x="1011" d="M143 115l174 334l-172 356l17 16l325 -266q33 -28 47.5 -48.5t14.5 -45.5q0 -35 -27 -78l-362 -283zM504 115l174 334l-172 356l16 16l326 -266q33 -28 47 -48.5t14 -45.5q0 -36 -26 -78l-363 -283z" />
<glyph unicode="&#xbc;" horiz-adv-x="1679" d="M90 1397l295 39h145v-836h140v-39h-570v39h142v774l-148 -16zM489 0l658 1434h70l-656 -1434h-72zM846 201v43l358 616h260v-610h127v106h39v-241h-39v86h-127v-162h88v-39h-481v39h119v162h-344zM905 250h285v487z" />
<glyph unicode="&#xbd;" horiz-adv-x="1679" d="M68 1397l294 39h146v-836h139v-39h-569v39h141v774l-147 -16zM467 0l657 1434h70l-655 -1434h-72zM961 676q0 86 78 144.5t218 58.5q153 0 240.5 -55.5t87.5 -168.5q0 -112 -85.5 -190.5t-344.5 -214.5l-78 -41h328q87 0 124 37.5t52 115.5h31l-15 -362h-622v172l131 104 q129 103 176 188t47 216q0 82 -19 122t-79 40q-53 0 -81.5 -36.5t-4.5 -90.5h41q10 -30 10 -60q0 -46 -32.5 -74t-80.5 -28q-60 0 -91 35t-31 88z" />
<glyph unicode="&#xbe;" horiz-adv-x="1679" d="M57 725q0 52 33 88.5t90 36.5q50 0 81.5 -26.5t31.5 -71.5q0 -26 -12 -58h-31q-12 -24 -12 -45q0 -33 28.5 -52t73.5 -19q39 0 64 15t37.5 46t17 67.5t4.5 90.5q0 92 -23 135t-73 67q-33 -6 -111 -16l-4 37q110 10 142 50t32 163q0 87 -17 127.5t-65 40.5 q-40 0 -64 -19.5t-24 -54.5q0 -24 8 -45h33q12 -32 12 -57q0 -43 -33 -71t-83 -28q-57 0 -87 34t-30 85q0 81 78 134t219 53q159 0 229 -50.5t70 -146.5q0 -79 -68 -132t-194 -73v-2q157 -10 232 -70.5t75 -156.5q0 -118 -99 -187t-274 -69q-53 0 -98 7t-90.5 25.5t-72 56 t-26.5 91.5zM520 0l658 1434h69l-655 -1434h-72zM877 201v43l358 616h260v-610h127v106h39v-241h-39v86h-127v-162h88v-39h-481v39h119v162h-344zM936 250h285v487z" />
<glyph unicode="&#xbf;" horiz-adv-x="1187" d="M143 -141q0 110 54 195t151 173l309 275v119h52v-431q0 -34 -23 -57l-127 -129q-60 -60 -82 -112t-22 -136q0 -198 184 -198q89 0 129.5 46.5t40.5 106.5q0 25 -12 60h-66q-16 43 -16 92q0 71 51 115.5t129 44.5q90 0 136 -55t46 -136q0 -133 -120.5 -223t-346.5 -90 q-224 0 -345.5 86.5t-121.5 253.5zM528 838q0 72 41 114.5t113 42.5q83 0 120.5 -44t37.5 -109q0 -67 -41.5 -111.5t-112.5 -44.5t-114.5 38t-43.5 114z" />
<glyph unicode="&#xc0;" horiz-adv-x="1421" d="M12 0v39h97l522 1407h168l516 -1407h94v-39h-670v39h146l-150 442h-405l-158 -442h154v-39h-314zM348 526h371l-178 537zM477 1753q0 35 23.5 61.5t74.5 30.5l99 8l235 -331l-16 -21l-326 133q-42 17 -66 49t-24 70z" />
<glyph unicode="&#xc1;" horiz-adv-x="1421" d="M12 0v39h97l522 1407h168l516 -1407h94v-39h-670v39h146l-150 442h-405l-158 -442h154v-39h-314zM348 526h371l-178 537zM535 1522l235 331l98 -8q51 -4 75 -30.5t24 -61.5q0 -38 -24 -70t-66 -49l-326 -133z" />
<glyph unicode="&#xc2;" horiz-adv-x="1421" d="M12 0v39h97l522 1407h168l516 -1407h94v-39h-670v39h146l-150 442h-405l-158 -442h154v-39h-314zM348 526h371l-178 537zM403 1522l218 303q60 33 112 33q54 0 86.5 -20t57.5 -62l151 -254l-18 -21l-291 139l-299 -139z" />
<glyph unicode="&#xc3;" horiz-adv-x="1421" d="M12 0v39h97l522 1407h168l516 -1407h94v-39h-670v39h146l-150 442h-405l-158 -442h154v-39h-314zM348 526h371l-178 537zM408 1546q17 56 26.5 84.5t25 68t29.5 58t34.5 38t46 27t57.5 7.5q54 0 158 -41t139 -41q26 0 44 4t39.5 24.5t34.5 57.5l27 -8 q-41 -162 -87 -223.5t-122 -61.5q-59 0 -167.5 41t-147.5 41q-78 0 -113 -84z" />
<glyph unicode="&#xc4;" horiz-adv-x="1421" d="M12 0v39h97l522 1407h168l516 -1407h94v-39h-670v39h146l-150 442h-405l-158 -442h154v-39h-314zM348 526h371l-178 537zM365 1681q0 63 40 106.5t111 43.5q69 0 111.5 -38t42.5 -112q0 -69 -40 -111t-112 -42q-79 0 -116 44.5t-37 108.5zM760 1681q0 63 40 106.5 t111 43.5q69 0 111.5 -38t42.5 -112q0 -69 -40 -111t-112 -42q-79 0 -116 44.5t-37 108.5z" />
<glyph unicode="&#xc5;" horiz-adv-x="1421" d="M12 0v39h97l522 1407h168l516 -1407h94v-39h-670v39h146l-150 442h-405l-158 -442h154v-39h-314zM348 526h371l-178 537zM506 1686q0 84 54.5 139t156.5 55q98 0 150.5 -52t52.5 -138q0 -91 -54.5 -147t-152.5 -56q-105 0 -156 53.5t-51 145.5zM567 1686q0 -65 34 -107.5 t114 -42.5q72 0 108.5 42.5t36.5 107.5q0 62 -37 103.5t-112 41.5q-74 0 -109 -41.5t-35 -103.5z" />
<glyph unicode="&#xc6;" horiz-adv-x="2115" d="M12 0v39h97l817 1350h-156v45h1176l20 -406h-37q-44 103 -83 167t-90 110t-114 65t-151 19h-90v-648h69q96 0 161.5 73.5t92.5 195.5h31v-607h-35q-37 153 -99.5 219t-170.5 66h-49v-643h78q188 0 320.5 113t180.5 288h41l-16 -446h-1124v45h120v649h-430l-397 -655h154 v-39h-316zM596 743h405v646h-12z" />
<glyph unicode="&#xc7;" horiz-adv-x="1413" d="M84 698q0 183 51.5 327t145 238.5t223 143.5t287.5 49q93 0 172.5 -16t132 -31.5t78.5 -15.5q23 0 33 9t22 32h22l17 -445h-37q-93 207 -190.5 316.5t-221.5 109.5q-158 0 -237.5 -149.5t-79.5 -462.5v-162q0 -290 84.5 -455.5t247.5 -165.5q119 0 220.5 113.5 t192.5 325.5h37l-14 -457h-23q-12 23 -22 32t-33 9q-25 0 -75 -14t-127 -29t-161 -18l-59 -103q42 6 68 6q110 0 162.5 -48t52.5 -134q0 -37 -14.5 -72.5t-45 -68t-87.5 -52.5t-132 -20q-94 0 -152.5 38t-58.5 97q0 42 24.5 67t63.5 25q36 0 60 -22t34 -55l-53 -41 q0 -30 17 -53t53 -23q39 0 56.5 36t17.5 122q0 38 -1 59t-4.5 45t-10 35.5t-19 19.5t-31.5 8q-28 0 -61 -8l-7 19l72 121q-329 3 -509.5 182t-180.5 536z" />
<glyph unicode="&#xc8;" horiz-adv-x="1277" d="M43 0v45h121v1344h-121v45h1065l20 -406h-36q-44 105 -84 170t-93.5 110t-119.5 63t-160 18h-72v-633h70q96 0 161.5 73t92.5 195h31v-606h-35q-37 153 -100 218.5t-171 65.5h-49v-657h78q188 0 321 113t181 288h41l-17 -446h-1124zM367 1753q0 35 23.5 61.5t74.5 30.5 l98 8l236 -331l-17 -21l-325 133q-42 17 -66 49t-24 70z" />
<glyph unicode="&#xc9;" horiz-adv-x="1277" d="M43 0v45h121v1344h-121v45h1065l20 -406h-36q-44 105 -84 170t-93.5 110t-119.5 63t-160 18h-72v-633h70q96 0 161.5 73t92.5 195h31v-606h-35q-37 153 -100 218.5t-171 65.5h-49v-657h78q188 0 321 113t181 288h41l-17 -446h-1124zM424 1522l235 331l99 -8 q51 -4 74.5 -30.5t23.5 -61.5q0 -38 -24 -70t-66 -49l-326 -133z" />
<glyph unicode="&#xca;" horiz-adv-x="1277" d="M43 0v45h121v1344h-121v45h1065l20 -406h-36q-44 105 -84 170t-93.5 110t-119.5 63t-160 18h-72v-633h70q96 0 161.5 73t92.5 195h31v-606h-35q-37 153 -100 218.5t-171 65.5h-49v-657h78q188 0 321 113t181 288h41l-17 -446h-1124zM293 1522l217 303q60 33 113 33 q54 0 86 -20t57 -62l152 -254l-19 -21l-291 139l-299 -139z" />
<glyph unicode="&#xcb;" horiz-adv-x="1277" d="M43 0v45h121v1344h-121v45h1065l20 -406h-36q-44 105 -84 170t-93.5 110t-119.5 63t-160 18h-72v-633h70q96 0 161.5 73t92.5 195h31v-606h-35q-37 153 -100 218.5t-171 65.5h-49v-657h78q188 0 321 113t181 288h41l-17 -446h-1124zM254 1681q0 63 40.5 106.5t111.5 43.5 q69 0 111 -38t42 -112q0 -69 -39.5 -111t-111.5 -42q-80 0 -117 44.5t-37 108.5zM649 1681q0 63 40.5 106.5t111.5 43.5q69 0 111 -38t42 -112q0 -69 -39.5 -111t-111.5 -42q-80 0 -117 44.5t-37 108.5z" />
<glyph unicode="&#xcc;" horiz-adv-x="727" d="M51 0v39h113v1356h-113v39h625v-39h-113v-1356h113v-39h-625zM125 1753q0 35 23.5 61.5t74.5 30.5l99 8l235 -331l-16 -21l-326 133q-42 17 -66 49t-24 70z" />
<glyph unicode="&#xcd;" horiz-adv-x="727" d="M51 0v39h113v1356h-113v39h625v-39h-113v-1356h113v-39h-625zM182 1522l236 331l98 -8q51 -4 74.5 -30.5t23.5 -61.5q0 -38 -24 -70t-66 -49l-325 -133z" />
<glyph unicode="&#xce;" horiz-adv-x="727" d="M51 0v39h113v1356h-113v39h625v-39h-113v-1356h113v-39h-625zM51 1522l217 303q60 33 113 33q54 0 86 -20t57 -62l152 -254l-19 -21l-290 139l-299 -139z" />
<glyph unicode="&#xcf;" horiz-adv-x="727" d="M12 1681q0 63 40.5 106.5t111.5 43.5q69 0 111 -38t42 -112q0 -69 -39.5 -111t-111.5 -42q-80 0 -117 44.5t-37 108.5zM51 0v39h113v1356h-113v39h625v-39h-113v-1356h113v-39h-625zM408 1681q0 63 40 106.5t111 43.5q69 0 111.5 -38t42.5 -112q0 -69 -40 -111t-112 -42 q-79 0 -116 44.5t-37 108.5z" />
<glyph unicode="&#xd0;" horiz-adv-x="1562" d="M39 735v53h156v607h-136v39h633q195 0 337.5 -37t245 -118t153.5 -215t51 -323q0 -170 -41 -299t-113 -212t-180 -135.5t-230.5 -73.5t-275.5 -21h-580v39h136v696h-156zM594 39h78q207 0 296 146.5t89 490.5v119q0 149 -16 253.5t-46.5 172.5t-82.5 106.5t-115 53 t-154 14.5h-49v-607h264v-53h-264v-696z" />
<glyph unicode="&#xd1;" horiz-adv-x="1372" d="M51 0v39h113v1356h-113v39h565l537 -1028v989h-113v39h281v-39h-113v-1395h-286l-703 1325v-1286h113v-39h-281zM393 1546q17 56 26.5 84.5t25 68t29.5 58t34.5 38t46 27t57.5 7.5q54 0 158 -41t139 -41q19 0 33 2.5t31.5 10.5t31 26.5t23.5 46.5l27 -8 q-41 -162 -87 -223.5t-122 -61.5q-59 0 -168 41t-148 41q-77 0 -112 -84z" />
<glyph unicode="&#xd2;" horiz-adv-x="1531" d="M84 694q0 358 181 560t519 202q326 0 495 -191t169 -544t-171 -547t-517 -194q-337 0 -506.5 185t-169.5 529zM504 629q0 -91 2 -155.5t8.5 -132.5t18 -113t31 -87t47.5 -66t67 -38t90 -14q57 0 98.5 15.5t70 52t46.5 82t27.5 120t12.5 151.5t3 189v151q0 123 -2 194.5 t-10 153.5t-24.5 125.5t-45 84t-72 56t-104.5 15.5q-41 0 -74.5 -8.5t-59 -23t-45 -41t-33.5 -54.5t-23.5 -72.5t-15 -85.5t-8.5 -103t-4 -116t-1 -133v-147zM532 1753q0 35 24 61.5t75 30.5l98 8l236 -331l-17 -21l-325 133q-42 17 -66.5 49t-24.5 70z" />
<glyph unicode="&#xd3;" horiz-adv-x="1531" d="M84 694q0 358 181 560t519 202q326 0 495 -191t169 -544t-171 -547t-517 -194q-337 0 -506.5 185t-169.5 529zM504 629q0 -91 2 -155.5t8.5 -132.5t18 -113t31 -87t47.5 -66t67 -38t90 -14q57 0 98.5 15.5t70 52t46.5 82t27.5 120t12.5 151.5t3 189v151q0 123 -2 194.5 t-10 153.5t-24.5 125.5t-45 84t-72 56t-104.5 15.5q-41 0 -74.5 -8.5t-59 -23t-45 -41t-33.5 -54.5t-23.5 -72.5t-15 -85.5t-8.5 -103t-4 -116t-1 -133v-147zM590 1522l235 331l99 -8q51 -4 74.5 -30.5t23.5 -61.5q0 -38 -24 -70t-66 -49l-326 -133z" />
<glyph unicode="&#xd4;" horiz-adv-x="1531" d="M84 694q0 358 181 560t519 202q326 0 495 -191t169 -544t-171 -547t-517 -194q-337 0 -506.5 185t-169.5 529zM459 1522l217 303q60 33 112 33q54 0 86.5 -20t57.5 -62l151 -254l-18 -21l-291 139l-299 -139zM504 629q0 -91 2 -155.5t8.5 -132.5t18 -113t31 -87t47.5 -66 t67 -38t90 -14q57 0 98.5 15.5t70 52t46.5 82t27.5 120t12.5 151.5t3 189v151q0 123 -2 194.5t-10 153.5t-24.5 125.5t-45 84t-72 56t-104.5 15.5q-41 0 -74.5 -8.5t-59 -23t-45 -41t-33.5 -54.5t-23.5 -72.5t-15 -85.5t-8.5 -103t-4 -116t-1 -133v-147z" />
<glyph unicode="&#xd5;" horiz-adv-x="1531" d="M84 694q0 358 181 560t519 202q326 0 495 -191t169 -544t-171 -547t-517 -194q-337 0 -506.5 185t-169.5 529zM463 1546q17 56 26.5 84.5t25 68t29.5 58t34.5 38t46 27t57.5 7.5q54 0 158 -41t139 -41q19 0 33 2.5t31.5 10.5t31 26.5t23.5 46.5l26 -8 q-41 -162 -87 -223.5t-122 -61.5q-59 0 -167.5 41t-147.5 41q-78 0 -113 -84zM504 629q0 -91 2 -155.5t8.5 -132.5t18 -113t31 -87t47.5 -66t67 -38t90 -14q57 0 98.5 15.5t70 52t46.5 82t27.5 120t12.5 151.5t3 189v151q0 123 -2 194.5t-10 153.5t-24.5 125.5t-45 84 t-72 56t-104.5 15.5q-41 0 -74.5 -8.5t-59 -23t-45 -41t-33.5 -54.5t-23.5 -72.5t-15 -85.5t-8.5 -103t-4 -116t-1 -133v-147z" />
<glyph unicode="&#xd6;" horiz-adv-x="1531" d="M84 694q0 358 181 560t519 202q326 0 495 -191t169 -544t-171 -547t-517 -194q-337 0 -506.5 185t-169.5 529zM420 1681q0 63 40 106.5t111 43.5q69 0 111.5 -38t42.5 -112q0 -69 -40 -111t-112 -42q-79 0 -116 44.5t-37 108.5zM504 629q0 -91 2 -155.5t8.5 -132.5 t18 -113t31 -87t47.5 -66t67 -38t90 -14q57 0 98.5 15.5t70 52t46.5 82t27.5 120t12.5 151.5t3 189v151q0 123 -2 194.5t-10 153.5t-24.5 125.5t-45 84t-72 56t-104.5 15.5q-41 0 -74.5 -8.5t-59 -23t-45 -41t-33.5 -54.5t-23.5 -72.5t-15 -85.5t-8.5 -103t-4 -116t-1 -133 v-147zM815 1681q0 63 40.5 106.5t111.5 43.5q69 0 111 -38t42 -112q0 -69 -39.5 -111t-111.5 -42q-80 0 -117 44.5t-37 108.5z" />
<glyph unicode="&#xd7;" d="M188 342l304 303l-302 303l48 49l303 -303l305 305l49 -49l-307 -305l303 -303l-49 -47l-301 301l-303 -303z" />
<glyph unicode="&#xd8;" horiz-adv-x="1531" d="M84 694q0 358 181 560t519 202q120 0 215 -26l56 145l51 -21l-53 -141q195 -69 295 -245.5t100 -446.5q0 -353 -171 -547t-517 -194q-128 0 -240 28l-59 -160l-51 21l59 156q-193 70 -289 240t-96 429zM504 629q0 -306 33 -422l421 1114q-56 92 -190 92q-41 0 -74.5 -8.5 t-59 -23t-45 -41t-33.5 -54.5t-23.5 -72.5t-15 -85.5t-8.5 -103t-4 -116t-1 -133v-147zM567 131q58 -108 201 -108q57 0 98.5 15.5t70 52t46.5 82t27.5 120t12.5 151.5t3 189v151q0 177 -7 285t-28 180z" />
<glyph unicode="&#xd9;" horiz-adv-x="1398" d="M43 1395v39h645v-39h-133v-959q0 -91 12.5 -156.5t45 -121t94 -83.5t153.5 -28q161 0 250.5 104.5t89.5 317.5v926h-133v39h299v-39h-113v-912q0 -99 -14 -173.5t-49.5 -139t-94.5 -105t-150.5 -63t-215.5 -22.5q-104 0 -188 15.5t-157.5 52.5t-122.5 96.5t-77 150.5 t-28 211v889h-113zM520 1753q0 35 23.5 61.5t74.5 30.5l99 8l235 -331l-16 -21l-326 133q-42 17 -66 49t-24 70z" />
<glyph unicode="&#xda;" horiz-adv-x="1398" d="M43 1395v39h645v-39h-133v-959q0 -91 12.5 -156.5t45 -121t94 -83.5t153.5 -28q161 0 250.5 104.5t89.5 317.5v926h-133v39h299v-39h-113v-912q0 -99 -14 -173.5t-49.5 -139t-94.5 -105t-150.5 -63t-215.5 -22.5q-104 0 -188 15.5t-157.5 52.5t-122.5 96.5t-77 150.5 t-28 211v889h-113zM578 1522l235 331l98 -8q51 -4 75 -30.5t24 -61.5q0 -38 -24 -70t-66 -49l-326 -133z" />
<glyph unicode="&#xdb;" horiz-adv-x="1398" d="M43 1395v39h645v-39h-133v-959q0 -91 12.5 -156.5t45 -121t94 -83.5t153.5 -28q161 0 250.5 104.5t89.5 317.5v926h-133v39h299v-39h-113v-912q0 -99 -14 -173.5t-49.5 -139t-94.5 -105t-150.5 -63t-215.5 -22.5q-104 0 -188 15.5t-157.5 52.5t-122.5 96.5t-77 150.5 t-28 211v889h-113zM446 1522l218 303q60 33 112 33q54 0 86.5 -20t57.5 -62l151 -254l-18 -21l-291 139l-299 -139z" />
<glyph unicode="&#xdc;" horiz-adv-x="1398" d="M43 1395v39h645v-39h-133v-959q0 -91 12.5 -156.5t45 -121t94 -83.5t153.5 -28q161 0 250.5 104.5t89.5 317.5v926h-133v39h299v-39h-113v-912q0 -99 -14 -173.5t-49.5 -139t-94.5 -105t-150.5 -63t-215.5 -22.5q-104 0 -188 15.5t-157.5 52.5t-122.5 96.5t-77 150.5 t-28 211v889h-113zM408 1681q0 63 40 106.5t111 43.5q69 0 111.5 -38t42.5 -112q0 -69 -40 -111t-112 -42q-79 0 -116 44.5t-37 108.5zM803 1681q0 63 40 106.5t111 43.5q69 0 111.5 -38t42.5 -112q0 -69 -40 -111t-112 -42q-79 0 -116 44.5t-37 108.5z" />
<glyph unicode="&#xdd;" horiz-adv-x="1312" d="M12 1401v33h656v-33h-133l278 -641l291 641h-207v33h403v-33h-135l-309 -684v-678h125v-39h-649v39h125v639l-348 723h-97zM535 1522l235 331l98 -8q51 -4 75 -30.5t24 -61.5q0 -38 -24 -70t-66 -49l-326 -133z" />
<glyph unicode="&#xde;" horiz-adv-x="1298" d="M31 0v39h133v1356h-133v39h788v-39h-256v-236h70q121 0 212.5 -11.5t169 -39.5t126.5 -73.5t76.5 -116.5t27.5 -166q0 -102 -31.5 -179t-87.5 -126t-141 -79.5t-182.5 -42.5t-222.5 -12h-17v-274h256v-39h-788zM563 352h43q124 0 170.5 84.5t46.5 272.5v98 q0 175 -44.5 244t-160.5 69h-55v-768z" />
<glyph unicode="&#xdf;" horiz-adv-x="1380" d="M-23 0v37h156v924q0 140 29.5 248t80.5 178t126.5 114.5t161.5 63t192 18.5q101 0 173.5 -22.5t110 -60.5t54 -80t16.5 -91q0 -61 -24.5 -116t-59.5 -95.5t-70.5 -77.5t-60 -77.5t-24.5 -79.5q0 -36 22 -64.5t58 -47t82 -39t94 -39.5t94 -50.5t82 -70.5t58 -101.5 t22 -140.5q0 -103 -49.5 -184.5t-128.5 -123.5t-171 -42q-71 0 -116.5 12.5t-104.5 46.5q-44 24 -63 24q-46 0 -64 -83h-24v366h24q49 -157 128.5 -239t201.5 -82q188 0 188 135q0 41 -22.5 73t-59 51t-83 39.5t-95.5 37.5t-95.5 46t-83 64.5t-59 94t-22.5 132.5 q0 81 38 153.5t91.5 126.5t107.5 105.5t92 113t38 126.5q0 104 -69.5 159.5t-190.5 55.5q-63 0 -109 -17.5t-71.5 -43.5t-40.5 -68t-19 -80.5t-4 -91.5v-1237h-537z" />
<glyph unicode="&#xe0;" horiz-adv-x="1124" d="M41 227q0 61 21.5 106t59.5 73t98.5 45t129.5 23.5t162 6.5h59v158q0 195 -21 261.5t-83 66.5q-36 0 -66 -19t-30 -63q0 -25 12 -60h51q17 -46 17 -92q0 -71 -51.5 -115.5t-129.5 -44.5q-91 0 -133.5 45.5t-42.5 124.5q0 252 428 252q243 0 336.5 -83t93.5 -304v-415 q0 -107 60 -107q70 0 82 211l30 -2q-7 -180 -66.5 -247.5t-195.5 -67.5q-244 0 -282 151q-26 -77 -79.5 -114t-156.5 -37q-303 0 -303 247zM311 1442q0 45 34 74.5t98 15.5l96 -20l129 -391l-23 -15l-274 228q-60 54 -60 108zM430 229q0 -106 11 -137t42 -31q33 0 60.5 53 t27.5 144v191h-14q-127 0 -127 -187v-33z" />
<glyph unicode="&#xe1;" horiz-adv-x="1124" d="M41 227q0 61 21.5 106t59.5 73t98.5 45t129.5 23.5t162 6.5h59v158q0 195 -21 261.5t-83 66.5q-36 0 -66 -19t-30 -63q0 -25 12 -60h51q17 -46 17 -92q0 -71 -51.5 -115.5t-129.5 -44.5q-91 0 -133.5 45.5t-42.5 124.5q0 252 428 252q243 0 336.5 -83t93.5 -304v-415 q0 -107 60 -107q70 0 82 211l30 -2q-7 -180 -66.5 -247.5t-195.5 -67.5q-244 0 -282 151q-26 -77 -79.5 -114t-156.5 -37q-303 0 -303 247zM385 1120l129 391l96 21q64 14 97.5 -15t33.5 -75q0 -55 -59 -109l-274 -227zM430 229q0 -106 11 -137t42 -31q33 0 60.5 53 t27.5 144v191h-14q-127 0 -127 -187v-33z" />
<glyph unicode="&#xe2;" horiz-adv-x="1124" d="M41 227q0 61 21.5 106t59.5 73t98.5 45t129.5 23.5t162 6.5h59v158q0 195 -21 261.5t-83 66.5q-36 0 -66 -19t-30 -63q0 -25 12 -60h51q17 -46 17 -92q0 -71 -51.5 -115.5t-129.5 -44.5q-91 0 -133.5 45.5t-42.5 124.5q0 252 428 252q243 0 336.5 -83t93.5 -304v-415 q0 -107 60 -107q70 0 82 211l30 -2q-7 -180 -66.5 -247.5t-195.5 -67.5q-244 0 -282 151q-26 -77 -79.5 -114t-156.5 -37q-303 0 -303 247zM248 1090l182 389q62 32 121 32q91 0 131 -98l125 -326l-23 -14l-256 213l-256 -215zM430 229q0 -106 11 -137t42 -31q33 0 60.5 53 t27.5 144v191h-14q-127 0 -127 -187v-33z" />
<glyph unicode="&#xe3;" horiz-adv-x="1124" d="M41 227q0 61 21.5 106t59.5 73t98.5 45t129.5 23.5t162 6.5h59v158q0 195 -21 261.5t-83 66.5q-36 0 -66 -19t-30 -63q0 -25 12 -60h51q17 -46 17 -92q0 -71 -51.5 -115.5t-129.5 -44.5q-91 0 -133.5 45.5t-42.5 124.5q0 252 428 252q243 0 336.5 -83t93.5 -304v-415 q0 -107 60 -107q70 0 82 211l30 -2q-7 -180 -66.5 -247.5t-195.5 -67.5q-244 0 -282 151q-26 -77 -79.5 -114t-156.5 -37q-303 0 -303 247zM205 1159q18 60 33.5 101t36.5 81.5t44 64t55 38t70 14.5q54 0 158 -41t139 -41q19 0 33 2.5t31.5 10.5t31 26.5t23.5 46.5l27 -8 q-40 -160 -96.5 -230.5t-133.5 -70.5q-59 0 -167.5 41t-147.5 41q-78 0 -113 -84zM430 229q0 -106 11 -137t42 -31q33 0 60.5 53t27.5 144v191h-14q-127 0 -127 -187v-33z" />
<glyph unicode="&#xe4;" horiz-adv-x="1124" d="M41 227q0 61 21.5 106t59.5 73t98.5 45t129.5 23.5t162 6.5h59v158q0 195 -21 261.5t-83 66.5q-36 0 -66 -19t-30 -63q0 -25 12 -60h51q17 -46 17 -92q0 -71 -51.5 -115.5t-129.5 -44.5q-91 0 -133.5 45.5t-42.5 124.5q0 252 428 252q243 0 336.5 -83t93.5 -304v-415 q0 -107 60 -107q70 0 82 211l30 -2q-7 -180 -66.5 -247.5t-195.5 -67.5q-244 0 -282 151q-26 -77 -79.5 -114t-156.5 -37q-303 0 -303 247zM176 1297q0 63 40 106t111 43q69 0 111.5 -37.5t42.5 -111.5q0 -69 -40 -111.5t-112 -42.5q-79 0 -116 45t-37 109zM430 229 q0 -106 11 -137t42 -31q33 0 60.5 53t27.5 144v191h-14q-127 0 -127 -187v-33zM571 1297q0 63 40.5 106t111.5 43q69 0 111 -37.5t42 -111.5q0 -69 -39.5 -111.5t-111.5 -42.5q-80 0 -117 45t-37 109z" />
<glyph unicode="&#xe5;" horiz-adv-x="1124" d="M41 227q0 61 21.5 106t59.5 73t98.5 45t129.5 23.5t162 6.5h59v158q0 195 -21 261.5t-83 66.5q-36 0 -66 -19t-30 -63q0 -25 12 -60h51q17 -46 17 -92q0 -71 -51.5 -115.5t-129.5 -44.5q-91 0 -133.5 45.5t-42.5 124.5q0 252 428 252q243 0 336.5 -83t93.5 -304v-415 q0 -107 60 -107q70 0 82 211l30 -2q-7 -180 -66.5 -247.5t-195.5 -67.5q-244 0 -282 151q-26 -77 -79.5 -114t-156.5 -37q-303 0 -303 247zM319 1294q0 84 54.5 139.5t156.5 55.5q98 0 150.5 -52.5t52.5 -138.5q0 -91 -54.5 -146.5t-152.5 -55.5q-105 0 -156 53t-51 145z M381 1294q0 -65 33.5 -107t113.5 -42q72 0 109 42t37 107q0 62 -37.5 104t-112.5 42q-74 0 -108.5 -42t-34.5 -104zM430 229q0 -106 11 -137t42 -31q33 0 60.5 53t27.5 144v191h-14q-127 0 -127 -187v-33z" />
<glyph unicode="&#xe6;" horiz-adv-x="1581" d="M41 227q0 61 21.5 106t59.5 73t98.5 45t129.5 23.5t162 6.5h59v158q0 195 -21 261.5t-83 66.5q-36 0 -66 -19t-30 -63q0 -25 12 -60h51q17 -46 17 -92q0 -71 -51.5 -115.5t-129.5 -44.5q-91 0 -133.5 45.5t-42.5 124.5q0 125 106 188.5t285 63.5q118 0 192.5 -31.5 t119.5 -97.5q48 64 130.5 96.5t180.5 32.5q438 0 420 -467h-578v-79q0 -98 10 -167t36 -125.5t74.5 -85t121.5 -28.5q112 0 188.5 66.5t110.5 187.5l37 -6q-19 -71 -49.5 -124t-81 -97t-129.5 -67t-185 -23q-283 0 -411 163q-70 -163 -318 -163q-47 0 -88 6t-83.5 22.5 t-73 43t-49.5 71.5t-19 104zM430 229q0 -71 10.5 -109t26.5 -48.5t43 -10.5q35 0 74 29.5t59 91.5q-66 108 -72 264v3h-14q-127 0 -127 -187v-33zM952 569h211v101q0 167 -19.5 226.5t-80.5 59.5q-56 0 -83.5 -64.5t-27.5 -221.5v-101z" />
<glyph unicode="&#xe7;" horiz-adv-x="989" d="M31 475q0 254 144.5 387t402.5 133q182 0 278 -70.5t96 -189.5q0 -93 -46 -142.5t-124 -49.5q-83 0 -132.5 43.5t-49.5 126.5q0 37 10 73h68q14 41 14 74q0 50 -26.5 74t-71.5 24q-90 0 -129 -97.5t-39 -325.5v-107q0 -203 45 -291t162 -88q66 0 119.5 25.5t87 67.5 t53 85.5t29.5 89.5l36 -4q-10 -45 -21.5 -80t-40 -82.5t-67 -80t-104.5 -58t-150 -30.5l-55 -95q49 7 68 7q110 0 162.5 -48.5t52.5 -134.5q0 -37 -14.5 -72.5t-45 -68t-87.5 -52.5t-132 -20q-94 0 -152.5 38t-58.5 97q0 42 24.5 67.5t63.5 25.5q36 0 60.5 -22.5t34.5 -55.5 l-54 -41q0 -30 17 -53t53 -23q39 0 56.5 36t17.5 122q0 38 -1 59t-4.5 45t-10 36t-19 20t-31.5 8q-24 0 -61 -9l-6 19l67 113q-237 2 -363 129t-126 366z" />
<glyph unicode="&#xe8;" horiz-adv-x="1056" d="M31 485q0 129 41.5 228.5t115 160t167 91t202.5 30.5q238 0 347 -117.5t100 -349.5h-578v-79q0 -98 10 -167t36 -125.5t74.5 -85t121.5 -28.5q112 0 188.5 66.5t110.5 187.5l37 -6q-19 -71 -49.5 -124t-81 -97t-129.5 -67t-185 -23q-264 0 -396 136t-132 369zM331 1442 q0 45 34 74.5t98 15.5l96 -20l129 -391l-23 -15l-274 228q-60 54 -60 108zM428 569h211v101q0 167 -19.5 226.5t-80.5 59.5q-56 0 -83.5 -64.5t-27.5 -221.5v-101z" />
<glyph unicode="&#xe9;" horiz-adv-x="1056" d="M31 485q0 129 41.5 228.5t115 160t167 91t202.5 30.5q238 0 347 -117.5t100 -349.5h-578v-79q0 -98 10 -167t36 -125.5t74.5 -85t121.5 -28.5q112 0 188.5 66.5t110.5 187.5l37 -6q-19 -71 -49.5 -124t-81 -97t-129.5 -67t-185 -23q-264 0 -396 136t-132 369zM406 1120 l129 391l96 21q64 14 97.5 -15t33.5 -75q0 -55 -60 -109l-274 -227zM428 569h211v101q0 167 -19.5 226.5t-80.5 59.5q-56 0 -83.5 -64.5t-27.5 -221.5v-101z" />
<glyph unicode="&#xea;" horiz-adv-x="1056" d="M31 485q0 129 41.5 228.5t115 160t167 91t202.5 30.5q238 0 347 -117.5t100 -349.5h-578v-79q0 -98 10 -167t36 -125.5t74.5 -85t121.5 -28.5q112 0 188.5 66.5t110.5 187.5l37 -6q-19 -71 -49.5 -124t-81 -97t-129.5 -67t-185 -23q-264 0 -396 136t-132 369zM269 1090 l182 389q62 32 121 32q91 0 131 -98l125 -326l-23 -14l-256 213l-256 -215zM428 569h211v101q0 167 -19.5 226.5t-80.5 59.5q-56 0 -83.5 -64.5t-27.5 -221.5v-101z" />
<glyph unicode="&#xeb;" horiz-adv-x="1056" d="M31 485q0 129 41.5 228.5t115 160t167 91t202.5 30.5q238 0 347 -117.5t100 -349.5h-578v-79q0 -98 10 -167t36 -125.5t74.5 -85t121.5 -28.5q112 0 188.5 66.5t110.5 187.5l37 -6q-19 -71 -49.5 -124t-81 -97t-129.5 -67t-185 -23q-264 0 -396 136t-132 369zM197 1296 q0 63 40 106.5t111 43.5q69 0 111.5 -38t42.5 -112q0 -69 -40 -111t-112 -42q-79 0 -116 44.5t-37 108.5zM428 569h211v101q0 167 -19.5 226.5t-80.5 59.5q-56 0 -83.5 -64.5t-27.5 -221.5v-101zM592 1296q0 63 40 106.5t111 43.5q69 0 111.5 -38t42.5 -112q0 -69 -40 -111 t-112 -42q-79 0 -116 44.5t-37 108.5z" />
<glyph unicode="&#xec;" horiz-adv-x="649" d="M12 938v37h502v-938h115v-37h-609v37h113v901h-121zM74 1442q0 46 33.5 75t97.5 15l96 -21l129 -391l-22 -14l-275 227q-59 54 -59 109z" />
<glyph unicode="&#xed;" horiz-adv-x="649" d="M12 938v37h502v-938h115v-37h-609v37h113v901h-121zM174 1120l129 391l96 21q64 14 97.5 -15t33.5 -75q0 -55 -59 -109l-274 -227z" />
<glyph unicode="&#xee;" horiz-adv-x="649" d="M8 1090l182 389q62 32 121 32q91 0 131 -98l125 -326l-22 -14l-256 213l-256 -215zM12 938v37h502v-938h115v-37h-609v37h113v901h-121z" />
<glyph unicode="&#xef;" horiz-adv-x="649" d="M-49 1296q0 63 40 106.5t111 43.5q69 0 111.5 -38t42.5 -112q0 -69 -40 -111t-112 -42q-79 0 -116 44.5t-37 108.5zM12 938v37h502v-938h115v-37h-609v37h113v901h-121zM346 1296q0 63 40.5 106.5t111.5 43.5q69 0 111 -38t42 -112q0 -69 -39.5 -111t-111.5 -42 q-80 0 -117 44.5t-37 108.5z" />
<glyph unicode="&#xf0;" horiz-adv-x="1146" d="M41 483q0 251 124.5 390t344.5 139q93 0 145.5 -32t81.5 -97q-7 141 -29.5 250.5t-78.5 195.5l-230 -151l-16 51l217 141q-137 167 -418 164l4 33q350 27 566 -97l217 144l16 -51l-186 -123q307 -215 307 -760q0 -81 -5.5 -150.5t-21.5 -142.5t-41 -131.5t-66.5 -111 t-96.5 -88t-133 -56t-173 -20.5q-262 0 -395 130t-133 373zM436 408q0 -81 2 -133.5t10 -106.5t22.5 -84t40 -49t62.5 -19q43 0 69.5 21.5t40.5 74t18 117t4 174.5v175q0 93 -4.5 154t-17.5 117t-39.5 82.5t-68.5 26.5q-37 0 -62.5 -19.5t-40.5 -50.5t-23 -84.5t-10.5 -106 t-2.5 -130.5v-159z" />
<glyph unicode="&#xf1;" horiz-adv-x="1261" d="M20 0v37h113v901h-113v37h494v-189q15 44 35 77t54 65t88.5 49.5t127.5 17.5q318 0 318 -342v-616h114v-37h-579v37h84v665q0 85 -9 128t-24 55t-43 12q-66 0 -116 -86.5t-50 -208.5v-565h88v-37h-582zM303 1159q23 75 43 124t48 92t64.5 63t84.5 20q54 0 158 -41 t139 -41q26 0 44 4t39.5 24.5t34.5 57.5l27 -8q-40 -160 -96 -230.5t-133 -70.5q-59 0 -168 41t-148 41q-77 0 -112 -84z" />
<glyph unicode="&#xf2;" horiz-adv-x="1112" d="M37 483q0 249 139.5 380.5t390.5 131.5q258 0 383 -122t125 -371q0 -258 -126 -390t-394 -132q-255 0 -386.5 130.5t-131.5 372.5zM346 1442q0 45 34 74.5t98 15.5l96 -20l129 -391l-23 -15l-274 228q-60 54 -60 108zM430 408q0 -53 0.5 -85.5t2 -75.5t5.5 -68.5 t10 -55.5t15.5 -46.5t22.5 -32t31.5 -22t41.5 -6.5q29 0 49.5 9t34 33t21.5 50.5t12 77t5 95.5t1 122v175q0 48 -0.5 80t-2 72t-5.5 66t-9.5 54.5t-14.5 46t-21.5 32.5t-29.5 22t-38 7q-26 0 -46.5 -10t-34 -26t-23.5 -45.5t-15 -57.5t-8 -74t-3.5 -83t-0.5 -95v-159z" />
<glyph unicode="&#xf3;" horiz-adv-x="1112" d="M37 483q0 249 139.5 380.5t390.5 131.5q258 0 383 -122t125 -371q0 -258 -126 -390t-394 -132q-255 0 -386.5 130.5t-131.5 372.5zM420 1120l129 391l96 21q64 14 97.5 -15t33.5 -75q0 -55 -59 -109l-275 -227zM430 408q0 -53 0.5 -85.5t2 -75.5t5.5 -68.5t10 -55.5 t15.5 -46.5t22.5 -32t31.5 -22t41.5 -6.5q29 0 49.5 9t34 33t21.5 50.5t12 77t5 95.5t1 122v175q0 48 -0.5 80t-2 72t-5.5 66t-9.5 54.5t-14.5 46t-21.5 32.5t-29.5 22t-38 7q-26 0 -46.5 -10t-34 -26t-23.5 -45.5t-15 -57.5t-8 -74t-3.5 -83t-0.5 -95v-159z" />
<glyph unicode="&#xf4;" horiz-adv-x="1112" d="M37 483q0 249 139.5 380.5t390.5 131.5q258 0 383 -122t125 -371q0 -258 -126 -390t-394 -132q-255 0 -386.5 130.5t-131.5 372.5zM283 1090l182 389q62 32 121 32q91 0 131 -98l125 -326l-23 -14l-256 213l-256 -215zM430 408q0 -53 0.5 -85.5t2 -75.5t5.5 -68.5 t10 -55.5t15.5 -46.5t22.5 -32t31.5 -22t41.5 -6.5q29 0 49.5 9t34 33t21.5 50.5t12 77t5 95.5t1 122v175q0 48 -0.5 80t-2 72t-5.5 66t-9.5 54.5t-14.5 46t-21.5 32.5t-29.5 22t-38 7q-26 0 -46.5 -10t-34 -26t-23.5 -45.5t-15 -57.5t-8 -74t-3.5 -83t-0.5 -95v-159z" />
<glyph unicode="&#xf5;" horiz-adv-x="1112" d="M37 483q0 249 139.5 380.5t390.5 131.5q258 0 383 -122t125 -371q0 -258 -126 -390t-394 -132q-255 0 -386.5 130.5t-131.5 372.5zM240 1159q18 60 33.5 101t36.5 81.5t44 64t55 38t70 14.5q54 0 158 -41t139 -41q19 0 33 2.5t31.5 10.5t31 26.5t23.5 46.5l27 -8 q-40 -160 -96.5 -230.5t-133.5 -70.5q-59 0 -167.5 41t-147.5 41q-78 0 -113 -84zM430 408q0 -53 0.5 -85.5t2 -75.5t5.5 -68.5t10 -55.5t15.5 -46.5t22.5 -32t31.5 -22t41.5 -6.5q29 0 49.5 9t34 33t21.5 50.5t12 77t5 95.5t1 122v175q0 48 -0.5 80t-2 72t-5.5 66 t-9.5 54.5t-14.5 46t-21.5 32.5t-29.5 22t-38 7q-26 0 -46.5 -10t-34 -26t-23.5 -45.5t-15 -57.5t-8 -74t-3.5 -83t-0.5 -95v-159z" />
<glyph unicode="&#xf6;" horiz-adv-x="1112" d="M37 483q0 249 139.5 380.5t390.5 131.5q258 0 383 -122t125 -371q0 -258 -126 -390t-394 -132q-255 0 -386.5 130.5t-131.5 372.5zM211 1297q0 63 40 106t111 43q69 0 111.5 -37.5t42.5 -111.5q0 -69 -40 -111.5t-112 -42.5q-79 0 -116 45t-37 109zM430 408 q0 -53 0.5 -85.5t2 -75.5t5.5 -68.5t10 -55.5t15.5 -46.5t22.5 -32t31.5 -22t41.5 -6.5q29 0 49.5 9t34 33t21.5 50.5t12 77t5 95.5t1 122v175q0 48 -0.5 80t-2 72t-5.5 66t-9.5 54.5t-14.5 46t-21.5 32.5t-29.5 22t-38 7q-26 0 -46.5 -10t-34 -26t-23.5 -45.5t-15 -57.5 t-8 -74t-3.5 -83t-0.5 -95v-159zM606 1297q0 63 40.5 106t111.5 43q69 0 111 -37.5t42 -111.5q0 -69 -39.5 -111.5t-111.5 -42.5q-80 0 -117 45t-37 109z" />
<glyph unicode="&#xf7;" d="M78 616v68h930v-68h-930zM436 393q0 49 29.5 81t83.5 32q53 0 85 -28t32 -83q0 -54 -29.5 -85t-83.5 -31q-61 0 -89 32.5t-28 81.5zM436 913q0 49 29.5 81t83.5 32q53 0 85 -28t32 -83q0 -54 -29.5 -85t-83.5 -31q-61 0 -89 32.5t-28 81.5z" />
<glyph unicode="&#xf8;" horiz-adv-x="1118" d="M31 483q0 251 138.5 381.5t401.5 130.5q66 0 134 -10l53 141l45 -16l-51 -133q335 -77 335 -475q0 -522 -528 -522q-99 0 -178 18l-57 -152l-45 17l55 147q-303 99 -303 473zM426 408q0 -105 2 -148l236 619q-31 79 -99 79q-37 0 -62.5 -19.5t-40.5 -50.5t-23 -84.5 t-10.5 -106t-2.5 -130.5v-159zM440 154q12 -69 41.5 -103.5t81.5 -34.5q35 0 58.5 15.5t38 43t22 78.5t10 106.5t2.5 143.5v175q0 143 -10 219z" />
<glyph unicode="&#xf9;" horiz-adv-x="1239" d="M8 938v37h496v-703q0 -85 9 -129.5t24 -57.5t43 -13q64 0 104.5 63t40.5 176v627h-94v37h475v-938h113v-37h-467l-23 150q-33 -82 -97 -126t-192 -44q-317 0 -317 342v616h-115zM364 1442q0 45 34 74.5t98 15.5l96 -20l129 -391l-23 -15l-274 228q-60 54 -60 108z" />
<glyph unicode="&#xfa;" horiz-adv-x="1239" d="M8 938v37h496v-703q0 -85 9 -129.5t24 -57.5t43 -13q64 0 104.5 63t40.5 176v627h-94v37h475v-938h113v-37h-467l-23 150q-33 -82 -97 -126t-192 -44q-317 0 -317 342v616h-115zM457 1120l129 391l96 21q64 14 97.5 -15t33.5 -75q0 -55 -59 -109l-275 -227z" />
<glyph unicode="&#xfb;" horiz-adv-x="1239" d="M8 938v37h496v-703q0 -85 9 -129.5t24 -57.5t43 -13q64 0 104.5 63t40.5 176v627h-94v37h475v-938h113v-37h-467l-23 150q-33 -82 -97 -126t-192 -44q-317 0 -317 342v616h-115zM320 1090l182 389q62 32 121 32q91 0 131 -98l125 -326l-23 -14l-256 213l-256 -215z" />
<glyph unicode="&#xfc;" horiz-adv-x="1239" d="M8 938v37h496v-703q0 -85 9 -129.5t24 -57.5t43 -13q64 0 104.5 63t40.5 176v627h-94v37h475v-938h113v-37h-467l-23 150q-33 -82 -97 -126t-192 -44q-317 0 -317 342v616h-115zM248 1296q0 63 40 106.5t111 43.5q69 0 111.5 -38t42.5 -112q0 -69 -40 -111t-112 -42 q-79 0 -116 44.5t-37 108.5zM643 1296q0 63 40.5 106.5t111.5 43.5q69 0 111 -38t42 -112q0 -69 -39.5 -111t-111.5 -42q-80 0 -117 44.5t-37 108.5z" />
<glyph unicode="&#xfd;" horiz-adv-x="1089" d="M4 -305q0 76 45 121t119 45q80 0 125 -36t45 -106q0 -29 -12 -73h-72q-17 -46 -4 -77.5t55 -31.5q84 0 149.5 82.5t125.5 253.5l45 127h-181l-350 938h-84v37h594v-37h-110l223 -680l237 680h-137v37h289v-37h-102l-383 -1104q-67 -192 -151 -269t-210 -77 q-117 0 -186.5 55.5t-69.5 151.5zM473 1121l129 391l96 20q64 14 97.5 -15t33.5 -75q0 -54 -59 -108l-275 -228z" />
<glyph unicode="&#xfe;" horiz-adv-x="1204" d="M20 -451h113v1950h-100v37h481v-717q37 84 100.5 130t173.5 46q179 0 277 -127.5t98 -382.5q0 -259 -105 -382t-317 -123q-98 0 -147.5 24.5t-79.5 75.5v-531h264v-36h-758v36zM514 250q0 -88 35.5 -149.5t97.5 -61.5q72 0 96.5 90.5t24.5 314.5v107q0 145 -9.5 221.5 t-28.5 105.5t-56 29q-67 0 -113.5 -74t-46.5 -202v-381z" />
<glyph unicode="&#xff;" horiz-adv-x="1089" d="M4 -305q0 76 45 121t119 45q80 0 125 -36t45 -106q0 -29 -12 -73h-72q-17 -46 -4 -77.5t55 -31.5q84 0 149.5 82.5t125.5 253.5l45 127h-181l-350 938h-84v37h594v-37h-110l223 -680l237 680h-137v37h289v-37h-102l-383 -1104q-67 -192 -151 -269t-210 -77 q-117 0 -186.5 55.5t-69.5 151.5zM264 1296q0 63 40.5 106.5t111.5 43.5q69 0 111 -38t42 -112q0 -69 -39.5 -111t-111.5 -42q-80 0 -117 44.5t-37 108.5zM659 1296q0 63 40.5 106.5t111.5 43.5q69 0 111.5 -38t42.5 -112q0 -69 -40 -111t-112 -42q-80 0 -117 44.5 t-37 108.5z" />
<glyph unicode="&#x152;" horiz-adv-x="2140" d="M84 694q0 354 181 558t499 204q130 0 224 -42t167 -128v148h815l21 -406h-37q-44 105 -84 170t-93.5 110t-119.5 63t-160 18h-72v-633h70q96 0 161.5 73t92.5 195h31v-606h-35q-37 153 -99.5 218.5t-170.5 65.5h-50v-657h78q188 0 321 113t181 288h41l-16 -446h-877v150 q-163 -170 -422 -170q-310 0 -478.5 187.5t-168.5 526.5zM504 629q0 -91 2 -155.5t8.5 -132.5t18 -113t31 -87t47.5 -66t67 -38t90 -14q57 0 98.5 15.5t70 52t46.5 82t27.5 120t12.5 151.5t3 189v151q0 123 -2 194.5t-10 153.5t-24.5 125.5t-45 84t-72 56t-104.5 15.5 q-41 0 -74.5 -8.5t-59 -23t-45 -41t-33.5 -54.5t-23.5 -72.5t-15 -85.5t-8.5 -103t-4 -116t-1 -133v-147z" />
<glyph unicode="&#x153;" horiz-adv-x="1703" d="M31 483q0 250 136.5 381t391.5 131q221 0 338 -143q133 143 344 143q213 0 316 -118.5t94 -348.5h-578v-79q0 -98 10 -167t36 -125.5t74.5 -85t121.5 -28.5q112 0 188.5 66.5t110.5 187.5l37 -6q-19 -70 -48.5 -123.5t-76.5 -97.5t-117.5 -67t-161.5 -23q-240 0 -362 143 q-67 -71 -150 -107t-203 -36q-244 0 -372.5 131t-128.5 372zM426 408q0 -81 2 -133.5t10 -106.5t22.5 -84t40 -49t62.5 -19q35 0 58.5 15.5t38 43t22 78.5t10 106.5t2.5 143.5v175q0 74 -2.5 125.5t-10 103t-21.5 82.5t-37.5 50t-57.5 19q-37 0 -62.5 -19.5t-40.5 -50.5 t-23 -84.5t-10.5 -106t-2.5 -130.5v-159zM1075 569h211v101q0 167 -19.5 226.5t-80.5 59.5q-56 0 -83.5 -64.5t-27.5 -221.5v-101z" />
<glyph unicode="&#x178;" horiz-adv-x="1312" d="M12 1401v33h656v-33h-133l278 -641l291 641h-207v33h403v-33h-135l-309 -684v-678h125v-39h-649v39h125v639l-348 723h-97zM330 1681q0 63 40 106.5t111 43.5q69 0 111.5 -38t42.5 -112q0 -69 -40 -111t-112 -42q-79 0 -116 44.5t-37 108.5zM725 1681q0 63 40.5 106.5 t111.5 43.5q69 0 111 -38t42 -112q0 -69 -39.5 -111t-111.5 -42q-80 0 -117 44.5t-37 108.5z" />
<glyph unicode="&#x2c6;" horiz-adv-x="1024" d="M242 1090l182 389q62 32 121 32q91 0 131 -98l125 -326l-23 -14l-256 213l-256 -215z" />
<glyph unicode="&#x2dc;" horiz-adv-x="1024" d="M182 1128q23 75 43 124t48 92t64.5 63t84.5 20q54 0 158 -40.5t139 -40.5q19 0 33 2.5t31.5 10.5t31 26.5t23.5 46.5l26 -9q-40 -160 -96 -230.5t-133 -70.5q-59 0 -168 41t-148 41q-77 0 -112 -84z" />
<glyph unicode="&#x2000;" horiz-adv-x="940" />
<glyph unicode="&#x2001;" horiz-adv-x="1880" />
<glyph unicode="&#x2002;" horiz-adv-x="940" />
<glyph unicode="&#x2003;" horiz-adv-x="1880" />
<glyph unicode="&#x2004;" horiz-adv-x="626" />
<glyph unicode="&#x2005;" horiz-adv-x="470" />
<glyph unicode="&#x2006;" horiz-adv-x="313" />
<glyph unicode="&#x2007;" horiz-adv-x="313" />
<glyph unicode="&#x2008;" horiz-adv-x="235" />
<glyph unicode="&#x2009;" horiz-adv-x="376" />
<glyph unicode="&#x200a;" horiz-adv-x="104" />
<glyph unicode="&#x2010;" horiz-adv-x="720" d="M102 569v62h516v-62h-516z" />
<glyph unicode="&#x2011;" horiz-adv-x="720" d="M102 569v62h516v-62h-516z" />
<glyph unicode="&#x2012;" horiz-adv-x="720" d="M102 569v62h516v-62h-516z" />
<glyph unicode="&#x2013;" horiz-adv-x="1024" d="M41 557v55h942v-55h-942z" />
<glyph unicode="&#x2014;" horiz-adv-x="2048" d="M41 557v55h1966v-55h-1966z" />
<glyph unicode="&#x2018;" horiz-adv-x="532" d="M92 1178q0 201 270 368l19 -28q-191 -125 -191 -250q0 -34 17 -52t39 -22l86 80q41 -14 74.5 -52.5t33.5 -91.5q0 -66 -47.5 -107.5t-116.5 -41.5q-84 0 -134 52t-50 145z" />
<glyph unicode="&#x2019;" horiz-adv-x="532" d="M92 1341q0 66 47.5 108t116.5 42q84 0 134 -52t50 -145q0 -201 -270 -368l-18 28q190 124 190 250q0 34 -16.5 52t-38.5 22l-86 -80q-42 14 -75.5 52t-33.5 91z" />
<glyph unicode="&#x201a;" horiz-adv-x="532" d="M92 115q0 66 47.5 107.5t116.5 41.5q84 0 134 -51.5t50 -144.5q0 -202 -270 -369l-18 29q190 124 190 249q0 34 -16.5 52t-38.5 22l-86 -80q-42 14 -75.5 52.5t-33.5 91.5z" />
<glyph unicode="&#x201c;" horiz-adv-x="917" d="M92 1178q0 201 270 368l19 -28q-191 -125 -191 -250q0 -34 17 -52t39 -22l86 80q41 -14 74.5 -52.5t33.5 -91.5q0 -66 -47.5 -107.5t-116.5 -41.5q-84 0 -134 52t-50 145zM477 1178q0 200 271 368l18 -28q-191 -125 -191 -250q0 -34 17 -52t39 -22l86 80 q41 -14 74.5 -52.5t33.5 -91.5q0 -66 -47 -107.5t-116 -41.5q-84 0 -134.5 52t-50.5 145z" />
<glyph unicode="&#x201d;" horiz-adv-x="911" d="M92 1341q0 66 47.5 108t116.5 42q84 0 134 -52t50 -145q0 -201 -270 -368l-18 28q190 124 190 250q0 34 -16.5 52t-38.5 22l-86 -80q-42 14 -75.5 52t-33.5 91zM471 1341q0 66 47.5 108t116.5 42q84 0 134 -52t50 -145q0 -201 -270 -368l-19 28q191 125 191 250 q0 34 -16.5 52t-38.5 22l-86 -80q-42 14 -75.5 52t-33.5 91z" />
<glyph unicode="&#x201e;" horiz-adv-x="911" d="M92 115q0 66 47.5 107.5t116.5 41.5q84 0 134 -51.5t50 -144.5q0 -202 -270 -369l-18 29q190 124 190 249q0 34 -16.5 52t-38.5 22l-86 -80q-42 14 -75.5 52.5t-33.5 91.5zM471 115q0 66 47.5 107.5t116.5 41.5q84 0 134 -51.5t50 -144.5q0 -202 -270 -369l-19 29 q191 125 191 249q0 34 -16.5 52t-38.5 22l-86 -80q-42 14 -75.5 52.5t-33.5 91.5z" />
<glyph unicode="&#x2022;" horiz-adv-x="819" d="M156 573q0 115 69 190t195 75q121 0 193.5 -66.5t72.5 -196.5q0 -121 -68.5 -193.5t-195.5 -72.5q-72 0 -125.5 22.5t-83 61.5t-43.5 84t-14 96z" />
<glyph unicode="&#x2026;" horiz-adv-x="1630" d="M92 156q0 78 46.5 129t129.5 51q84 0 133.5 -43.5t49.5 -130.5q0 -83 -46 -132.5t-131 -49.5q-94 0 -138 52t-44 124zM633 156q0 78 46.5 129t129.5 51t132.5 -43.5t49.5 -130.5q0 -84 -45.5 -133t-130.5 -49q-94 0 -138 52t-44 124zM1180 156q0 78 46.5 129t129.5 51 t132.5 -43.5t49.5 -130.5q0 -84 -45.5 -133t-130.5 -49q-94 0 -138 52t-44 124z" />
<glyph unicode="&#x202f;" horiz-adv-x="376" />
<glyph unicode="&#x2039;" horiz-adv-x="651" d="M102 461q0 35 27 78l363 282l18 -14l-176 -334l174 -358l-19 -15l-325 267q-33 28 -47.5 48.5t-14.5 45.5z" />
<glyph unicode="&#x203a;" horiz-adv-x="651" d="M143 115l174 334l-172 356l17 16l325 -266q33 -28 47.5 -48.5t14.5 -45.5q0 -35 -27 -78l-362 -283z" />
<glyph unicode="&#x205f;" horiz-adv-x="470" />
<glyph unicode="&#x20ac;" horiz-adv-x="1253" d="M23 596l12 57h123v43q0 43 4 121h-111l12 57h105q39 286 199 434t407 148q192 0 303 -79t111 -197q0 -71 -40.5 -119.5t-119.5 -48.5q-68 0 -114 39.5t-46 101.5q0 35 15 82h59q24 76 -24.5 128t-124.5 52q-54 0 -88.5 -14.5t-59.5 -47.5t-38.5 -98.5t-20 -153.5 t-8.5 -227h411l-12 -57h-399v-164h368l-12 -57h-356q1 -110 4.5 -188.5t13 -146t25.5 -110.5t41 -74t59 -44t80 -13q80 0 122 32t42 85q0 26 -11 51h-61q-14 44 -14 95q0 62 45.5 101.5t113.5 39.5q79 0 119.5 -48.5t40.5 -119.5q0 -117 -111.5 -196.5t-295.5 -79.5 q-277 0 -441.5 152.5t-187.5 463.5h-139z" />
<glyph unicode="&#x2122;" horiz-adv-x="1912" d="M121 1073l14 254h641l12 -254h-26q-42 95 -90.5 154.5t-85.5 70.5v-694h104v-35h-471v35h107v694q-37 -16 -87.5 -74t-91.5 -151h-26zM852 569v31h70v692h-70v35h371l137 -467l131 467h360v-35h-82v-692h82v-31h-413v31h80v690l-203 -721h-131l-219 707v-676h90v-31h-203 z" />
<glyph unicode="&#xe000;" horiz-adv-x="972" d="M0 0v973h973v-973h-973z" />
</font>
</defs>
</svg>
