<?xml version="1.0" standalone="no"?>
<!DOCTYPE svg PUBLIC "-//W3C//DTD SVG 1.1//EN" "http://www.w3.org/Graphics/SVG/1.1/DTD/svg11.dtd" >
<svg xmlns="http://www.w3.org/2000/svg">
<metadata></metadata>
<defs>
<font id="almendraregular" horiz-adv-x="550" >
<font-face units-per-em="1000" ascent="800" descent="-200" />
<missing-glyph horiz-adv-x="180" />
<glyph horiz-adv-x="1000" />
<glyph horiz-adv-x="1000" />
<glyph unicode="&#xd;" horiz-adv-x="1000" />
<glyph unicode=" "  horiz-adv-x="180" />
<glyph unicode="&#x09;" horiz-adv-x="180" />
<glyph unicode="&#xa0;" horiz-adv-x="180" />
<glyph unicode="!" horiz-adv-x="226" d="M52 46q6 12 23 27.5t31 22.5q13 -8 30 -23.5t24 -26.5q-7 -13 -24.5 -33t-29.5 -28q-12 8 -29.5 28t-24.5 33zM72 679q12 6 38 12t39 5q11 -10 32 -40q-47 -167 -62 -474l-26 -2z" />
<glyph unicode="&#x22;" horiz-adv-x="315" d="M63 649q12 6 38 12t39 5l12 -13q-31 -80 -46 -219l-30 -2zM198 649q12 6 38 12t39 5l12 -13q-31 -80 -46 -219l-30 -2z" />
<glyph unicode="#" d="M40 151l10 52l46 -4q18 -2 71 -4l16 129l-108 3l-8 6l10 53l45 -4q16 -2 67 -4l26 209q19 0 44 5l4 -3q-21 -112 -33 -213q33 -2 109 -4l26 215q19 0 44 5l4 -3q-21 -113 -33 -217v-1q100 -2 123 -1l7 -6l-10 -48l-127 3l-15 -131q96 -2 118 -1l7 -5l-10 -49l-121 3 l-27 -228h-5q-24 5 -41 21q18 99 31 208l-108 3l-27 -232h-5q-24 5 -41 21q18 99 31 208v4l-112 3zM208 193q32 -2 108 -4l16 131l-108 3z" />
<glyph unicode="$" horiz-adv-x="450" d="M55 11v13q37 46 43 112h22q0 -39 2 -61q41 -22 87 -25l9 174q-39 23 -61.5 38t-43 37.5t-20.5 42.5q0 43 41.5 91t101.5 78l3 77q16 2 27 6l4 -3q-6 -35 -7 -68q76 0 139 -16v-14q-37 -46 -43 -113h-22q0 40 -3 63q-38 14 -74 15l-6 -147q33 -19 49 -29.5t40 -28 t34.5 -33t10.5 -31.5q0 -52 -43.5 -105t-110.5 -86l-1 -90h-5q-17 5 -27 15l5 62q-79 0 -151 26zM153 399q0 -26 76 -73l5 131q-81 -9 -81 -58zM236 50q39 4 65.5 23.5t26.5 58.5q0 27 -85 77z" />
<glyph unicode="%" horiz-adv-x="744" d="M34 389q14 88 58 134.5t86 46.5q22 0 114 -15t161 -15q63 0 86 38l6 10q38 2 65 10l3 -3q-68 -97 -145 -217l-305 -478h-5q-26 12 -39 32q101 137 122 170l175 274q48 72 94 151l-4 1q-24 -25 -69 -25q-59 0 -177 36l-3 -3q47 -44 62 -128q-14 -88 -57 -134.5t-84 -46.5 q-48 0 -89 42.5t-55 119.5zM106 399q0 -45 20 -87t52 -54q33 12 52 53.5t19 87.5t-19 87.5t-52 53.5q-32 -12 -52 -54t-20 -87zM425 147q14 88 58 134.5t86 46.5q47 0 87 -42.5t54 -119.5q-14 -88 -57 -134.5t-84 -46.5q-48 0 -89 42.5t-55 119.5zM497 157q0 -45 20 -87 t52 -54q33 12 52 53.5t19 87.5t-19 87.5t-52 53.5q-32 -12 -52 -54t-20 -87z" />
<glyph unicode="&#x26;" horiz-adv-x="604" d="M34 191q0 124 132 188q-1 1 -8.5 15.5t-9 18t-8.5 16.5t-9 18.5t-7.5 17.5t-7 19t-4.5 17.5t-4 19t-1 17.5q20 36 74.5 76t96.5 52q136 0 136 -98q0 -39 -21.5 -74t-56.5 -51l1 -5l231 18l4 -4q-7 -18 -13 -47q-76 5 -134 7v-5q70 -25 70 -99q0 -81 -63 -167 q60 -70 98 -104q48 -2 98 -13l-2 -25q-15 1 -54 1q-107 0 -173 -15l-4 14q6 10 6 24q0 26 -24 54q-65 -62 -130 -92q-89 0 -151 59t-62 147zM114 231q0 -72 42 -120t111 -48q61 0 95 33q-96 110 -186 265q-62 -50 -62 -130zM182 551q0 -59 82.5 -185t149.5 -203 q29 46 29 120q0 61 -36.5 96.5t-99.5 37.5l-7 19q48 40 48 90q0 35 -26.5 53t-66.5 18q-47 0 -69 -19q-4 -11 -4 -27z" />
<glyph unicode="'" horiz-adv-x="180" d="M63 649q12 6 38 12t39 5l12 -13q-31 -80 -46 -219l-30 -2z" />
<glyph unicode="(" horiz-adv-x="297" d="M48 262q0 135 53 251.5t149 197.5l10 -10q-140 -191 -140 -439q0 -127 36 -250.5t104 -216.5l-10 -10q-94 80 -148 208.5t-54 268.5z" />
<glyph unicode=")" horiz-adv-x="297" d="M37 -205q68 93 104 216.5t36 250.5q0 248 -140 439l10 10q96 -81 149 -197.5t53 -251.5q0 -140 -54 -268.5t-148 -208.5z" />
<glyph unicode="*" horiz-adv-x="371" d="M43 465q0 3 25 35l-8.5 8.5t-9.5 11.5l1 2q55 -2 115 25q-64 27 -115 25l-1 2q2 4 9.5 11.5l8.5 8.5q-1 2 -8.5 10.5t-12 14.5t-4.5 10q4 3 43 -4q0 1 3 11.5t5 14.5h3q26 -48 78 -87q-9 65 -36 112l2 2q3 0 13.5 -3t12.5 -3q13 36 18 39q5 -2 18 -39q2 0 12.5 3t13.5 3 l2 -2q-29 -47 -36 -112q52 39 78 87h3q2 -4 5 -14.5t3 -11.5q38 7 43 4q0 -3 -25 -35l8.5 -8.5t9.5 -11.5l-1 -2q-52 2 -116 -25q60 -27 116 -25l1 -2q-2 -4 -9.5 -11.5l-8.5 -8.5q1 -2 8.5 -10.5t12 -14.5t4.5 -10q-5 -3 -43 4q0 -1 -3 -11.5t-5 -14.5h-3q-27 49 -78 87 q7 -65 36 -112l-2 -2q-3 0 -13.5 3t-12.5 3q-13 -36 -18 -39q-5 2 -18 39q-2 0 -12.5 -3t-13.5 -3l-2 2q28 47 36 112q-51 -38 -78 -87h-3q-2 4 -5 14.5t-3 11.5q-38 -7 -43 -4z" />
<glyph unicode="+" d="M58 229l9 51q122 -6 185 -7v203l47 9l5 -6q-5 -132 -5 -206v-1q37 -1 111 -1q46 0 85 3l6 -6l-9 -46h-193q0 -127 9 -222l-46 -9l-10 7v224h-186z" />
<glyph unicode="," horiz-adv-x="213" d="M36 -129q21 25 38 61.5t18 63.5q-26 24 -40 50q6 12 23 27.5t31 22.5q13 -8 30 -23.5t24 -26.5q0 -50 -34 -102t-80 -83z" />
<glyph unicode="-" horiz-adv-x="286" d="M28 242l6 46h46q88 0 172 10l8 -5l-6 -42l-217 -15z" />
<glyph unicode="." horiz-adv-x="212" d="M52 46q6 12 23 27.5t31 22.5q13 -8 30 -23.5t24 -26.5q-7 -13 -24.5 -33t-29.5 -28q-12 8 -29.5 28t-24.5 33z" />
<glyph unicode="/" horiz-adv-x="354" d="M16 -11q45 100 79 189l114 299q40 104 78 221q28 2 55 8l4 -3q-26 -59 -83 -212l-202 -532h-5q-23 10 -40 30z" />
<glyph unicode="0" horiz-adv-x="499" d="M42 221q21 128 84.5 196t124.5 68q69 0 126.5 -62t79.5 -175q-21 -128 -83.5 -195.5t-122.5 -67.5q-70 0 -128.5 62t-80.5 174zM141 235q0 -71 30 -136t80 -82q50 17 80 82t30 136t-30 136t-80 82q-50 -17 -80 -82t-30 -136z" />
<glyph unicode="1" horiz-adv-x="333" d="M42 11q40 13 78 22q9 74 9 157v84q0 101 -7 159q-47 13 -78 29l3 20q57 -12 116 -12q63 0 104 5l4 -20q-29 -8 -59 -21q-9 -67 -9 -160v-84q0 -102 7 -154q32 -9 59 -23l-3 -19q-51 6 -105 6q-64 0 -117 -8z" />
<glyph unicode="2" horiz-adv-x="444" d="M34 -5q19 38 62 88t81.5 88.5t68.5 87.5t30 90q0 37 -24 55.5t-64 18.5q-34 0 -62 -14q-7 -12 -7 -34q0 -18 10 -27l-1 -7q-26 -16 -48 -40q-12 1 -19 9.5t-7 19.5q0 46 53.5 92.5t108.5 62.5q81 0 118.5 -39t37.5 -120q-95 -126 -236 -247l2 -4q15 7 27 10q77 3 187 -11 q10 22 23 58l21 -7q-11 -39 -11 -73q0 -30 7 -59l-12 -8q-159 36 -296 36q-13 -13 -31 -36z" />
<glyph unicode="3" horiz-adv-x="450" d="M28 -63q38 43 43 112h22q0 -39 2 -61q24 -17 63.5 -29t69.5 -12q40 0 60 24q15 38 15 85q0 71 -37 111.5t-105 40.5l-4 6l135 183l-2 4q-15 -7 -27 -10q-58 0 -147 7q-9 -22 -20 -61l-21 7q7 40 7 65q0 34 -10 67l11 9q120 -27 280 -27q25 16 36 27l17 -15 q-38 -35 -177 -203q72 -12 112 -64.5t40 -136.5q-20 -55 -73.5 -107.5t-108.5 -73.5q-41 0 -93 11t-88 28v13z" />
<glyph unicode="4" horiz-adv-x="471" d="M3 73q161 187 261 387q42 10 73 25l8 -4q-13 -77 -13 -207t1 -165q38 0 53.5 7.5t27.5 36.5l16 -3q-9 -45 -9 -92l-4 -2q-35 3 -83 3q0 -67 8 -126q21 -11 51 -18l-4 -20q-57 5 -101 5q-49 0 -111 -12l-3 20q34 15 79 26q7 57 7 125h-253zM108 120q62 -6 152 -8l3 267h-7 q-62 -136 -148 -259z" />
<glyph unicode="5" horiz-adv-x="461" d="M40 -63q38 43 43 112h22q0 -39 2 -61q24 -17 63.5 -29t69.5 -12q40 0 60 24q15 38 15 85q0 70 -36.5 111t-104.5 41q-39 0 -70 -17l-12 9l10 175q4 67 -2 107l21 4q5 -18 9 -27q128 4 229 26l11 -9q-12 -35 -12 -79q0 -24 5 -54l-22 -5q-9 37 -18 60q-70 -7 -153 -7 l-23 10l-4 -5l-11 -155q45 25 65 30q98 -3 152 -56t54 -149q-20 -55 -73.5 -107.5t-108.5 -73.5q-41 0 -93 11t-88 28v13z" />
<glyph unicode="6" horiz-adv-x="451" d="M54 182q0 124 78.5 239t194.5 164l13 -18q-90 -59 -143.5 -152t-53.5 -200q0 -168 106 -168q49 0 69 24q15 38 15 75q0 152 -131 152q-15 0 -30 -3v7q28 20 57 48q192 0 192 -194q-22 -51 -81 -103.5t-112 -67.5q-174 0 -174 197z" />
<glyph unicode="7" horiz-adv-x="390" d="M48 474l11 9q125 -26 287 -26q8 9 17 24l20 -10q-191 -325 -193 -535q48 -9 80 -22l-2 -20q-124 14 -212 -5l-5 20q32 10 50 21q13 144 140 358l65 110l-3 4q-14 -7 -26 -11q-85 -3 -182 6q-9 -23 -18 -60l-22 5q5 30 5 54q0 43 -12 78z" />
<glyph unicode="8" horiz-adv-x="476" d="M58 130q0 43 36 92t81 80q-95 69 -95 152q23 37 79.5 78.5t98.5 52.5q58 0 98.5 -25.5t40.5 -74.5q0 -34 -35 -77t-74 -71q40 -25 64 -44t45 -53t21 -74q-22 -57 -76.5 -109.5t-112.5 -71.5q-66 0 -118.5 41.5t-52.5 103.5zM132 156q0 -45 35.5 -77t82.5 -32q45 0 65 24 q15 35 15 75q0 15 -6.5 29t-13.5 24t-24 24.5t-26.5 21t-33 22t-32.5 21.5q-62 -48 -62 -132zM167 466q0 -34 25 -59.5t75 -56.5q56 51 56 109q0 64 -86 64q-42 0 -63 -23q-7 -12 -7 -34z" />
<glyph unicode="9" horiz-adv-x="451" d="M30 314q22 51 81 103.5t112 67.5q174 0 174 -197q0 -124 -78.5 -239t-194.5 -164l-13 18q90 59 143.5 152t53.5 200q0 168 -106 168q-49 0 -69 -24q-15 -38 -15 -75q0 -152 131 -152q15 0 30 3v-7q-28 -20 -57 -48q-192 0 -192 194z" />
<glyph unicode=":" horiz-adv-x="212" d="M52 46q6 12 23 27.5t31 22.5q13 -8 30 -23.5t24 -26.5q-7 -13 -24.5 -33t-29.5 -28q-12 8 -29.5 28t-24.5 33zM52 435q6 12 23 27.5t31 22.5q13 -8 30 -23.5t24 -26.5q-7 -13 -24.5 -33t-29.5 -28q-12 8 -29.5 28t-24.5 33z" />
<glyph unicode=";" horiz-adv-x="212" d="M36 -129q21 25 38 61.5t18 63.5q-26 24 -40 50q6 12 23 27.5t31 22.5q13 -8 30 -23.5t24 -26.5q0 -50 -34 -102t-80 -83zM52 435q6 12 23 27.5t31 22.5q13 -8 30 -23.5t24 -26.5q-7 -13 -24.5 -33t-29.5 -28q-12 8 -29.5 28t-24.5 33z" />
<glyph unicode="&#x3c;" d="M52 222l14 64q56 17 186 66q124 47 222 97l24 -46l-5 -10l-359 -139v-4l359 -138l5 -10l-26 -47q-90 45 -206.5 91.5t-213.5 75.5z" />
<glyph unicode="=" d="M53 152l9 51q170 -9 343 -9q46 0 85 3l6 -6l-9 -46h-426zM53 306l9 51q170 -9 343 -9q46 0 85 3l6 -6l-9 -46h-426z" />
<glyph unicode="&#x3e;" d="M52 102l5 10l359 138v4l-359 139l-5 10l24 46q98 -50 222 -97q130 -49 186 -66l14 -64q-97 -29 -214 -75.5t-206 -91.5z" />
<glyph unicode="?" horiz-adv-x="335" d="M17 541q0 46 53.5 92.5t108.5 62.5q81 0 118.5 -39t37.5 -120q-63 -90 -158 -185q-7 -89 -11 -170l-26 -2l-21 139v19q120 120 120 222q0 37 -24 55.5t-64 18.5q-34 0 -62 -14q-7 -12 -7 -34q0 -18 10 -27l-1 -7q-26 -16 -48 -40q-12 1 -19 9.5t-7 19.5zM97 49 q6 12 23 27.5t31 22.5q13 -8 30 -23.5t24 -26.5q-7 -13 -24.5 -33t-29.5 -28q-12 8 -29.5 28t-24.5 33z" />
<glyph unicode="@" horiz-adv-x="860" d="M55 155q0 201 113 342.5t306 168.5q349 0 349 -303q0 -139 -64 -243.5t-186 -134.5q-15 18 -24.5 70t-9.5 90l-4 1q-35 -50 -83 -97t-91 -64q-55 0 -87.5 61t-32.5 130q0 104 56 190.5t150 118.5q67 0 140 -21q14 21 23 53l21 -6q-22 -92 -22 -276q0 -135 17 -204 q66 38 99.5 122t33.5 176q0 287 -301 287q-102 0 -177 -46q-73 -70 -116.5 -181t-43.5 -217q0 -150 72 -231t216 -81q62 0 119 22l7 -13q-60 -42 -134 -59q-176 0 -261 84.5t-85 260.5zM321 221q0 -49 17.5 -101.5t50.5 -52.5q35 0 85 50t65 90q0 149 -7 192q-53 24 -104 24 q-48 0 -74 -24q-33 -76 -33 -178z" />
<glyph unicode="A" horiz-adv-x="599" d="M-54 17q45 14 96 21l164 581q-56 6 -111 19l3 24q114 -11 227 -11q135 0 249 11l4 -25q-45 -14 -96 -21q-13 -96 -13 -262q0 -223 13 -319q53 -5 110 -19l-3 -24q-74 8 -156 8q-91 0 -144 -8l-4 25q45 14 96 21q8 66 11 213q-52 6 -111 6q-66 0 -109 -6q-24 -98 -24 -150 q0 -66 43 -91l-4 -14q-31 4 -96 4q-82 0 -141 -8zM183 301q45 -7 98 -7q70 0 111 7q0 242 -10 310q-31 3 -60 3q-32 0 -64 -3l-59 -244z" />
<glyph unicode="B" horiz-adv-x="576" d="M16 624v25q50 0 155.5 4.5t132.5 4.5q38 0 63 -2t52.5 -8.5t43.5 -19t26.5 -35t10.5 -54.5q0 -53 -39 -98.5t-95 -68.5v-4q72 0 117 -33t45 -98q0 -80 -74.5 -154.5t-161.5 -97.5q-63 0 -147 38q-17 -26 -23 -45l-21 5q24 109 24 342q0 189 -11 283q-48 16 -98 16z M202 325q0 -152 5 -240q52 -28 118 -28q53 0 88 24q23 49 23 110q0 154 -190 154l5 37h12q74 0 107 21q36 40 36 106q0 112 -119 112q-40 0 -76 -13q-9 -94 -9 -283z" />
<glyph unicode="C" horiz-adv-x="498" d="M42 265q0 138 73.5 252.5t197.5 148.5q101 0 206 -19l-1 -22q-26 0 -48 -9q-25 -59 -33 -138h-25q-9 40 -9 93q-47 25 -113 25q-65 0 -108 -36q-51 -87 -51 -221q0 -59 7.5 -104.5t25 -86t53.5 -62.5t87 -22q81 0 163 78l14 -13q-83 -106 -198 -144q-120 0 -180.5 75.5 t-60.5 204.5z" />
<glyph unicode="D" horiz-adv-x="619" d="M16 624v25q50 0 155.5 4.5t132.5 4.5q134 0 203.5 -69t69.5 -203q0 -139 -73 -252t-198 -149q-72 0 -161 38q-17 -26 -23 -45l-21 5q24 109 24 342q0 189 -11 283q-48 16 -98 16zM202 325q0 -152 5 -240q54 -28 132 -28q60 0 98 34q51 93 51 229q0 62 -10 113t-32 95 t-62.5 68.5t-96.5 24.5q-40 0 -76 -13q-9 -94 -9 -283z" />
<glyph unicode="E" horiz-adv-x="512" d="M42 265q0 138 73.5 252.5t197.5 148.5q101 0 206 -19l-1 -22q-26 0 -48 -9q-25 -59 -33 -138h-25q-9 40 -9 93q-47 25 -113 25q-65 0 -108 -36q-45 -77 -50 -187q43 -8 112 -8q111 0 132 43l20 -4q-9 -32 -9 -77q0 -43 6 -87l-23 -4q-15 38 -20 89q-38 3 -106 3 q-73 0 -113 -5q1 -56 9 -99t26.5 -81t53 -58.5t84.5 -20.5q81 0 163 78l14 -13q-83 -106 -198 -144q-120 0 -180.5 75.5t-60.5 204.5z" />
<glyph unicode="F" horiz-adv-x="488" d="M21 636l4 25q104 -10 266 -10q108 0 207 11l4 -20q-52 -53 -59 -158h-25q-9 43 -9 109q-43 21 -118 21q-41 0 -74 -5q-10 -68 -10 -243q43 -8 84 -8q78 0 99 43l20 -4q-9 -32 -9 -77q0 -44 6 -87l-23 -4q-15 38 -20 89q-37 3 -73 3q-44 0 -84 -5q1 -204 13 -281 q50 -5 110 -19l-3 -24q-74 8 -156 8q-91 0 -144 -8l-4 25q45 14 96 21q11 82 11 258v59q0 110 -13 258q-40 5 -96 23z" />
<glyph unicode="G" horiz-adv-x="557" d="M42 265q0 138 73.5 252.5t197.5 148.5q104 0 209 -19l-1 -22q-25 0 -48 -9q-27 -64 -33 -139h-25q-9 41 -9 93q-47 26 -116 26q-65 0 -108 -36q-51 -87 -51 -221q0 -60 7 -105t24.5 -85.5t53 -62.5t87.5 -22q56 0 100 29v83q0 23 -4 67q-35 10 -91 20l3 21q23 -3 44 -3 q88 0 161 49l9 -18q-23 -18 -36 -36q-12 -120 -20 -280h-21q-10 43 -24 71q-65 -57 -141 -82q-120 0 -180.5 75.5t-60.5 204.5z" />
<glyph unicode="H" horiz-adv-x="708" d="M21 634l4 25q53 -8 144 -8q82 0 156 8l3 -24q-57 -14 -110 -19q-9 -59 -11 -234q76 -10 149 -10q77 0 145 9q-1 132 -11 232q-51 7 -96 21l4 25q61 -8 142 -8q94 0 158 8l3 -24q-57 -14 -110 -19q-13 -74 -13 -261v-59q0 -187 13 -261q53 -5 110 -19l-3 -24q-64 8 -156 8 q-83 0 -144 -8l-4 25q45 14 96 21q10 101 11 290q-74 7 -145 7q-75 0 -149 -7q1 -214 13 -293q53 -5 110 -19l-3 -24q-74 8 -156 8q-91 0 -144 -8l-4 25q45 14 96 21q11 82 11 258v59q0 162 -13 258q-51 7 -96 21z" />
<glyph unicode="I" horiz-adv-x="337" d="M21 634l4 25q53 -8 144 -8q82 0 156 8l3 -24q-57 -14 -110 -19q-11 -75 -11 -261q0 -224 13 -320q53 -5 110 -19l-3 -24q-74 8 -156 8q-91 0 -144 -8l-4 25q45 14 96 21q11 82 11 258v59q0 162 -13 258q-51 7 -96 21z" />
<glyph unicode="J" horiz-adv-x="337" d="M-8 -161q76 64 107 137.5t31 177.5v201q0 186 -11 261q-53 5 -110 19l3 24q74 -8 156 -8q91 0 144 8l4 -25q-45 -14 -96 -21q-13 -96 -13 -258v-59q0 -185 8 -263q-56 -126 -206 -213z" />
<glyph unicode="K" horiz-adv-x="606" d="M20 634l4 25q53 -8 144 -8q72 0 146 8l3 -24q-64 -15 -100 -19q-11 -75 -11 -266v-56q126 133 165 197t39 104q0 29 -17 46l4 14q31 -4 69 -4q77 0 136 8l4 -25q-45 -14 -96 -21q-9 -85 -146 -216l167 -359q51 -7 96 -21l-4 -25q-59 8 -141 8q-55 0 -86 -4l-4 14 q17 17 17 57q0 81 -102 277q-56 -51 -100 -87q3 -155 12 -222q59 -6 113 -19l-3 -24q-74 8 -159 8q-91 0 -144 -8l-4 25q45 14 96 21q11 82 11 258v59q0 162 -13 258q-51 7 -96 21z" />
<glyph unicode="L" horiz-adv-x="456" d="M21 15q39 13 96 23q11 82 11 258v59q0 175 -11 258q-51 7 -96 21l4 25q53 -8 144 -8q82 0 156 8l3 -24q-60 -14 -110 -19q-13 -88 -13 -261q0 -239 10 -313q33 -5 74 -5q71 0 111 18q12 37 19 112h25q4 -106 33 -158l-6 -20q-100 11 -222 11q-135 0 -224 -10z" />
<glyph unicode="M" horiz-adv-x="864" d="M-28 17q45 14 96 21l116 579q-60 6 -110 18l3 24q74 -8 176 -8q64 0 104 4l2 -14q-34 -12 -34 -31q0 -66 79 -317l31 -98l7 2q1 22 124 412q0 10 -11 19.5t-23 12.5l3 14q50 -4 114 -4q110 0 162 8l5 -25q-48 -15 -97 -21q-5 -24 -5 -71q0 -76 16.5 -261t30.5 -246 q53 -5 110 -19l-3 -24q-74 8 -156 8q-90 0 -143 -8l-4 25q45 14 96 21q0 95 -11.5 267.5t-28.5 291.5l-3 1q-141 -390 -149 -493q-65 -39 -97 -76l-12 8q2 22 2 33q0 134 -130 531l-4 -1l-32 -233q-20 -143 -20 -258q0 -37 8.5 -61t34.5 -38l-4 -14q-31 4 -98 4 q-82 0 -141 -8z" />
<glyph unicode="N" horiz-adv-x="706" d="M21 634l4 25q50 -8 160 -8q49 0 93 6l5 -16q-12 -4 -23 -12.5t-11 -18.5q0 -24 51 -112t224 -358l4 2v144q0 168 -17 254t-60 101l4 14q31 -4 94 -4q77 0 136 8l3 -23q-71 -17 -99 -20q-13 -98 -13 -261v-59q0 -187 13 -261q51 -6 96 -18l-4 -25q-53 8 -126 8 q-34 0 -67 -3q0 69 -301 538l-4 -2v-168q0 -255 37 -330q55 -5 109 -19l-2 -24q-74 8 -156 8q-91 0 -144 -8l-4 25q45 14 96 21q11 82 11 258v59q0 162 -13 258q-51 7 -96 21z" />
<glyph unicode="O" horiz-adv-x="602" d="M42 265q0 139 74.5 253.5t196.5 147.5q122 0 184.5 -73t62.5 -206q0 -138 -68.5 -246.5t-190.5 -155.5q-117 0 -188 77.5t-71 202.5zM131 339q0 -70 19.5 -132t64.5 -106t107 -44q59 0 99 35q50 92 50 218q0 59 -9.5 107t-30.5 89.5t-59.5 64.5t-91.5 23q-60 0 -98 -34 q-51 -90 -51 -221z" />
<glyph unicode="P" horiz-adv-x="512" d="M21 624v25q50 0 156.5 4.5t133.5 4.5q206 0 206 -164q0 -89 -73 -144t-170 -55q-15 0 -22 1l4 32h12q75 0 115 38t40 113q0 71 -31 106.5t-98 35.5q-40 0 -78 -13q-9 -94 -9 -283q0 -201 12 -290q53 -5 110 -19l-3 -24q-74 8 -156 8q-91 0 -144 -8l-4 25q45 14 96 21 q12 82 12 287q0 189 -11 283q-48 16 -98 16z" />
<glyph unicode="Q" horiz-adv-x="602" d="M42 265q0 139 74.5 253.5t196.5 147.5q122 0 184.5 -73t62.5 -206q0 -130 -61.5 -234.5t-172.5 -156.5q50 0 149 -44.5t126 -50.5q44 17 86 41l11 -17q-71 -45 -115 -127l-28 20q-152 109 -269 109q-63 0 -107 -34l-17 16q42 44 119 77q-109 7 -174 83.5t-65 195.5z M131 339q0 -70 19.5 -132t64.5 -106t107 -44q59 0 99 35q50 92 50 218q0 59 -9.5 107t-30.5 89.5t-59.5 64.5t-91.5 23q-60 0 -98 -34q-51 -90 -51 -221z" />
<glyph unicode="R" horiz-adv-x="619" d="M21 16q57 14 110 19q13 96 13 290q0 189 -11 283q-48 16 -98 16v25q50 0 155.5 4.5t132.5 4.5q101 0 152 -33t51 -121q0 -122 -125 -170l140 -296q51 -7 96 -21l-4 -25q-59 8 -141 8q-55 0 -86 -4l-4 14q17 17 17 57q0 80 -94 255q-25 5 -58 5l3 22h12q72 0 111 35.5 t39 104.5q0 67 -30.5 99.5t-95.5 32.5q-40 0 -76 -13q-9 -94 -9 -283q0 -212 11 -287q51 -7 96 -21l-4 -25q-53 8 -144 8q-82 0 -156 -8z" />
<glyph unicode="S" horiz-adv-x="465" d="M11 -13q69 73 77 193h25l3 -93q57 -23 114 -23t90.5 26.5t33.5 77.5q0 30 -43 67.5t-95 67.5t-95 68.5t-43 70.5q0 70 64.5 135.5t141.5 88.5q86 0 163 -17v-20q-52 -48 -58 -148h-25q0 53 -5 93q-43 20 -101 20q-47 0 -80 -22t-33 -63q0 -30 43 -67t94.5 -66.5 t94.5 -67.5t43 -70q0 -73 -64.5 -148t-140.5 -105q-79 0 -147 18q-21 -10 -42 -30z" />
<glyph unicode="T" horiz-adv-x="519" d="M-13 642l6 20q96 -11 266 -11q189 0 285 11l4 -20q-33 -35 -44.5 -69t-14.5 -89h-25q-9 43 -9 109q-43 21 -103 21q-27 0 -44 -5q-10 -68 -10 -254q0 -224 13 -320q50 -5 110 -19l-3 -24q-74 8 -156 8q-91 0 -144 -8l-4 25q45 14 96 21q11 82 11 258v59q0 103 -13 254 q-17 5 -43 5q-58 0 -100 -18q-13 -42 -20 -112h-25q-4 107 -33 158z" />
<glyph unicode="U" horiz-adv-x="665" d="M14 634l4 25q59 -8 141 -8q55 0 86 4l4 -14q-45 -25 -52 -92q-14 -126 -14 -273q0 -40 3 -69.5t12 -57.5t24.5 -46t41.5 -28.5t62 -10.5q74 0 127 48q5 130 5 212q0 178 -11 292q-51 7 -96 21l4 22q61 -8 142 -8q94 0 158 8l3 -21q-57 -14 -110 -19q-13 -74 -13 -264v-59 q0 -187 13 -261q53 -5 110 -19l-3 -24q-64 8 -156 8q-40 0 -58 -1l-3 14q9 11 13 71q-58 -65 -146 -99q-111 0 -156.5 65.5t-45.5 190.5q0 57 7 181t7 136q0 34 -7 55q-51 7 -96 21z" />
<glyph unicode="V" horiz-adv-x="599" d="M-42 634l4 25q53 -8 148 -8q86 0 160 8l3 -24q-57 -14 -110 -19q7 -81 50.5 -244.5t93.5 -302.5q84 186 112.5 282.5t28.5 166.5q0 94 -50 123l4 14q31 -4 86 -4q82 0 141 8l4 -25q-45 -14 -96 -21q5 -35 5 -58q0 -88 -43.5 -189t-167.5 -331q51 -7 96 -21l-4 -22 q-59 8 -141 8q-63 0 -94 -4l-4 14q12 4 23 12.5t11 18.5q0 73 -133 488q-18 55 -31 84q-56 7 -96 21z" />
<glyph unicode="W" horiz-adv-x="906" d="M-42 636l4 25q97 -10 334 -10q216 0 313 10l4 -25q-44 -14 -96 -23q5 -35 5 -58q0 -34 -8 -77q38 -170 120 -409q74 187 97.5 283.5t23.5 165.5q0 94 -50 123l4 14q31 -4 86 -4q82 0 141 8l4 -25q-45 -14 -96 -21q5 -35 5 -58q0 -84 -41.5 -193t-150.5 -328q17 -9 46 -17 l-3 -21q-48 4 -91 4q-63 0 -94 -4l-4 14q12 4 23 12.5t11 18.5q0 59 -71 299h-4q-47 -121 -140 -306q17 -9 46 -17l-3 -21q-48 4 -91 4q-63 0 -94 -4l-4 14q12 4 23 12.5t11 18.5q0 73 -133 488q-18 55 -31 84q-57 10 -96 23zM164 609q9 -82 51.5 -243t91.5 -297 q74 187 97.5 283.5t23.5 165.5q0 68 -25 88.5t-97 20.5q-83 0 -142 -18z" />
<glyph unicode="X" horiz-adv-x="645" d="M-14 17q48 15 97 21q60 95 204 289l-180 286q-51 7 -96 21l4 25q63 -8 153 -8q101 0 181 8l3 -24q-57 -14 -110 -19q0 -62 100 -229q110 180 110 222q0 22 -20 32l4 14q50 -4 83 -4q78 0 130 8l5 -25q-48 -15 -97 -21q-53 -84 -190 -265l196 -310q51 -7 96 -21l-4 -25 q-59 8 -141 8q-55 0 -86 -4l-4 14q4 8 4 22q0 65 -115 254q-129 -215 -129 -251q53 -5 110 -19l-3 -24q-80 8 -163 8q-80 0 -137 -8z" />
<glyph unicode="Y" horiz-adv-x="545" d="M-34 634l4 25q53 -8 148 -8q86 0 160 8l3 -24q-57 -14 -110 -19q47 -140 120 -279q111 217 111 272q0 22 -20 32l4 14q50 -4 83 -4q78 0 130 8l5 -25q-48 -15 -97 -21l-196 -315q0 -167 13 -263q53 -5 110 -19l-3 -24q-74 8 -156 8q-91 0 -144 -8l-4 25q45 14 96 21 q11 82 11 207v26q-100 212 -127 266.5t-45 75.5q-56 7 -96 21z" />
<glyph unicode="Z" horiz-adv-x="491" d="M-15 0q50 50 90 118l284 469l-3 3h-135q-63 0 -107 -19q-11 -57 -25 -91l-24 4q2 38 2 58q0 49 -9 85q-16 9 -47 17l3 22q21 0 155.5 -13t219.5 -13q31 0 50 7.5t42 28.5l21 -16q-34 -33 -79 -111l-268 -476l4 -3h144q58 0 83 19q6 38 6 93h26q7 -113 79 -187l-19 -15 q-8 10 -20 18q-142 23 -339 23q-81 0 -113 -38z" />
<glyph unicode="[" horiz-adv-x="326" d="M94 -203q10 69 10 452q0 381 -10 450l7 5q68 -17 195 -15v-21q-78 -2 -132 -17v-806q54 -15 132 -17v-21q-127 2 -195 -15z" />
<glyph unicode="\" horiz-adv-x="351" d="M21 696q32 11 48 21h4q26 -95 69 -224l109 -318q32 -93 72 -192q-14 -16 -41 -28h-5l-178 523q-46 137 -78 218z" />
<glyph unicode="]" horiz-adv-x="326" d="M30 -172q78 2 132 17v806q-54 15 -132 17v21q127 -2 195 15l7 -5q-10 -69 -10 -450q0 -383 10 -452l-7 -5q-68 17 -195 15v21z" />
<glyph unicode="^" horiz-adv-x="518" d="M50 306q92 158 181 380l53 10q95 -238 184 -390l-29 -15l-180 289l-180 -289z" />
<glyph unicode="_" horiz-adv-x="615" d="M-3 -178l8 44q170 -9 462 -9q107 0 146 3l6 -6l-8 -39h-606z" />
<glyph unicode="`" horiz-adv-x="200" d="M0 634q1 10 9.5 30.5t15.5 28.5q17 3 43 1q24 -42 59.5 -84t72.5 -67l-11 -18z" />
<glyph unicode="a" horiz-adv-x="514" d="M50 176q0 104 56 190.5t150 118.5q67 0 140 -21q14 21 23 53l21 -6q-22 -90 -22 -318q0 -102 7 -160q24 -8 54 -8v-21q-64 -3 -135 -19l-7 4q11 69 11 156l-4 1q-35 -50 -83 -97t-91 -64q-55 0 -87.5 61t-32.5 130zM130 221q0 -49 17.5 -101.5t50.5 -52.5q35 0 85 50 t65 90q0 149 -7 192q-53 24 -104 24q-48 0 -74 -24q-33 -76 -33 -178z" />
<glyph unicode="b" horiz-adv-x="511" d="M67 734l21 6q9 -32 23 -53q55 9 107 24l5 -18q-19 -15 -47 -29q-15 -82 -15 -339l4 -1q35 50 83 97t91 64q55 0 87.5 -61t32.5 -130q0 -104 -56 -190.5t-150 -118.5q-96 0 -175 36q13 116 13 355q0 263 -24 358zM161 263q0 -149 7 -192q53 -24 104 -24q48 0 74 24 q33 76 33 178q0 49 -17.5 101.5t-50.5 52.5q-35 0 -85 -50t-65 -90z" />
<glyph unicode="c" horiz-adv-x="387" d="M50 190q0 103 56 187t146 108q61 0 121 -16v-14q-39 -48 -43 -105h-22q0 39 -2 61q-41 12 -73 12q-48 0 -74 -24q-29 -61 -29 -154q0 -41 3.5 -70.5t14 -58.5t33.5 -44t57 -15q55 0 114 53l10 -10q-58 -81 -141 -115q-87 0 -129 55t-42 150z" />
<glyph unicode="d" horiz-adv-x="514" d="M50 176q0 104 56 190.5t150 118.5q54 0 98 -10q0 130 -7 188q-24 8 -54 8v21q64 3 135 19l7 -5q-17 -98 -17 -330v-183q0 -102 7 -160q24 -8 54 -8v-21q-64 -3 -135 -19l-7 4q11 69 11 156l-4 1q-35 -50 -83 -97t-91 -64q-55 0 -87.5 61t-32.5 130zM130 221 q0 -50 17.5 -102t50.5 -52q35 0 85 50t65 90q0 149 -7 192q-53 24 -104 24q-48 0 -74 -24q-33 -76 -33 -178z" />
<glyph unicode="e" horiz-adv-x="426" d="M50 190q0 101 55 185.5t147 109.5q67 0 94 -26.5t27 -93.5q0 -38 -10 -65q21 -8 49 -8l-1 -21q-116 2 -281 -33q0 -40 4 -69t14.5 -56t33 -41.5t56.5 -14.5q63 0 123 53l11 -10q-57 -78 -146 -115q-88 0 -132 55t-44 150zM130 264q82 27 163 41q0 66 -12.5 92t-55.5 26 q-37 0 -66 -24q-27 -56 -29 -135z" />
<glyph unicode="f" horiz-adv-x="325" d="M47 431q0 16 3 22q13 5 53 17q10 78 64 145t128 96q44 0 90 -16v-14q-38 -47 -43 -115h-22q0 39 -2 61q-19 12 -49 12q-45 0 -70 -24q-21 -56 -21 -144l142 5l4 -4q-7 -18 -13 -47q-51 3 -134 3v-198q0 -134 12 -290q-19 3 -35 2q-30 -55 -45 -142l-18 1q12 216 12 429 v199h-54z" />
<glyph unicode="g" horiz-adv-x="503" d="M41 -165q19 67 112 167v4q-46 13 -73 67.5t-27 111.5q0 102 54 185.5t147 114.5q67 0 140 -21q44 9 77 19l5 -18q-19 -15 -47 -29q-13 -121 -13 -226q0 -168 7 -244q-22 -55 -83 -108.5t-121 -72.5q-93 0 -178 31v19zM120 -125q55 -28 123 -28q44 0 69 24q23 60 28.5 116 t5.5 183l-4 1q-15 -31 -42.5 -62.5t-55.5 -56t-54.5 -51t-46 -59t-23.5 -67.5zM133 229q0 -47 17.5 -97t49.5 -50q33 0 81.5 52.5t64.5 91.5q0 131 -7 173q-53 24 -104 24q-45 0 -72 -24q-30 -73 -30 -170z" />
<glyph unicode="h" horiz-adv-x="542" d="M38 13q30 13 59 20q9 68 9 157v186q0 263 -24 358l21 6q9 -32 23 -53q55 9 107 24l5 -18q-19 -15 -47 -29q-15 -82 -15 -339l4 -1q34 47 88.5 96.5t98.5 64.5q30 0 50 -14t28.5 -40.5t11 -53t1.5 -63.5l-5 -281q24 -8 54 -8v-21q-64 -3 -135 -19l-7 4q16 97 19 280 q2 18 0.5 41.5t-4.5 44t-13.5 34.5t-27.5 14q-39 0 -92 -49t-71 -91q0 -145 11 -233q27 -6 63 -19l-2 -19q-56 8 -105 8q-51 0 -102 -6z" />
<glyph unicode="i" horiz-adv-x="287" d="M48 13q30 13 59 20q9 68 9 157v84q0 81 -8 162q-26 8 -54 8v21q77 5 142 20l7 -4q-13 -77 -13 -207v-84q0 -108 7 -160q28 -6 63 -19l-2 -19q-56 8 -105 8q-51 0 -102 -6zM100 620q6 12 23 27.5t31 22.5q13 -8 30 -23.5t24 -26.5q-7 -13 -24.5 -33t-29.5 -28 q-12 8 -29.5 28t-24.5 33z" />
<glyph unicode="j" horiz-adv-x="291" d="M17 -200q96 117 96 253v137q0 165 -8 246q-26 8 -54 8v21q77 5 142 20l7 -4q-15 -88 -15 -260q0 -145 7 -221q-32 -109 -160 -215zM98 620q6 12 23 27.5t31 22.5q13 -8 30 -23.5t24 -26.5q-7 -13 -24.5 -33t-29.5 -28q-12 8 -29.5 28t-24.5 33z" />
<glyph unicode="k" horiz-adv-x="515" d="M43 13q30 13 59 20q9 68 9 197v187q0 151 -8 232q-26 8 -54 8v21q99 7 190 33l5 -18q-19 -15 -47 -29q-16 -88 -16 -338l4 -2q35 50 85 97.5t94 63.5q36 -9 58 -42t22 -72q0 -100 -100 -143l30 -64q10 -21 20.5 -45t16 -36t12.5 -24.5t14 -21.5q0 -2 21.5 -5t32.5 -3v-21 q-69 -3 -142 -20l-9 5q0 70 -57 218q-24 -2 -36 -2v21q54 3 85.5 31.5t31.5 79.5q0 17 -7.5 40.5t-19.5 31.5q-39 -7 -88.5 -57.5t-67.5 -92.5q0 -145 11 -233q28 -6 63 -19l-2 -19q-56 8 -105 8q-51 0 -102 -6z" />
<glyph unicode="l" horiz-adv-x="298" d="M43 13q30 13 59 20q9 64 10 197l2 187q2 145 -7 232q-26 8 -54 8v21q100 7 191 33l5 -18q-19 -15 -47 -29q-12 -66 -14 -247l-2 -187q-2 -143 6 -200q28 -6 63 -19l-2 -19q-56 8 -105 8q-51 0 -102 -6z" />
<glyph unicode="m" horiz-adv-x="809" d="M38 13q30 13 59 20q9 68 9 157v84q0 92 -7 163q-24 8 -54 8v21q64 3 135 19l7 -4q-11 -69 -11 -156l4 -1q32 47 84 96.5t94 64.5q90 0 90 -160l4 -1q32 47 84 96.5t94 64.5q94 0 90 -171l-5 -281q29 -7 59 -20l-3 -19q-48 6 -95 6q-20 0 -48 -2v14q15 78 19 257 q3 134 -42 134q-36 0 -88 -49t-70 -91l-4 -232q34 -7 69 -20l-2 -19q-56 8 -106 8q-20 0 -48 -2v14q15 78 19 257q3 134 -42 134q-36 0 -87.5 -49t-69.5 -91q0 -145 11 -233q27 -6 63 -19l-2 -19q-56 8 -105 8q-51 0 -102 -6z" />
<glyph unicode="n" horiz-adv-x="547" d="M38 13q30 13 59 20q9 68 9 157v84q0 92 -7 163q-24 8 -54 8v21q64 3 135 19l7 -4q-11 -69 -11 -156l4 -1q34 47 88.5 96.5t98.5 64.5q30 0 50 -14t28.5 -40.5t11 -53t1.5 -63.5l-5 -281q29 -7 59 -20l-3 -19q-48 6 -96 6q-19 0 -49 -2v14q16 78 20 257q2 18 0.5 41.5 t-4.5 44t-13.5 34.5t-27.5 14q-39 0 -92 -49t-71 -91q0 -145 11 -233q27 -6 63 -19l-2 -19q-56 8 -105 8q-51 0 -102 -6z" />
<glyph unicode="o" horiz-adv-x="488" d="M45 190q0 102 57.5 186.5t151.5 108.5q93 0 141 -54t48 -151q0 -93 -56 -177t-143 -118q-87 0 -143 58.5t-56 146.5zM125 245q0 -73 37 -135.5t99 -62.5q42 0 70 25q32 61 32 153q0 83 -33.5 140.5t-102.5 57.5q-42 0 -69 -24q-33 -63 -33 -154z" />
<glyph unicode="p" horiz-adv-x="513" d="M34 -185q30 7 51 18q10 86 10 281v163q0 102 -7 160q-24 8 -54 8v21q64 3 135 19l7 -4q-11 -69 -11 -156l4 -1q35 50 83 97t91 64q55 0 87.5 -61t32.5 -130q0 -104 -56 -190.5t-150 -118.5q-54 0 -98 10q0 -109 7 -161q45 -11 79 -26l-3 -20q-62 12 -107 12q-40 0 -97 -5 zM165 263q0 -149 7 -192q53 -24 104 -24q48 0 74 24q33 76 33 178q0 49 -17.5 101.5t-50.5 52.5q-35 0 -85 -50t-65 -90z" />
<glyph unicode="q" horiz-adv-x="516" d="M50 176q0 104 56 190.5t150 118.5q67 0 140 -21q44 9 77 19l5 -18q-19 -15 -47 -29q-13 -104 -13 -342q0 -193 8 -257q33 -6 54 -12l2 -19q-96 -6 -198 -33l-7 20q47 15 60 29q10 94 11 323l-4 1q-35 -50 -83 -97t-91 -64q-55 0 -87.5 61t-32.5 130zM130 221 q0 -49 17.5 -101.5t50.5 -52.5q35 0 85 50t65 90q0 149 -7 192q-53 24 -104 24q-48 0 -74 -24q-33 -76 -33 -178z" />
<glyph unicode="r" horiz-adv-x="381" d="M38 13q30 13 59 20q9 68 9 157v84q0 92 -7 163q-24 8 -54 8v21q64 3 135 19l7 -4q-11 -69 -11 -156l4 -1q14 40 51.5 92.5t69.5 68.5q45 0 88 -16v-14q-38 -48 -43 -125h-22q0 39 -2 61q-13 10 -34 10q-30 0 -63.5 -47.5t-48.5 -90.5q0 -145 11 -233q50 -7 84 -19l-2 -19 q-51 8 -115 8q-56 0 -113 -6z" />
<glyph unicode="s" horiz-adv-x="391" d="M28 6v14q39 48 43 105h22l2 -61q46 -17 90 -17q38 0 65.5 18t27.5 60q0 18 -33 41.5t-72 43.5t-72 48.5t-33 55.5q0 53 56.5 106.5t106.5 64.5q64 0 124 -16v-14q-39 -48 -43 -105h-22q0 39 -2 61q-39 12 -76 12q-33 0 -60.5 -13.5t-27.5 -43.5q0 -18 33 -42t72 -43.5 t72 -48.5t33 -56q0 -61 -55.5 -117.5t-112.5 -73.5q-72 0 -138 21z" />
<glyph unicode="t" horiz-adv-x="344" d="M44 431q0 16 3 22q84 55 110 114q12 3 28 3l4 -2q-10 -60 -12 -97l140 5l4 -4q-7 -18 -13 -47q-51 3 -134 3l-4 -198q-4 -173 30 -173q55 0 114 53l10 -10q-58 -81 -141 -115q-57 0 -73.5 52t-13.5 193l4 199h-54z" />
<glyph unicode="u" horiz-adv-x="542" d="M35 445v21q64 3 135 19l7 -4q-16 -97 -19 -280q-2 -18 -0.5 -41.5t4.5 -44t13.5 -34.5t27.5 -14q39 0 92 49t71 91q0 145 -11 233q-27 6 -63 19l2 19q56 -8 105 -8q51 0 102 6l3 -19q-30 -13 -59 -20q-9 -68 -9 -157v-84q0 -92 7 -163q24 -8 54 -8v-21q-64 -3 -135 -19 l-7 2q11 69 11 158l-4 1q-34 -47 -88.5 -96.5t-98.5 -64.5q-30 0 -50 14t-28.5 40.5t-11 53t-1.5 63.5l5 281q-24 8 -54 8z" />
<glyph unicode="v" horiz-adv-x="479" d="M18 444v21q67 3 142 20l7 -4q-8 -28 -8 -58q0 -39 9 -93q20 -121 37.5 -187.5t27 -81.5t20.5 -15q57 70 83.5 139.5t26.5 156.5q0 50 -21 92q-29 9 -56 9l1 21q102 4 192 27l4 -18q-13 -10 -48 -28q8 -26 8 -50q0 -94 -53 -202.5t-127 -184.5q-27 -13 -59 -23 q-13 3 -24.5 17.5t-25.5 50t-29.5 106t-32.5 175.5q-11 68 -20 102q-24 8 -54 8z" />
<glyph unicode="w" horiz-adv-x="728" d="M18 444v21q67 3 142 20l7 -4q-8 -28 -8 -58q0 -39 9 -93q19 -121 35 -187.5t25 -81.5t19 -15q53 70 77.5 139.5t24.5 156.5q0 57 -18 94q-24 8 -54 8v21q59 -4 146 -4q181 0 301 30l4 -18q-13 -10 -48 -28q8 -26 8 -50q0 -94 -51 -202.5t-122 -184.5q-25 -13 -56 -23 q-46 11 -83 203q-47 -101 -120 -180q-25 -13 -56 -23q-17 4 -31.5 28t-35 103.5t-41.5 217.5q-11 68 -20 102q-24 8 -54 8zM418 423q0 -39 9 -93q19 -121 35 -187.5t25 -81.5t19 -15q53 70 77.5 139.5t24.5 156.5q0 50 -21 92q-29 9 -56 9q-81 0 -113 -20z" />
<glyph unicode="x" horiz-adv-x="490" d="M10 1v14q38 48 43 125h22q0 -39 2 -61q13 -10 34 -10q22 0 85 120l18 35l-42 76q-38 65 -87 136q-24 8 -54 8v21q67 3 142 20l7 -4q0 -28 9 -51t48 -93l21 -37q28 59 63 115.5t61 69.5q45 0 88 -16v-14q-38 -48 -43 -125h-22q0 39 -2 61q-13 10 -34 10q-22 0 -73 -97 l-20 -38l58 -102q54 -95 82 -131q0 -2 21.5 -5t32.5 -3v-21q-63 -3 -133 -19l-8 2q0 28 -60 138l-36 64q-24 -56 -65.5 -123t-69.5 -81q-45 0 -88 16z" />
<glyph unicode="y" horiz-adv-x="530" d="M38 445v21q63 3 133 19l7 -4q-16 -97 -19 -280q-3 -134 42 -134q36 0 88.5 50.5t67.5 89.5q0 145 -11 233q-27 6 -63 19l2 19q56 -8 105 -8q51 0 102 6l3 -19q-30 -13 -59 -20q-9 -68 -9 -157v-84q0 -159 7 -230q-19 -55 -80 -107.5t-121 -73.5q-92 0 -168 29v13 q37 44 42 112h21q0 -39 2 -61q56 -31 128 -31q40 0 65 24q23 61 28.5 110.5t5.5 163.5l-4 1q-30 -45 -83 -95.5t-95 -65.5q-29 0 -48 14t-27.5 40.5t-11 53t-1.5 63.5l5 281q-24 8 -54 8z" />
<glyph unicode="z" horiz-adv-x="412" d="M7 0q32 32 73 90l209 295l-64 3q-111 4 -137 2q-20 -20 -37 -49l-19 11q29 53 36 126l13 7q25 -12 48 -16.5t103 -10.5l108 -9q31 17 50 36l17 -15q-42 -42 -73 -90l-192 -291l2 -4q15 7 27 10q86 0 171 -20q10 22 23 58l21 -7q-11 -39 -11 -73q0 -31 7 -60l-12 -8 q-154 46 -286 46q-31 -17 -60 -46z" />
<glyph unicode="{" horiz-adv-x="300" d="M44 255q72 16 72 54q0 47 -13.5 130t-13.5 130q0 44 43.5 86t91.5 56l4 -14q-27 -14 -51 -40t-33 -53q0 -47 22.5 -141t22.5 -134q-14 -34 -91 -79v-4q77 -45 91 -79q0 -40 -22.5 -134t-22.5 -141q9 -27 33 -53t51 -40l-4 -14q-48 14 -91.5 56t-43.5 86q0 48 13.5 130.5 t13.5 129.5q0 20 -20.5 32t-47.5 17z" />
<glyph unicode="|" horiz-adv-x="238" d="M89 723q34 14 52 27l5 -1q-2 -142 -2 -948q-18 -10 -41 -17l-7 3q0 689 -7 936z" />
<glyph unicode="}" horiz-adv-x="288" d="M72 -201q27 14 51 40t33 53q0 47 -22.5 141t-22.5 134q14 34 91 79v4q-77 45 -91 79q0 40 22.5 134t22.5 141q-9 27 -33 53t-51 40l4 14q48 -14 91.5 -56t43.5 -86q0 -47 -13.5 -130t-13.5 -130q0 -38 72 -54l-4 -19q-27 -5 -47.5 -17t-20.5 -32q0 -47 13.5 -129.5 t13.5 -130.5q0 -44 -43.5 -86t-91.5 -56z" />
<glyph unicode="~" horiz-adv-x="590" d="M50 211q22 41 69.5 76.5t91.5 40.5q43 -29 96 -49.5t97 -20.5q69 0 118 58l18 -11q-20 -38 -64 -71.5t-87 -45.5q-33 0 -110 33t-110 33q-66 0 -101 -54z" />
<glyph unicode="&#xa1;" horiz-adv-x="226" d="M45 -160q47 157 62 459l26 2l21 -484q-12 -6 -38 -12t-39 -5q-11 10 -32 40zM66 436q7 11 24 26.5t30 23.5q14 -7 31 -22.5t23 -27.5q-7 -13 -24.5 -33t-29.5 -28q-12 8 -29.5 28t-24.5 33z" />
<glyph unicode="&#xa2;" horiz-adv-x="450" d="M76 205q0 94 47.5 173.5t126.5 111.5l4 98q15 2 28 6l4 -3q-5 -34 -8 -91q61 0 121 -16v-14q-39 -48 -43 -105h-22q0 39 -2 61q-38 10 -56 11l-13 -365h1q55 0 114 53l10 -10q-52 -74 -127 -109l-1 -98h-5q-16 5 -27 15l6 77q-81 4 -119.5 58.5t-38.5 146.5zM156 260 q0 -37 2.5 -64t10.5 -54t25 -44t42 -23l12 363q-38 -2 -63 -24q-29 -61 -29 -154z" />
<glyph unicode="&#xa3;" horiz-adv-x="450" d="M26 -1q37 37 72 89q6 21 6 47.5t-2.5 59t-2.5 46.5v1l-39 -3l-9 6l6 46h46q14 86 70 155.5t139 91.5q69 0 128 -16v-14q-37 -46 -43 -113h-22q0 41 -3 64q-42 14 -80 14q-50 0 -80 -26q-31 -65 -31 -154q57 2 144 12l8 -5l-6 -42l-148 -11q-7 -97 -49 -159l3 -3 q15 7 27 10q101 2 204 -21q10 22 23 58l21 -7q-11 -39 -11 -73q0 -31 7 -60l-12 -8q-154 46 -289 46q-31 -17 -60 -46z" />
<glyph unicode="&#xa4;" horiz-adv-x="567" d="M32 110q25 21 83 75q-34 42 -34 101q0 84 52 145q-55 50 -101 90q5 26 24 47h5l105 -104q56 45 135 59q76 0 129 -36q14 14 40 42t37 39q42 -14 53 -16l2 -4l-99 -93q33 -42 33 -105q0 -89 -57 -152q85 -81 123 -115l-2 -4q-11 -2 -53 -16l-101 105q-51 -39 -117 -52 q-82 0 -137 36l-91 -89h-5q-19 21 -24 47zM154 329q0 -73 38 -116t112 -43q58 0 87 26q32 45 32 114q0 74 -38 116.5t-112 42.5q-58 0 -87 -26q-32 -45 -32 -114z" />
<glyph unicode="&#xa5;" horiz-adv-x="450" d="M-21 509l2 20q119 -13 220 5l5 -20q-32 -10 -50 -21q13 -59 93 -222q86 168 86 220q0 19 -13 32l3 7q29 -7 70 -7q42 0 70 4l2 -22q-35 -4 -54 -13l-144 -246v-1l44 2q63 3 84 5q4 -20 9 -31v-5l-137 -2q0 -34 1 -49l43 2q63 3 84 5q4 -20 9 -31v-5l-135 -2q1 -49 9 -104 q28 -6 63 -19l-2 -19q-56 8 -105 8q-51 0 -102 -6l-3 19q30 13 59 20q4 34 7 99h-11q-72 -2 -118 -9l-3 4q6 20 7 32l126 4q0 8 0.5 24t0.5 25h-13q-72 -2 -118 -9l-3 4q6 20 7 32l118 4q-86 178 -131 244q-48 9 -80 22z" />
<glyph unicode="&#xa6;" horiz-adv-x="245" d="M94 187q34 14 52 27l5 -1q-2 -142 -2 -411q-18 -10 -41 -17l-7 3q-1 182 -7 399zM94 725q34 14 52 27l5 -1q-2 -142 -2 -411q-18 -10 -41 -17l-7 3q-1 182 -7 399z" />
<glyph unicode="&#xa7;" horiz-adv-x="467" d="M18 295q8 25 34.5 64t47.5 61l14 -13q-18 -24 -18 -62q0 -29 29 -61.5t70 -63t82 -62.5t70 -69t29 -73q-23 -37 -79.5 -78.5t-98.5 -52.5q-72 0 -138 21v14q39 48 43 105h22l2 -61q46 -17 90 -17q42 0 65 23q7 12 7 34q0 35 -39.5 75t-88 70.5t-92.5 71t-51 74.5zM85 535 q23 37 79.5 78.5t98.5 52.5q64 0 124 -16v-14q-39 -48 -43 -105h-22q0 39 -2 61q-39 12 -76 12q-42 0 -65 -23q-7 -12 -7 -34q0 -35 39.5 -75t88 -70.5t92.5 -71t51 -74.5q-8 -25 -34.5 -64t-47.5 -61l-14 13q18 24 18 62q0 29 -29 61.5t-70 63t-82 62.5t-70 69t-29 73z" />
<glyph unicode="&#xa8;" horiz-adv-x="293" d="M0 620q6 12 23 27.5t31 22.5q13 -8 30 -23.5t24 -26.5q-7 -13 -24.5 -33t-29.5 -28q-12 8 -29.5 28t-24.5 33zM185 620q6 12 23 27.5t31 22.5q13 -8 30 -23.5t24 -26.5q-7 -13 -24.5 -33t-29.5 -28q-12 8 -29.5 28t-24.5 33z" />
<glyph unicode="&#xa9;" horiz-adv-x="765" d="M42 325q0 141 99.5 241t240.5 100t241 -100t100 -241t-100 -240.5t-241 -99.5t-240.5 99.5t-99.5 240.5zM86 325q0 -123 86.5 -210.5t209.5 -87.5t210 87.5t87 210.5t-87 211t-210 88t-209.5 -88t-86.5 -211zM223 289q0 77 48.5 147t120.5 95q63 0 120 -13l-1 -17 q-17 -2 -24 -7q-16 -35 -21 -83h-18q-7 30 -7 53q-28 15 -64 15q-32 0 -55 -16q-28 -54 -28 -129q0 -73 19.5 -115t74.5 -42q48 0 96 44l12 -13q-44 -55 -122 -89q-75 0 -113 45t-38 125z" />
<glyph unicode="&#xaa;" horiz-adv-x="410" d="M38 414q0 84 47 154.5t125 97.5q56 0 117 -17q13 20 20 43l17 -5q-18 -86 -18 -258q0 -81 6 -129q15 -7 40 -7v-18q-47 -2 -112 -16l-6 3q9 53 9 127h-3q-29 -40 -67.5 -78t-72.5 -52q-47 0 -74.5 49t-27.5 106zM109 451q0 -39 13.5 -81t39.5 -42q28 0 68 39.5t53 71.5 q0 119 -6 155q-37 20 -83 20q-38 0 -59 -20q-26 -61 -26 -143z" />
<glyph unicode="&#xab;" horiz-adv-x="413" d="M21 269v20q95 52 178 150l19 -13l-107 -143l108 -158l-20 -14q-93 107 -178 158zM197 271v20q100 55 168 135l19 -13l-97 -128l98 -143l-20 -14q-91 96 -168 143z" />
<glyph unicode="&#xac;" d="M51 245l9 51q169 -9 343 -9q46 0 85 3l6 -6q0 -64 5 -196l-5 -6l-47 9v147h-388z" />
<glyph unicode="&#xad;" horiz-adv-x="286" d="M28 242l6 46h46q88 0 172 10l8 -5l-6 -42l-217 -15z" />
<glyph unicode="&#xae;" horiz-adv-x="434" d="M21 500q0 82 57 139t139 57t139 -57t57 -139t-57 -139t-139 -57t-139 57t-57 139zM57 500q0 -68 46.5 -115t113.5 -47t112.5 47t45.5 115t-45.5 114t-112.5 46t-113.5 -46t-46.5 -114zM125 404v11q12 3 25 5q4 40 4 87q0 61 -3 82q-12 4 -22 4v12q14 0 46.5 1.5t43.5 1.5 q36 0 55 -9.5t19 -37.5q0 -38 -37 -53l43 -88l20 -5v-11q-21 3 -43 3q-20 0 -36 -2l-2 7q6 5 6 16q0 23 -26 75q-8 3 -15 3l1 11h4q39 0 39 39q0 34 -33 34q-9 0 -17 -3q-1 -19 -1 -80q0 -73 3 -87l22 -5l-1 -11q-23 3 -48 3q-23 0 -47 -3z" />
<glyph unicode="&#xaf;" horiz-adv-x="274" d="M0 591l9 50l45 -3q49 -3 104 -3q63 0 108 4l8 -5l-9 -46l-256 -3z" />
<glyph unicode="&#xb0;" horiz-adv-x="367" d="M45 509q0 61 41.5 104t105.5 54q58 0 94 -30t36 -85q0 -60 -38 -101.5t-100 -54.5q-59 0 -99 29.5t-40 83.5zM102 538q0 -47 23.5 -75t67.5 -28q35 0 53 17q19 29 19 73q0 48 -23 75.5t-68 27.5q-35 0 -53 -17q-19 -29 -19 -73z" />
<glyph unicode="&#xb1;" d="M50 7l9 51q170 -9 343 -9q46 0 85 3l6 -6l-9 -46h-426zM58 274l9 51q122 -6 185 -7v158l47 9l5 -6q-5 -88 -5 -161v-1q37 -1 111 -1q46 0 85 3l6 -6l-9 -46h-193q0 -82 9 -177l-46 -9l-10 7v179h-186z" />
<glyph unicode="&#xb2;" horiz-adv-x="372" d="M32 347q18 37 70 91.5t90.5 104.5t38.5 93q0 28 -19.5 43t-50.5 15q-28 0 -51 -11q-5 -12 -5 -27q0 -16 8 -21v-6q-12 -7 -40 -33q-23 2 -23 24q0 37 44.5 74.5t89.5 51.5q66 0 97 -32t31 -98q-76 -99 -190 -198l2 -3q11 5 19 7q67 3 150 -8q10 19 20 47l17 -6 q-9 -30 -9 -61q0 -21 6 -48l-10 -7q-144 30 -242 30q-14 -14 -26 -30z" />
<glyph unicode="&#xb3;" horiz-adv-x="334" d="M30 365v12q23 32 30 83h18q0 -27 1 -42q48 -27 93 -27q27 0 37 12q9 23 9 52q0 47 -23.5 73.5t-69.5 26.5l-3 4l85 119l-2 3q-11 -5 -19 -7q-45 0 -95 5q-10 -18 -16 -42l-17 6q5 28 5 51t-7 45l9 6q86 -18 203 -18q14 8 23 18l13 -11q-21 -19 -119 -134 q104 -19 104 -138q-13 -37 -51 -73t-78 -50q-71 0 -130 26z" />
<glyph unicode="&#xb4;" horiz-adv-x="200" d="M0 543q37 25 72.5 67t59.5 84q26 2 43 -1q7 -8 15.5 -28.5t9.5 -30.5l-189 -109z" />
<glyph unicode="&#xb5;" horiz-adv-x="529" d="M69 -212q9 63 19 355l4 188q1 88 -6 136l4 3q57 6 92 15l6 -5q-35 -143 -35 -308q0 -25 1 -38t5 -31.5t14.5 -27t27.5 -8.5q38 0 90 48.5t70 91.5q0 189 -14 263q60 6 98 15l6 -5q-20 -69 -20 -246q0 -130 7 -201q24 -8 54 -8v-21q-64 -3 -135 -19l-7 2q11 69 11 158 l-4 1q-34 -48 -87 -97.5t-97 -63.5q-25 0 -37 14q0 -105 21 -195l-3 -3q-44 -8 -76 -20z" />
<glyph unicode="&#xb6;" horiz-adv-x="574" d="M-5 502q0 67 51 111.5t150 44.5q16 0 137 -7v-7q-16 -113 -16 -319v-144q0 -49 -2.5 -84t-13 -78t-29 -70t-53.5 -45.5t-83 -18.5q-12 0 -21 7.5t-10 19.5q27 25 42 50l7 1q11 -10 39 -10q32 0 46 7q28 76 28 171v165q-12 -1 -34 -1q-105 0 -171.5 64t-66.5 143zM352 3 q10 32 13.5 87.5t3.5 234.5q0 230 12 324q43 -4 136 -4h36v-25q-50 0 -98 -16q-11 -93 -11 -279q0 -205 12 -287q51 -7 96 -21l-4 -25q-61 8 -137 8q-37 0 -57 -1z" />
<glyph unicode="&#xb7;" horiz-adv-x="212" d="M52 284q6 12 23 27.5t31 22.5q13 -8 30 -23.5t24 -26.5q-7 -13 -24.5 -33t-29.5 -28q-12 8 -29.5 28t-24.5 33z" />
<glyph unicode="&#xb8;" horiz-adv-x="184" d="M0 -194q10 19 16 39l4 2q32 -25 68 -25q18 0 26 5q9 13 9 31q0 45 -83 45l-6 4l38 107l29 2l-24 -62l4 -3q46 0 74.5 -21t28.5 -63q-14 -27 -40.5 -49.5t-55.5 -32.5q-44 0 -88 21z" />
<glyph unicode="&#xb9;" horiz-adv-x="303" d="M68 667q0 11 2 17q72 20 110 60q12 2 26 2l3 -2q-11 -81 -11 -170v-67q0 -81 6 -127q25 -8 45 -17l-3 -17q-40 6 -83 6q-47 0 -86 -7l-2 17q25 11 50 16q8 69 8 129v67q0 44 -3 91h-60z" />
<glyph unicode="&#xba;" horiz-adv-x="395" d="M32 427q0 82 48 150.5t126 88.5q77 0 117 -44t40 -123q0 -75 -46.5 -143t-118.5 -97q-72 0 -119 48t-47 120zM103 470q0 -59 29.5 -108t79.5 -49q32 0 54 20q26 47 26 123q0 65 -27 111t-81 46q-34 0 -54 -19q-27 -53 -27 -124z" />
<glyph unicode="&#xbb;" horiz-adv-x="413" d="M28 142l98 143l-95 128l17 13q68 -80 168 -135v-20q-77 -47 -168 -143zM194 125l108 158l-105 143l17 13q83 -98 178 -150v-20q-85 -51 -178 -158z" />
<glyph unicode="&#xbc;" horiz-adv-x="830" d="M68 587q0 11 2 17q72 20 110 60q12 2 26 2l3 -2q-11 -81 -11 -170v-67q0 -81 6 -127q25 -8 45 -17l-3 -17q-40 6 -83 6q-47 0 -86 -7l-2 17q25 11 50 16q8 69 8 129v67q0 44 -3 91h-60zM117 -1q93 118 125 161l254 351q59 82 132 193q22 -5 53 -7l4 -3q-32 -40 -136 -184 l-398 -552l-5 1q-17 14 -29 40zM470 123q137 160 191 266q36 4 71 17l6 -2q-9 -48 -9 -141v-107q55 0 66 32l14 -4q-7 -32 -5 -73l-4 -2q-24 2 -70 2q0 -45 5 -70q13 -7 45 -16l-3 -18q-40 6 -91 6q-47 0 -80 -8l-2 17q27 12 54 17q5 29 5 72h-189zM555 163q44 -6 108 -6 l2 174h-5q-33 -70 -105 -168z" />
<glyph unicode="&#xbd;" horiz-adv-x="830" d="M68 587q0 11 2 17q72 20 110 60q12 2 26 2l3 -2q-11 -81 -11 -170v-67q0 -81 6 -127q25 -8 45 -17l-3 -17q-40 6 -83 6q-47 0 -86 -7l-2 17q25 11 50 16q8 69 8 129v67q0 44 -3 91h-60zM117 -1q93 118 125 161l254 351q59 82 132 193q22 -5 53 -7l4 -3q-32 -40 -136 -184 l-398 -552l-5 1q-17 14 -29 40zM489 8q18 37 70 91.5t90.5 104.5t38.5 93q0 28 -19.5 43t-50.5 15q-28 0 -51 -11q-5 -12 -5 -27q0 -16 8 -21v-6q-12 -7 -40 -33q-23 2 -23 24q0 37 44.5 74.5t89.5 51.5q66 0 97 -32t31 -98q-76 -99 -190 -198l2 -3q11 5 19 7q68 3 150 -8 q10 19 20 47l17 -6q-9 -30 -9 -61q0 -21 6 -48l-10 -7q-144 30 -242 30q-14 -14 -26 -30z" />
<glyph unicode="&#xbe;" horiz-adv-x="830" d="M30 285v12q23 32 30 83h18q0 -27 1 -42q48 -27 93 -27q27 0 37 12q9 23 9 52q0 47 -23.5 73.5t-69.5 26.5l-3 4l85 119l-2 3q-11 -5 -19 -7q-45 0 -95 5q-10 -18 -16 -42l-17 6q5 28 5 51t-7 45l9 6q86 -18 203 -18q14 8 23 18l13 -11q-21 -19 -119 -134 q104 -19 104 -138q-13 -37 -51 -73t-78 -50q-71 0 -130 26zM117 -1q93 118 125 161l254 351q59 82 132 193q22 -5 53 -7l4 -3q-32 -40 -136 -184l-398 -552l-5 1q-17 14 -29 40zM470 123q137 160 191 266q36 4 71 17l6 -2q-9 -48 -9 -141v-107q55 0 66 32l14 -4 q-7 -32 -5 -73l-4 -2q-24 2 -70 2q0 -45 5 -70q13 -7 45 -16l-3 -18q-40 6 -91 6q-47 0 -80 -8l-2 17q27 12 54 17q5 29 5 72h-189zM555 163q44 -6 108 -6l2 174h-5q-33 -70 -105 -168z" />
<glyph unicode="&#xbf;" horiz-adv-x="335" d="M0 -56q63 90 158 185q7 89 11 170l26 2l21 -139v-19q-120 -120 -120 -222q0 -37 24 -55.5t64 -18.5q34 0 62 14q7 12 7 34q0 18 -10 27l1 7q26 16 48 40q12 -1 19 -9.5t7 -19.5q0 -46 -53.5 -92.5t-108.5 -62.5q-81 0 -118.5 39t-37.5 120zM128 436q7 11 24 26.5t30 23.5 q14 -7 31 -22.5t23 -27.5q-7 -13 -24.5 -33t-29.5 -28q-12 8 -29.5 28t-24.5 33z" />
<glyph unicode="&#xc0;" horiz-adv-x="599" d="M-54 17q45 14 96 21l164 581q-56 6 -111 19l3 24q114 -11 227 -11q135 0 249 11l4 -25q-45 -14 -96 -21q-13 -96 -13 -262q0 -223 13 -319q53 -5 110 -19l-3 -24q-74 8 -156 8q-91 0 -144 -8l-4 25q45 14 96 21q8 66 11 213q-52 6 -111 6q-66 0 -109 -6q-24 -98 -24 -150 q0 -66 43 -91l-4 -14q-31 4 -96 4q-82 0 -141 -8zM164 806q-1 10 4.5 31.5t10.5 30.5q20 7 42 9q75 -90 157 -126l-8 -20zM183 301q45 -7 98 -7q70 0 111 7q0 242 -10 310q-31 3 -60 3q-32 0 -64 -3l-59 -244z" />
<glyph unicode="&#xc1;" horiz-adv-x="599" d="M-54 17q45 14 96 21l164 581q-56 6 -111 19l3 24q114 -11 227 -11q135 0 249 11l4 -25q-45 -14 -96 -21q-13 -96 -13 -262q0 -223 13 -319q53 -5 110 -19l-3 -24q-74 8 -156 8q-91 0 -144 -8l-4 25q45 14 96 21q8 66 11 213q-52 6 -111 6q-66 0 -109 -6q-24 -98 -24 -150 q0 -66 43 -91l-4 -14q-31 4 -96 4q-82 0 -141 -8zM183 301q45 -7 98 -7q70 0 111 7q0 242 -10 310q-31 3 -60 3q-32 0 -64 -3l-59 -244zM315 742q82 36 157 126q22 -2 42 -9q5 -9 10.5 -30.5t4.5 -31.5l-206 -75z" />
<glyph unicode="&#xc2;" horiz-adv-x="599" d="M-54 17q45 14 96 21l164 581q-56 6 -111 19l3 24q114 -11 227 -11q135 0 249 11l4 -25q-45 -14 -96 -21q-13 -96 -13 -262q0 -223 13 -319q53 -5 110 -19l-3 -24q-74 8 -156 8q-91 0 -144 -8l-4 25q45 14 96 21q8 66 11 213q-52 6 -111 6q-66 0 -109 -6q-24 -98 -24 -150 q0 -66 43 -91l-4 -14q-31 4 -96 4q-82 0 -141 -8zM177 734q92 58 161 151h20q69 -93 161 -151l-10 -19l-161 75l-161 -75zM183 301q45 -7 98 -7q70 0 111 7q0 242 -10 310q-31 3 -60 3q-32 0 -64 -3l-59 -244z" />
<glyph unicode="&#xc3;" horiz-adv-x="599" d="M-54 17q45 14 96 21l164 581q-56 6 -111 19l3 24q114 -11 227 -11q135 0 249 11l4 -25q-45 -14 -96 -21q-13 -96 -13 -262q0 -223 13 -319q53 -5 110 -19l-3 -24q-74 8 -156 8q-91 0 -144 -8l-4 25q45 14 96 21q8 66 11 213q-52 6 -111 6q-66 0 -109 -6q-24 -98 -24 -150 q0 -66 43 -91l-4 -14q-31 4 -96 4q-82 0 -141 -8zM183 301q45 -7 98 -7q70 0 111 7q0 242 -10 310q-31 3 -60 3q-32 0 -64 -3l-59 -244zM183 755q56 61 128 82q59 -31 119 -31q45 0 65 24l18 -11q-56 -61 -104 -82q-21 0 -72.5 15.5t-72.5 15.5q-43 0 -63 -24z" />
<glyph unicode="&#xc4;" horiz-adv-x="599" d="M-54 17q45 14 96 21l164 581q-56 6 -111 19l3 24q114 -11 227 -11q135 0 249 11l4 -25q-45 -14 -96 -21q-13 -96 -13 -262q0 -223 13 -319q53 -5 110 -19l-3 -24q-74 8 -156 8q-91 0 -144 -8l-4 25q45 14 96 21q8 66 11 213q-52 6 -111 6q-66 0 -109 -6q-24 -98 -24 -150 q0 -66 43 -91l-4 -14q-31 4 -96 4q-82 0 -141 -8zM183 301q45 -7 98 -7q70 0 111 7q0 242 -10 310q-31 3 -60 3q-32 0 -64 -3l-59 -244zM202 803q6 12 23 27.5t31 22.5q13 -8 30 -23.5t24 -26.5q-7 -13 -24.5 -33t-29.5 -28q-12 8 -29.5 28t-24.5 33zM387 803q6 12 23 27.5 t31 22.5q13 -8 30 -23.5t24 -26.5q-7 -13 -24.5 -33t-29.5 -28q-12 8 -29.5 28t-24.5 33z" />
<glyph unicode="&#xc5;" horiz-adv-x="599" d="M-54 17q45 14 96 21l164 581q-56 6 -111 19l3 24q114 -11 227 -11q135 0 249 11l4 -25q-45 -14 -96 -21q-13 -96 -13 -262q0 -223 13 -319q53 -5 110 -19l-3 -24q-74 8 -156 8q-91 0 -144 -8l-4 25q45 14 96 21q8 66 11 213q-52 6 -111 6q-66 0 -109 -6q-24 -98 -24 -150 q0 -66 43 -91l-4 -14q-31 4 -96 4q-82 0 -141 -8zM183 301q45 -7 98 -7q70 0 111 7q0 242 -10 310q-31 3 -60 3q-32 0 -64 -3l-59 -244zM243 777q0 40 29.5 69.5t72.5 38.5q91 0 91 -74q0 -39 -26.5 -66.5t-69.5 -40.5q-41 0 -69 19t-28 54zM290 798q0 -26 16 -42.5 t42 -16.5q20 0 30 9q11 16 11 43t-15.5 43t-42.5 16q-19 0 -30 -9q-11 -17 -11 -43z" />
<glyph unicode="&#xc6;" horiz-adv-x="748" d="M-64 17q45 14 96 21l210 581q-57 6 -111 19l3 24q135 -11 264 -11q190 0 325 11l4 -20q-52 -53 -59 -158h-25q-9 43 -9 109q-43 21 -108 21q-48 0 -76 -5q-7 -22 -12 -60q-8 -70 -13 -184q32 -7 77 -7q89 0 109 43l20 -4q-9 -32 -9 -77q0 -44 6 -87l-23 -4q-15 38 -20 89 q-37 3 -83 3q-44 0 -78 -5v-43q0 -50 5 -84t18.5 -64.5t41.5 -45.5t71 -15q72 0 148 78l14 -13q-83 -110 -183 -144q-111 0 -155 69.5t-42 197.5l1 63q-32 6 -72 6q-51 0 -76 -6l-14 -46q-38 -126 -38 -178q0 -59 38 -81l-4 -14q-31 4 -96 4q-82 0 -141 -8zM213 364 q23 -6 60 -6q47 0 72 7q2 37 4.5 81t4.5 72.5t2 39.5q0 37 -3 53q-13 3 -32 3t-36 -3z" />
<glyph unicode="&#xc7;" horiz-adv-x="498" d="M42 265q0 90 31.5 172t94 144t145.5 85q101 0 206 -19l-1 -22q-26 0 -48 -9q-25 -59 -33 -138h-25q-9 40 -9 93q-47 25 -113 25q-65 0 -108 -36q-51 -87 -51 -221q0 -46 4 -83.5t15.5 -74.5t30.5 -62t50 -40t73 -15q41 0 84.5 22t78.5 56l14 -13q-83 -106 -198 -144 q-10 0 -19 1l-12 -32l4 -3q46 0 74.5 -21t28.5 -63q-14 -27 -40.5 -49.5t-55.5 -32.5q-44 0 -88 21q10 19 16 39l4 2q32 -25 68 -25q18 0 26 5q9 13 9 31q0 45 -83 45l-6 4l29 81q-98 14 -147 87.5t-49 189.5z" />
<glyph unicode="&#xc8;" horiz-adv-x="512" d="M42 265q0 138 73.5 252.5t197.5 148.5q101 0 206 -19l-1 -22q-26 0 -48 -9q-25 -59 -33 -138h-25q-9 40 -9 93q-47 25 -113 25q-65 0 -108 -36q-45 -77 -50 -187q43 -8 112 -8q111 0 132 43l20 -4q-9 -32 -9 -77q0 -43 6 -87l-23 -4q-15 38 -20 89q-38 3 -106 3 q-73 0 -113 -5q1 -56 9 -99t26.5 -81t53 -58.5t84.5 -20.5q81 0 163 78l14 -13q-83 -106 -198 -144q-120 0 -180.5 75.5t-60.5 204.5zM156 806q-1 10 4.5 31.5t10.5 30.5q20 7 42 9q75 -90 157 -126l-8 -20z" />
<glyph unicode="&#xc9;" horiz-adv-x="512" d="M42 265q0 138 73.5 252.5t197.5 148.5q101 0 206 -19l-1 -22q-26 0 -48 -9q-25 -59 -33 -138h-25q-9 40 -9 93q-47 25 -113 25q-65 0 -108 -36q-45 -77 -50 -187q43 -8 112 -8q111 0 132 43l20 -4q-9 -32 -9 -77q0 -43 6 -87l-23 -4q-15 38 -20 89q-38 3 -106 3 q-73 0 -113 -5q1 -56 9 -99t26.5 -81t53 -58.5t84.5 -20.5q81 0 163 78l14 -13q-83 -106 -198 -144q-120 0 -180.5 75.5t-60.5 204.5zM242 742q82 36 157 126q22 -2 42 -9q5 -9 10.5 -30.5t4.5 -31.5l-206 -75z" />
<glyph unicode="&#xca;" horiz-adv-x="512" d="M42 265q0 138 73.5 252.5t197.5 148.5q101 0 206 -19l-1 -22q-26 0 -48 -9q-25 -59 -33 -138h-25q-9 40 -9 93q-47 25 -113 25q-65 0 -108 -36q-45 -77 -50 -187q43 -8 112 -8q111 0 132 43l20 -4q-9 -32 -9 -77q0 -43 6 -87l-23 -4q-15 38 -20 89q-38 3 -106 3 q-73 0 -113 -5q1 -56 9 -99t26.5 -81t53 -58.5t84.5 -20.5q81 0 163 78l14 -13q-83 -106 -198 -144q-120 0 -180.5 75.5t-60.5 204.5zM140 734q92 58 161 151h20q69 -93 161 -151l-10 -19l-161 75l-161 -75z" />
<glyph unicode="&#xcb;" horiz-adv-x="512" d="M42 265q0 138 73.5 252.5t197.5 148.5q101 0 206 -19l-1 -22q-26 0 -48 -9q-25 -59 -33 -138h-25q-9 40 -9 93q-47 25 -113 25q-65 0 -108 -36q-45 -77 -50 -187q43 -8 112 -8q111 0 132 43l20 -4q-9 -32 -9 -77q0 -43 6 -87l-23 -4q-15 38 -20 89q-38 3 -106 3 q-73 0 -113 -5q1 -56 9 -99t26.5 -81t53 -58.5t84.5 -20.5q81 0 163 78l14 -13q-83 -106 -198 -144q-120 0 -180.5 75.5t-60.5 204.5zM164 803q6 12 23 27.5t31 22.5q13 -8 30 -23.5t24 -26.5q-7 -13 -24.5 -33t-29.5 -28q-12 8 -29.5 28t-24.5 33zM349 803q6 12 23 27.5 t31 22.5q13 -8 30 -23.5t24 -26.5q-7 -13 -24.5 -33t-29.5 -28q-12 8 -29.5 28t-24.5 33z" />
<glyph unicode="&#xcc;" horiz-adv-x="337" d="M21 634l4 25q53 -8 144 -8q82 0 156 8l3 -24q-57 -14 -110 -19q-11 -75 -11 -261q0 -224 13 -320q53 -5 110 -19l-3 -24q-74 8 -156 8q-91 0 -144 -8l-4 25q45 14 96 21q11 82 11 258v59q0 162 -13 258q-51 7 -96 21zM37 806q-1 10 4.5 31.5t10.5 30.5q20 7 42 9 q75 -90 157 -126l-8 -20z" />
<glyph unicode="&#xcd;" horiz-adv-x="337" d="M21 634l4 25q53 -8 144 -8q82 0 156 8l3 -24q-57 -14 -110 -19q-11 -75 -11 -261q0 -224 13 -320q53 -5 110 -19l-3 -24q-74 8 -156 8q-91 0 -144 -8l-4 25q45 14 96 21q11 82 11 258v59q0 162 -13 258q-51 7 -96 21zM101 742q82 36 157 126q22 -2 42 -9q5 -9 10.5 -30.5 t4.5 -31.5l-206 -75z" />
<glyph unicode="&#xce;" horiz-adv-x="337" d="M3 734q92 58 161 151h20q69 -93 161 -151l-10 -19l-161 75l-161 -75zM21 634l4 25q53 -8 144 -8q82 0 156 8l3 -24q-57 -14 -110 -19q-11 -75 -11 -261q0 -224 13 -320q53 -5 110 -19l-3 -24q-74 8 -156 8q-91 0 -144 -8l-4 25q45 14 96 21q11 82 11 258v59 q0 162 -13 258q-51 7 -96 21z" />
<glyph unicode="&#xcf;" horiz-adv-x="337" d="M21 634l4 25q53 -8 144 -8q82 0 156 8l3 -24q-57 -14 -110 -19q-11 -75 -11 -261q0 -224 13 -320q53 -5 110 -19l-3 -24q-74 8 -156 8q-91 0 -144 -8l-4 25q45 14 96 21q11 82 11 258v59q0 162 -13 258q-51 7 -96 21zM27 803q6 12 23 27.5t31 22.5q13 -8 30 -23.5 t24 -26.5q-7 -13 -24.5 -33t-29.5 -28q-12 8 -29.5 28t-24.5 33zM212 803q6 12 23 27.5t31 22.5q13 -8 30 -23.5t24 -26.5q-7 -13 -24.5 -33t-29.5 -28q-12 8 -29.5 28t-24.5 33z" />
<glyph unicode="&#xd0;" horiz-adv-x="619" d="M16 319q6 20 7 32l102 3q-1 150 -11 254q-48 16 -98 16v25q50 0 155.5 4.5t132.5 4.5q134 0 203.5 -69t69.5 -203q0 -139 -73 -252t-198 -149q-72 0 -161 38q-17 -26 -23 -45l-21 5q24 108 24 341q-62 -3 -106 -9zM202 325q0 -152 5 -240q54 -28 132 -28q60 0 98 34 q51 93 51 229q0 62 -10 113t-32 95t-62.5 68.5t-96.5 24.5q-40 0 -76 -13q-9 -87 -9 -251l62 2q64 3 84 5q4 -20 9 -31v-5l-122 -2z" />
<glyph unicode="&#xd1;" horiz-adv-x="706" d="M21 634l4 25q50 -8 160 -8q49 0 93 6l5 -16q-12 -4 -23 -12.5t-11 -18.5q0 -24 51 -112t224 -358l4 2v144q0 168 -17 254t-60 101l4 14q31 -4 94 -4q77 0 136 8l3 -23q-71 -17 -99 -20q-13 -98 -13 -261v-59q0 -187 13 -261q51 -6 96 -18l-4 -25q-53 8 -126 8 q-34 0 -67 -3q0 69 -301 538l-4 -2v-168q0 -255 37 -330q55 -5 109 -19l-2 -24q-74 8 -156 8q-91 0 -144 -8l-4 25q45 14 96 21q11 82 11 258v59q0 162 -13 258q-51 7 -96 21zM201 755q56 61 128 82q59 -31 119 -31q45 0 65 24l18 -11q-56 -61 -104 -82q-21 0 -72.5 15.5 t-72.5 15.5q-43 0 -63 -24z" />
<glyph unicode="&#xd2;" horiz-adv-x="602" d="M42 265q0 139 74.5 253.5t196.5 147.5q122 0 184.5 -73t62.5 -206q0 -138 -68.5 -246.5t-190.5 -155.5q-117 0 -188 77.5t-71 202.5zM131 339q0 -70 19.5 -132t64.5 -106t107 -44q59 0 99 35q50 92 50 218q0 59 -9.5 107t-30.5 89.5t-59.5 64.5t-91.5 23q-60 0 -98 -34 q-51 -90 -51 -221zM179 806q-1 10 4.5 31.5t10.5 30.5q20 7 42 9q75 -90 157 -126l-8 -20z" />
<glyph unicode="&#xd3;" horiz-adv-x="602" d="M42 265q0 139 74.5 253.5t196.5 147.5q122 0 184.5 -73t62.5 -206q0 -138 -68.5 -246.5t-190.5 -155.5q-117 0 -188 77.5t-71 202.5zM131 339q0 -70 19.5 -132t64.5 -106t107 -44q59 0 99 35q50 92 50 218q0 59 -9.5 107t-30.5 89.5t-59.5 64.5t-91.5 23q-60 0 -98 -34 q-51 -90 -51 -221zM271 742q82 36 157 126q22 -2 42 -9q5 -9 10.5 -30.5t4.5 -31.5l-206 -75z" />
<glyph unicode="&#xd4;" horiz-adv-x="602" d="M42 265q0 139 74.5 253.5t196.5 147.5q122 0 184.5 -73t62.5 -206q0 -138 -68.5 -246.5t-190.5 -155.5q-117 0 -188 77.5t-71 202.5zM131 339q0 -70 19.5 -132t64.5 -106t107 -44q59 0 99 35q50 92 50 218q0 59 -9.5 107t-30.5 89.5t-59.5 64.5t-91.5 23q-60 0 -98 -34 q-51 -90 -51 -221zM150 734q92 58 161 151h20q69 -93 161 -151l-10 -19l-161 75l-161 -75z" />
<glyph unicode="&#xd5;" horiz-adv-x="602" d="M42 265q0 139 74.5 253.5t196.5 147.5q122 0 184.5 -73t62.5 -206q0 -138 -68.5 -246.5t-190.5 -155.5q-117 0 -188 77.5t-71 202.5zM131 339q0 -70 19.5 -132t64.5 -106t107 -44q59 0 99 35q50 92 50 218q0 59 -9.5 107t-30.5 89.5t-59.5 64.5t-91.5 23q-60 0 -98 -34 q-51 -90 -51 -221zM157 755q56 61 128 82q59 -31 119 -31q45 0 65 24l18 -11q-56 -61 -104 -82q-21 0 -72.5 15.5t-72.5 15.5q-43 0 -63 -24z" />
<glyph unicode="&#xd6;" horiz-adv-x="602" d="M42 265q0 139 74.5 253.5t196.5 147.5q122 0 184.5 -73t62.5 -206q0 -138 -68.5 -246.5t-190.5 -155.5q-117 0 -188 77.5t-71 202.5zM131 339q0 -70 19.5 -132t64.5 -106t107 -44q59 0 99 35q50 92 50 218q0 59 -9.5 107t-30.5 89.5t-59.5 64.5t-91.5 23q-60 0 -98 -34 q-51 -90 -51 -221zM175 803q6 12 23 27.5t31 22.5q13 -8 30 -23.5t24 -26.5q-7 -13 -24.5 -33t-29.5 -28q-12 8 -29.5 28t-24.5 33zM360 803q6 12 23 27.5t31 22.5q13 -8 30 -23.5t24 -26.5q-7 -13 -24.5 -33t-29.5 -28q-12 8 -29.5 28t-24.5 33z" />
<glyph unicode="&#xd7;" d="M81 89q130 116 163 150l-153 151l38 35l8 -1q43 -48 141 -151l141 151l8 1l38 -35l-154 -151q28 -29 55.5 -54t62 -55.5t46.5 -40.5l-28 -39h-11l-158 155l-158 -155h-11z" />
<glyph unicode="&#xd8;" horiz-adv-x="602" d="M42 265q0 139 74.5 253.5t196.5 147.5q44 0 83 -11l25 77q23 2 38 7l4 -3q-14 -32 -37 -91q134 -59 134 -258q0 -138 -68.5 -246.5t-190.5 -155.5q-60 0 -117 25l-36 -97h-5q-16 9 -26 24l39 89q-54 36 -84 98t-30 141zM131 339q0 -135 64 -218l173 452q-39 21 -88 21 q-60 0 -98 -34q-51 -90 -51 -221zM217 97q45 -40 105 -40q59 0 99 35q50 92 50 218q0 177 -79 246z" />
<glyph unicode="&#xd9;" horiz-adv-x="665" d="M14 634l4 25q59 -8 141 -8q55 0 86 4l4 -14q-45 -25 -52 -92q-14 -126 -14 -273q0 -40 3 -69.5t12 -57.5t24.5 -46t41.5 -28.5t62 -10.5q74 0 127 48q5 130 5 212q0 178 -11 292q-51 7 -96 21l4 22q61 -8 142 -8q94 0 158 8l3 -21q-57 -14 -110 -19q-13 -74 -13 -264v-59 q0 -187 13 -261q53 -5 110 -19l-3 -24q-64 8 -156 8q-40 0 -58 -1l-3 14q9 11 13 71q-58 -65 -146 -99q-111 0 -156.5 65.5t-45.5 190.5q0 57 7 181t7 136q0 34 -7 55q-51 7 -96 21zM188 806q-1 10 4.5 31.5t10.5 30.5q20 7 42 9q75 -90 157 -126l-8 -20z" />
<glyph unicode="&#xda;" horiz-adv-x="665" d="M14 634l4 25q59 -8 141 -8q55 0 86 4l4 -14q-45 -25 -52 -92q-14 -126 -14 -273q0 -40 3 -69.5t12 -57.5t24.5 -46t41.5 -28.5t62 -10.5q74 0 127 48q5 130 5 212q0 178 -11 292q-51 7 -96 21l4 22q61 -8 142 -8q94 0 158 8l3 -21q-57 -14 -110 -19q-13 -74 -13 -264v-59 q0 -187 13 -261q53 -5 110 -19l-3 -24q-64 8 -156 8q-40 0 -58 -1l-3 14q9 11 13 71q-58 -65 -146 -99q-111 0 -156.5 65.5t-45.5 190.5q0 57 7 181t7 136q0 34 -7 55q-51 7 -96 21zM305 742q82 36 157 126q22 -2 42 -9q5 -9 10.5 -30.5t4.5 -31.5l-206 -75z" />
<glyph unicode="&#xdb;" horiz-adv-x="665" d="M14 634l4 25q59 -8 141 -8q55 0 86 4l4 -14q-45 -25 -52 -92q-14 -126 -14 -273q0 -40 3 -69.5t12 -57.5t24.5 -46t41.5 -28.5t62 -10.5q74 0 127 48q5 130 5 212q0 178 -11 292q-51 7 -96 21l4 22q61 -8 142 -8q94 0 158 8l3 -21q-57 -14 -110 -19q-13 -74 -13 -264v-59 q0 -187 13 -261q53 -5 110 -19l-3 -24q-64 8 -156 8q-40 0 -58 -1l-3 14q9 11 13 71q-58 -65 -146 -99q-111 0 -156.5 65.5t-45.5 190.5q0 57 7 181t7 136q0 34 -7 55q-51 7 -96 21zM172 734q92 58 161 151h20q69 -93 161 -151l-10 -19l-161 75l-161 -75z" />
<glyph unicode="&#xdc;" horiz-adv-x="665" d="M14 634l4 25q59 -8 141 -8q55 0 86 4l4 -14q-45 -25 -52 -92q-14 -126 -14 -273q0 -40 3 -69.5t12 -57.5t24.5 -46t41.5 -28.5t62 -10.5q74 0 127 48q5 130 5 212q0 178 -11 292q-51 7 -96 21l4 22q61 -8 142 -8q94 0 158 8l3 -21q-57 -14 -110 -19q-13 -74 -13 -264v-59 q0 -187 13 -261q53 -5 110 -19l-3 -24q-64 8 -156 8q-40 0 -58 -1l-3 14q9 11 13 71q-58 -65 -146 -99q-111 0 -156.5 65.5t-45.5 190.5q0 57 7 181t7 136q0 34 -7 55q-51 7 -96 21zM197 803q6 12 23 27.5t31 22.5q13 -8 30 -23.5t24 -26.5q-7 -13 -24.5 -33t-29.5 -28 q-12 8 -29.5 28t-24.5 33zM382 803q6 12 23 27.5t31 22.5q13 -8 30 -23.5t24 -26.5q-7 -13 -24.5 -33t-29.5 -28q-12 8 -29.5 28t-24.5 33z" />
<glyph unicode="&#xdd;" horiz-adv-x="545" d="M-34 634l4 25q53 -8 148 -8q86 0 160 8l3 -24q-57 -14 -110 -19q47 -140 120 -279q111 217 111 272q0 22 -20 32l4 14q50 -4 83 -4q78 0 130 8l5 -25q-48 -15 -97 -21l-196 -315q0 -167 13 -263q53 -5 110 -19l-3 -24q-74 8 -156 8q-91 0 -144 -8l-4 25q45 14 96 21 q11 82 11 207v26q-100 212 -127 266.5t-45 75.5q-56 7 -96 21zM262 742q82 36 157 126q22 -2 42 -9q5 -9 10.5 -30.5t4.5 -31.5l-206 -75z" />
<glyph unicode="&#xde;" horiz-adv-x="510" d="M21 634l4 25q53 -8 144 -8q82 0 156 8l3 -24q-57 -14 -110 -19q-4 -19 -7 -91q14 0 47 1.5t47 1.5q206 0 206 -164q0 -89 -73 -144t-170 -55q-15 0 -22 1l4 32h12q75 0 115 38t40 113q0 71 -31 106.5t-98 35.5q-40 0 -78 -13h-1q-2 -40 -2 -123q0 -224 13 -320 q53 -5 110 -19l-3 -24q-74 8 -156 8q-91 0 -144 -8l-4 25q45 14 96 21q11 82 11 258v59q0 162 -13 258q-51 7 -96 21z" />
<glyph unicode="&#xdf;" horiz-adv-x="525" d="M47 431q0 16 3 22q13 5 53 17q13 87 69 151t141 90q62 0 103.5 -24.5t41.5 -76.5q0 -37 -18.5 -72t-40 -56t-40 -39t-18.5 -23q0 -20 24.5 -52.5t53.5 -62t53.5 -66t24.5 -63.5q0 -56 -50 -114t-108 -77q-62 0 -117 21v14q39 48 43 105h22l2 -61q28 -17 69 -17 q39 0 61 20t22 58q0 20 -27.5 56t-60 70.5t-60 74.5t-27.5 67v9q118 71 118 164q0 83 -94 83q-55 0 -86 -28q-16 -36 -21.5 -76.5t-5.5 -115.5v-199q0 -134 12 -290q-19 3 -35 2q-30 -55 -45 -142l-18 1q12 216 12 429v199h-54z" />
<glyph unicode="&#xe0;" horiz-adv-x="514" d="M50 176q0 104 56 190.5t150 118.5q67 0 140 -21q14 21 23 53l21 -6q-22 -90 -22 -318q0 -102 7 -160q24 -8 54 -8v-21q-64 -3 -135 -19l-7 4q11 69 11 156l-4 1q-35 -50 -83 -97t-91 -64q-55 0 -87.5 61t-32.5 130zM128 634q1 10 9.5 30.5t15.5 28.5q17 3 43 1 q24 -42 59.5 -84t72.5 -67l-11 -18zM130 221q0 -49 17.5 -101.5t50.5 -52.5q35 0 85 50t65 90q0 149 -7 192q-53 24 -104 24q-48 0 -74 -24q-33 -76 -33 -178z" />
<glyph unicode="&#xe1;" horiz-adv-x="514" d="M50 176q0 104 56 190.5t150 118.5q67 0 140 -21q14 21 23 53l21 -6q-22 -90 -22 -318q0 -102 7 -160q24 -8 54 -8v-21q-64 -3 -135 -19l-7 4q11 69 11 156l-4 1q-35 -50 -83 -97t-91 -64q-55 0 -87.5 61t-32.5 130zM130 221q0 -49 17.5 -101.5t50.5 -52.5q35 0 85 50 t65 90q0 149 -7 192q-53 24 -104 24q-48 0 -74 -24q-33 -76 -33 -178zM227 543q37 25 72.5 67t59.5 84q26 2 43 -1q7 -8 15.5 -28.5t9.5 -30.5l-189 -109z" />
<glyph unicode="&#xe2;" horiz-adv-x="514" d="M50 176q0 104 56 190.5t150 118.5q67 0 140 -21q14 21 23 53l21 -6q-22 -90 -22 -318q0 -102 7 -160q24 -8 54 -8v-21q-64 -3 -135 -19l-7 4q11 69 11 156l-4 1q-35 -50 -83 -97t-91 -64q-55 0 -87.5 61t-32.5 130zM130 221q0 -49 17.5 -101.5t50.5 -52.5q35 0 85 50 t65 90q0 149 -7 192q-53 24 -104 24q-48 0 -74 -24q-33 -76 -33 -178zM130 539q84 71 137 168h20q55 -92 137 -158l-13 -17l-134 80l-134 -90z" />
<glyph unicode="&#xe3;" horiz-adv-x="514" d="M50 176q0 104 56 190.5t150 118.5q67 0 140 -21q14 21 23 53l21 -6q-22 -90 -22 -318q0 -102 7 -160q24 -8 54 -8v-21q-64 -3 -135 -19l-7 4q11 69 11 156l-4 1q-35 -50 -83 -97t-91 -64q-55 0 -87.5 61t-32.5 130zM130 221q0 -49 17.5 -101.5t50.5 -52.5q35 0 85 50 t65 90q0 149 -7 192q-53 24 -104 24q-48 0 -74 -24q-33 -76 -33 -178zM130 581q56 61 128 82q59 -31 119 -31q45 0 65 24l18 -11q-56 -61 -104 -82q-21 0 -72.5 15.5t-72.5 15.5q-43 0 -63 -24z" />
<glyph unicode="&#xe4;" horiz-adv-x="514" d="M50 176q0 104 56 190.5t150 118.5q67 0 140 -21q14 21 23 53l21 -6q-22 -90 -22 -318q0 -102 7 -160q24 -8 54 -8v-21q-64 -3 -135 -19l-7 4q11 69 11 156l-4 1q-35 -50 -83 -97t-91 -64q-55 0 -87.5 61t-32.5 130zM130 221q0 -49 17.5 -101.5t50.5 -52.5q35 0 85 50 t65 90q0 149 -7 192q-53 24 -104 24q-48 0 -74 -24q-33 -76 -33 -178zM130 620q6 12 23 27.5t31 22.5q13 -8 30 -23.5t24 -26.5q-7 -13 -24.5 -33t-29.5 -28q-12 8 -29.5 28t-24.5 33zM315 620q6 12 23 27.5t31 22.5q13 -8 30 -23.5t24 -26.5q-7 -13 -24.5 -33t-29.5 -28 q-12 8 -29.5 28t-24.5 33z" />
<glyph unicode="&#xe5;" horiz-adv-x="514" d="M50 176q0 104 56 190.5t150 118.5q67 0 140 -21q14 21 23 53l21 -6q-22 -90 -22 -318q0 -102 7 -160q24 -8 54 -8v-21q-64 -3 -135 -19l-7 4q11 69 11 156l-4 1q-35 -50 -83 -97t-91 -64q-55 0 -87.5 61t-32.5 130zM130 221q0 -49 17.5 -101.5t50.5 -52.5q35 0 85 50 t65 90q0 149 -7 192q-53 24 -104 24q-48 0 -74 -24q-33 -76 -33 -178zM196 598q0 40 29.5 69.5t72.5 38.5q91 0 91 -74q0 -39 -26.5 -66.5t-69.5 -40.5q-41 0 -69 19t-28 54zM243 619q0 -26 16 -42.5t42 -16.5q19 0 30 9q11 17 11 43q0 27 -15.5 43t-42.5 16q-20 0 -30 -9 q-11 -16 -11 -43z" />
<glyph unicode="&#xe6;" horiz-adv-x="701" d="M54 156q0 120 68 213t180 116q72 -10 145 -44q40 31 87 44q67 0 94 -26.5t27 -93.5q0 -21 -4 -38q8 -2 14 -2q10 0 28 4l1 -20q-154 -27 -281 -101q4 -151 107 -151q63 0 123 53l11 -10q-57 -78 -146 -115q-132 0 -172 136q-36 -43 -89 -83t-99 -53q-48 8 -71 58.5 t-23 112.5zM139 181q0 -45 11.5 -82.5t40.5 -37.5q27 0 72 31t71 65q-2 14 -2 33q0 102 56 186v4q-66 49 -144 49q-26 0 -45 -16q-60 -99 -60 -232zM412 238q83 53 163 79q-1 59 -14 82.5t-54 23.5q-37 0 -66 -24q-27 -58 -29 -161z" />
<glyph unicode="&#xe7;" horiz-adv-x="387" d="M50 190q0 103 56 187t146 108q61 0 121 -16v-14q-39 -48 -43 -105h-22q0 39 -2 61q-41 12 -73 12q-48 0 -74 -24q-29 -61 -29 -154q0 -33 2 -57t8.5 -50t18 -42.5t31.5 -27.5t48 -11q55 0 114 53l10 -10q-58 -81 -141 -115h-15l-12 -31l4 -3q46 0 74.5 -21t28.5 -63 q-14 -27 -40.5 -49.5t-55.5 -32.5q-44 0 -88 21q10 19 16 39l4 2q32 -25 68 -25q18 0 26 5q9 13 9 31q0 45 -83 45l-6 4l29 82q-66 12 -98 65t-32 136z" />
<glyph unicode="&#xe8;" horiz-adv-x="426" d="M50 190q0 101 55 185.5t147 109.5q67 0 94 -26.5t27 -93.5q0 -38 -10 -65q21 -8 49 -8l-1 -21q-116 2 -281 -33q0 -40 4 -69t14.5 -56t33 -41.5t56.5 -14.5q63 0 123 53l11 -10q-57 -78 -146 -115q-88 0 -132 55t-44 150zM90 634q1 10 9.5 30.5t15.5 28.5q17 3 43 1 q24 -42 59.5 -84t72.5 -67l-11 -18zM130 264q82 27 163 41q0 66 -12.5 92t-55.5 26q-37 0 -66 -24q-27 -56 -29 -135z" />
<glyph unicode="&#xe9;" horiz-adv-x="426" d="M50 190q0 101 55 185.5t147 109.5q67 0 94 -26.5t27 -93.5q0 -38 -10 -65q21 -8 49 -8l-1 -21q-116 2 -281 -33q0 -40 4 -69t14.5 -56t33 -41.5t56.5 -14.5q63 0 123 53l11 -10q-57 -78 -146 -115q-88 0 -132 55t-44 150zM130 264q82 27 163 41q0 66 -12.5 92t-55.5 26 q-37 0 -66 -24q-27 -56 -29 -135zM201 543q37 25 72.5 67t59.5 84q26 2 43 -1q7 -8 15.5 -28.5t9.5 -30.5l-189 -109z" />
<glyph unicode="&#xea;" horiz-adv-x="426" d="M50 190q0 101 55 185.5t147 109.5q67 0 94 -26.5t27 -93.5q0 -38 -10 -65q21 -8 49 -8l-1 -21q-116 2 -281 -33q0 -40 4 -69t14.5 -56t33 -41.5t56.5 -14.5q63 0 123 53l11 -10q-57 -78 -146 -115q-88 0 -132 55t-44 150zM109 539q84 71 137 168h20q53 -97 137 -168 l-13 -17l-134 90l-134 -90zM130 264q82 27 163 41q0 66 -12.5 92t-55.5 26q-37 0 -66 -24q-27 -56 -29 -135z" />
<glyph unicode="&#xeb;" horiz-adv-x="426" d="M50 190q0 101 55 185.5t147 109.5q67 0 94 -26.5t27 -93.5q0 -38 -10 -65q21 -8 49 -8l-1 -21q-116 2 -281 -33q0 -40 4 -69t14.5 -56t33 -41.5t56.5 -14.5q63 0 123 53l11 -10q-57 -78 -146 -115q-88 0 -132 55t-44 150zM109 620q6 12 23 27.5t31 22.5q13 -8 30 -23.5 t24 -26.5q-7 -13 -24.5 -33t-29.5 -28q-12 8 -29.5 28t-24.5 33zM130 264q82 27 163 41q0 66 -12.5 92t-55.5 26q-37 0 -66 -24q-27 -56 -29 -135zM294 620q6 12 23 27.5t31 22.5q13 -8 30 -23.5t24 -26.5q-7 -13 -24.5 -33t-29.5 -28q-12 8 -29.5 28t-24.5 33z" />
<glyph unicode="&#xec;" horiz-adv-x="287" d="M30 634q1 10 9.5 30.5t15.5 28.5q17 3 43 1q24 -42 59.5 -84t72.5 -67l-11 -18zM48 13q30 13 59 20q9 68 9 157v84q0 81 -8 162q-26 8 -54 8v21q77 5 142 20l7 -4q-13 -77 -13 -207v-84q0 -108 7 -160q28 -6 63 -19l-2 -19q-56 8 -105 8q-51 0 -102 -6z" />
<glyph unicode="&#xed;" horiz-adv-x="287" d="M48 13q30 13 59 20q9 68 9 157v84q0 81 -8 162q-26 8 -54 8v21q77 5 142 20l7 -4q-13 -77 -13 -207v-84q0 -108 7 -160q28 -6 63 -19l-2 -19q-56 8 -105 8q-51 0 -102 -6zM84 543q37 25 72.5 67t59.5 84q26 2 43 -1q7 -8 15.5 -28.5t9.5 -30.5l-189 -109z" />
<glyph unicode="&#xee;" horiz-adv-x="287" d="M-1 539q84 71 137 168h20q53 -97 137 -168l-13 -17l-134 90l-134 -90zM48 13q30 13 59 20q9 68 9 157v84q0 81 -8 162q-26 8 -54 8v21q77 5 142 20l7 -4q-13 -77 -13 -207v-84q0 -108 7 -160q28 -6 63 -19l-2 -19q-56 8 -105 8q-51 0 -102 -6z" />
<glyph unicode="&#xef;" horiz-adv-x="287" d="M7 630q6 12 23 27.5t31 22.5q13 -8 30 -23.5t24 -26.5q-7 -13 -24.5 -33t-29.5 -28q-12 8 -29.5 28t-24.5 33zM48 13q30 13 59 20q9 68 9 157v84q0 81 -8 162q-26 8 -54 8v21q77 5 142 20l7 -4q-13 -77 -13 -207v-84q0 -108 7 -160q28 -6 63 -19l-2 -19q-56 8 -105 8 q-51 0 -102 -6zM178 630q6 12 23 27.5t31 22.5q13 -8 30 -23.5t24 -26.5q-7 -13 -24.5 -33t-29.5 -28q-12 8 -29.5 28t-24.5 33z" />
<glyph unicode="&#xf0;" horiz-adv-x="471" d="M45 181q0 90 57.5 154t149.5 84q48 -11 81 -65h5q-36 103 -101 182l-22 -13q-62 -36 -97 -68l-5 3q-8 28 -10 31l113 70q-64 69 -165 129l14 23q109 -55 194 -125l49 31q54 33 70 46q2 -3 6 -6.5t7 -6.5t7 -6.5t6 -6.5l-105 -65l-14 -8q144 -134 144 -292 q0 -118 -61.5 -195.5t-173.5 -91.5q-71 12 -110 65.5t-39 130.5zM126 207q0 -70 33 -118.5t94 -48.5q31 0 53 14q43 60 43 177q0 33 -7 60q-20 32 -51.5 55t-67.5 30q-47 0 -72 -45t-25 -124z" />
<glyph unicode="&#xf1;" horiz-adv-x="547" d="M38 13q30 13 59 20q9 68 9 157v84q0 92 -7 163q-24 8 -54 8v21q64 3 135 19l7 -4q-11 -69 -11 -156l4 -1q34 47 88.5 96.5t98.5 64.5q30 0 50 -14t28.5 -40.5t11 -53t1.5 -63.5l-5 -281q29 -7 59 -20l-3 -19q-48 6 -96 6q-19 0 -49 -2v14q16 78 20 257q2 18 0.5 41.5 t-4.5 44t-13.5 34.5t-27.5 14q-39 0 -92 -49t-71 -91q0 -145 11 -233q27 -6 63 -19l-2 -19q-56 8 -105 8q-51 0 -102 -6zM129 581q56 61 128 82q59 -31 119 -31q45 0 65 24l18 -11q-56 -61 -104 -82q-21 0 -72.5 15.5t-72.5 15.5q-43 0 -63 -24z" />
<glyph unicode="&#xf2;" horiz-adv-x="488" d="M45 190q0 102 57.5 186.5t151.5 108.5q93 0 141 -54t48 -151q0 -93 -56 -177t-143 -118q-87 0 -143 58.5t-56 146.5zM113 634q1 10 9.5 30.5t15.5 28.5q17 3 43 1q24 -42 59.5 -84t72.5 -67l-11 -18zM125 245q0 -73 37 -135.5t99 -62.5q42 0 70 25q32 61 32 153 q0 83 -33.5 140.5t-102.5 57.5q-42 0 -69 -24q-33 -63 -33 -154z" />
<glyph unicode="&#xf3;" horiz-adv-x="488" d="M45 190q0 102 57.5 186.5t151.5 108.5q93 0 141 -54t48 -151q0 -93 -56 -177t-143 -118q-87 0 -143 58.5t-56 146.5zM125 245q0 -73 37 -135.5t99 -62.5q42 0 70 25q32 61 32 153q0 83 -33.5 140.5t-102.5 57.5q-42 0 -69 -24q-33 -63 -33 -154zM219 543q37 25 72.5 67 t59.5 84q26 2 43 -1q7 -8 15.5 -28.5t9.5 -30.5l-189 -109z" />
<glyph unicode="&#xf4;" horiz-adv-x="488" d="M45 190q0 102 57.5 186.5t151.5 108.5q93 0 141 -54t48 -151q0 -93 -56 -177t-143 -118q-87 0 -143 58.5t-56 146.5zM112 539q84 71 137 168h20q53 -97 137 -168l-13 -17l-134 90l-134 -90zM125 245q0 -73 37 -135.5t99 -62.5q42 0 70 25q32 61 32 153q0 83 -33.5 140.5 t-102.5 57.5q-42 0 -69 -24q-33 -63 -33 -154z" />
<glyph unicode="&#xf5;" horiz-adv-x="488" d="M45 190q0 102 57.5 186.5t151.5 108.5q93 0 141 -54t48 -151q0 -93 -56 -177t-143 -118q-87 0 -143 58.5t-56 146.5zM88 581q56 61 128 82q59 -31 119 -31q45 0 65 24l18 -11q-56 -61 -104 -82q-21 0 -72.5 15.5t-72.5 15.5q-43 0 -63 -24zM125 245q0 -73 37 -135.5 t99 -62.5q42 0 70 25q32 61 32 153q0 83 -33.5 140.5t-102.5 57.5q-42 0 -69 -24q-33 -63 -33 -154z" />
<glyph unicode="&#xf6;" horiz-adv-x="488" d="M45 190q0 102 57.5 186.5t151.5 108.5q93 0 141 -54t48 -151q0 -93 -56 -177t-143 -118q-87 0 -143 58.5t-56 146.5zM113 620q6 12 23 27.5t31 22.5q13 -8 30 -23.5t24 -26.5q-7 -13 -24.5 -33t-29.5 -28q-12 8 -29.5 28t-24.5 33zM125 245q0 -73 37 -135.5t99 -62.5 q42 0 70 25q32 61 32 153q0 83 -33.5 140.5t-102.5 57.5q-42 0 -69 -24q-33 -63 -33 -154zM298 620q6 12 23 27.5t31 22.5q13 -8 30 -23.5t24 -26.5q-7 -13 -24.5 -33t-29.5 -28q-12 8 -29.5 28t-24.5 33z" />
<glyph unicode="&#xf7;" d="M53 229l9 51q170 -9 343 -9q46 0 85 3l6 -6l-9 -46h-426zM229 112q0 16 14.5 30.5t30.5 14.5t30 -14t14 -31t-14 -31.5t-30 -14.5t-30.5 14.5t-14.5 31.5zM229 385q0 17 14.5 31t30.5 14t30 -14t14 -31t-14 -31.5t-30 -14.5t-30.5 14.5t-14.5 31.5z" />
<glyph unicode="&#xf8;" horiz-adv-x="488" d="M45 190q0 102 57.5 186.5t151.5 108.5q30 0 61 -7q7 21 21 70q19 2 34 7l4 -3q-2 -4 -34 -83q103 -42 103 -189q0 -93 -56 -177t-143 -118q-42 0 -82 16l-29 -78h-5q-15 8 -23 23l31 69q-91 59 -91 175zM125 245q0 -87 45 -147l120 308q-26 17 -63 17q-42 0 -69 -24 q-33 -63 -33 -154zM190 75q31 -28 71 -28q42 0 70 25q32 61 32 153q0 112 -53 165z" />
<glyph unicode="&#xf9;" horiz-adv-x="542" d="M35 445v21q64 3 135 19l7 -4q-16 -97 -19 -280q-2 -18 -0.5 -41.5t4.5 -44t13.5 -34.5t27.5 -14q39 0 92 49t71 91q0 145 -11 233q-27 6 -63 19l2 19q56 -8 105 -8q51 0 102 6l3 -19q-30 -13 -59 -20q-9 -68 -9 -157v-84q0 -92 7 -163q24 -8 54 -8v-21q-64 -3 -135 -19 l-7 2q11 69 11 158l-4 1q-34 -47 -88.5 -96.5t-98.5 -64.5q-30 0 -50 14t-28.5 40.5t-11 53t-1.5 63.5l5 281q-24 8 -54 8zM132 634q1 10 9.5 30.5t15.5 28.5q17 3 43 1q24 -42 59.5 -84t72.5 -67l-11 -18z" />
<glyph unicode="&#xfa;" horiz-adv-x="542" d="M35 445v21q64 3 135 19l7 -4q-16 -97 -19 -280q-2 -18 -0.5 -41.5t4.5 -44t13.5 -34.5t27.5 -14q39 0 92 49t71 91q0 145 -11 233q-27 6 -63 19l2 19q56 -8 105 -8q51 0 102 6l3 -19q-30 -13 -59 -20q-9 -68 -9 -157v-84q0 -92 7 -163q24 -8 54 -8v-21q-64 -3 -135 -19 l-7 2q11 69 11 158l-4 1q-34 -47 -88.5 -96.5t-98.5 -64.5q-30 0 -50 14t-28.5 40.5t-11 53t-1.5 63.5l5 281q-24 8 -54 8zM251 543q37 25 72.5 67t59.5 84q26 2 43 -1q7 -8 15.5 -28.5t9.5 -30.5l-189 -109z" />
<glyph unicode="&#xfb;" horiz-adv-x="542" d="M35 445v21q64 3 135 19l7 -4q-16 -97 -19 -280q-2 -18 -0.5 -41.5t4.5 -44t13.5 -34.5t27.5 -14q39 0 92 49t71 91q0 145 -11 233q-27 6 -63 19l2 19q56 -8 105 -8q51 0 102 6l3 -19q-30 -13 -59 -20q-9 -68 -9 -157v-84q0 -92 7 -163q24 -8 54 -8v-21q-64 -3 -135 -19 l-7 2q11 69 11 158l-4 1q-34 -47 -88.5 -96.5t-98.5 -64.5q-30 0 -50 14t-28.5 40.5t-11 53t-1.5 63.5l5 281q-24 8 -54 8zM137 539q84 71 137 168h20q53 -97 137 -168l-13 -17l-134 90l-134 -90z" />
<glyph unicode="&#xfc;" horiz-adv-x="542" d="M35 445v21q64 3 135 19l7 -4q-16 -97 -19 -280q-2 -18 -0.5 -41.5t4.5 -44t13.5 -34.5t27.5 -14q39 0 92 49t71 91q0 145 -11 233q-27 6 -63 19l2 19q56 -8 105 -8q51 0 102 6l3 -19q-30 -13 -59 -20q-9 -68 -9 -157v-84q0 -92 7 -163q24 -8 54 -8v-21q-64 -3 -135 -19 l-7 2q11 69 11 158l-4 1q-34 -47 -88.5 -96.5t-98.5 -64.5q-30 0 -50 14t-28.5 40.5t-11 53t-1.5 63.5l5 281q-24 8 -54 8zM138 620q6 12 23 27.5t31 22.5q13 -8 30 -23.5t24 -26.5q-7 -13 -24.5 -33t-29.5 -28q-12 8 -29.5 28t-24.5 33zM323 620q6 12 23 27.5t31 22.5 q13 -8 30 -23.5t24 -26.5q-7 -13 -24.5 -33t-29.5 -28q-12 8 -29.5 28t-24.5 33z" />
<glyph unicode="&#xfd;" horiz-adv-x="542" d="M50 445v21q63 3 133 19l7 -4q-16 -97 -19 -280q-3 -134 42 -134q36 0 88.5 50.5t67.5 89.5q0 145 -11 233q-28 6 -63 19l2 19q56 -8 105 -8q51 0 102 6l3 -19q-30 -13 -59 -20q-9 -68 -9 -157v-84q0 -159 7 -230q-19 -55 -80 -107.5t-121 -73.5q-92 0 -168 29v13 q37 44 42 112h21q0 -39 2 -61q56 -31 128 -31q40 0 65 24q23 61 28.5 110.5t5.5 163.5l-4 1q-30 -45 -83 -95.5t-95 -65.5q-29 0 -48 14t-27.5 40.5t-11 53t-1.5 63.5l5 281q-24 8 -54 8zM257 543q37 25 72.5 67t59.5 84q26 2 43 -1q7 -8 15.5 -28.5t9.5 -30.5l-189 -109z " />
<glyph unicode="&#xfe;" horiz-adv-x="522" d="M41 -185q30 7 51 18q8 72 10 311l2 273q2 170 -7 244q-24 8 -54 8v21q60 3 141 21l7 -4q-19 -119 -19 -290v-95h4q35 50 84 98t92 65q55 0 87.5 -61t32.5 -130q0 -104 -56 -190.5t-150 -118.5q-54 0 -98 10q0 -109 7 -161q45 -11 79 -26l-3 -20q-62 12 -108 12 q-41 0 -98 -5zM174 263q0 -149 7 -192q53 -24 104 -24q48 0 74 24q33 76 33 178q0 49 -17.5 101.5t-50.5 52.5q-35 0 -85 -50t-65 -90z" />
<glyph unicode="&#xff;" horiz-adv-x="542" d="M50 445v21q63 3 133 19l7 -4q-16 -97 -19 -280q-3 -134 42 -134q36 0 88.5 50.5t67.5 89.5q0 145 -11 233q-28 6 -63 19l2 19q56 -8 105 -8q51 0 102 6l3 -19q-30 -13 -59 -20q-9 -68 -9 -157v-84q0 -159 7 -230q-19 -55 -80 -107.5t-121 -73.5q-92 0 -168 29v13 q37 44 42 112h21q0 -39 2 -61q56 -31 128 -31q40 0 65 24q23 61 28.5 110.5t5.5 163.5l-4 1q-30 -45 -83 -95.5t-95 -65.5q-29 0 -48 14t-27.5 40.5t-11 53t-1.5 63.5l5 281q-24 8 -54 8zM140 620q6 12 23 27.5t31 22.5q13 -8 30 -23.5t24 -26.5q-7 -13 -24.5 -33t-29.5 -28 q-12 8 -29.5 28t-24.5 33zM325 620q6 12 23 27.5t31 22.5q13 -8 30 -23.5t24 -26.5q-7 -13 -24.5 -33t-29.5 -28q-12 8 -29.5 28t-24.5 33z" />
<glyph unicode="&#x152;" horiz-adv-x="825" d="M42 247q0 101 45 192t126.5 151.5t180.5 71.5q24 0 69 -5.5t84 -5.5q137 0 253 11l4 -20q-52 -53 -59 -158h-25q-9 43 -9 109q-43 21 -108 21q-49 0 -76 -5q-7 -22 -12 -60q-8 -70 -13 -184q32 -7 77 -7q89 0 109 43l20 -4q-9 -32 -9 -77q0 -44 6 -87l-23 -4 q-15 38 -20 89q-38 3 -83 3q-44 0 -78 -5v-43q0 -39 2.5 -67.5t11.5 -57t23.5 -46t39.5 -28t60 -10.5q69 0 147 78l14 -13q-83 -110 -183 -144q-124 0 -170 96h-4q-73 -74 -188 -96q-99 17 -155.5 88.5t-56.5 173.5zM141 281q0 -94 45.5 -162.5t126.5 -68.5q48 0 77 21 q18 24 23.5 59.5t5.5 121.5q0 85 6 195.5t6 129.5q-53 23 -106 23q-54 0 -84 -22q-100 -99 -100 -297z" />
<glyph unicode="&#x153;" horiz-adv-x="732" d="M45 190q0 102 57.5 186.5t151.5 108.5q119 0 162 -98h4q56 75 138 98q67 0 94 -26.5t27 -93.5q0 -38 -10 -65q21 -8 49 -8l-1 -21q-116 2 -281 -33q0 -40 4 -69t14.5 -56t33 -41.5t56.5 -14.5q63 0 123 53l11 -10q-57 -78 -146 -115q-118 0 -158 102h-4 q-49 -72 -126 -102q-87 0 -143 58.5t-56 146.5zM125 245q0 -73 37 -135.5t99 -62.5q35 0 63 25q32 61 32 153q0 84 -31 141t-98 57q-42 0 -69 -24q-33 -63 -33 -154zM436 264q82 27 163 41q0 66 -12.5 92t-55.5 26q-37 0 -66 -24q-27 -56 -29 -135z" />
<glyph unicode="&#x178;" horiz-adv-x="545" d="M-34 634l4 25q53 -8 148 -8q86 0 160 8l3 -24q-57 -14 -110 -19q47 -140 120 -279q111 217 111 272q0 22 -20 32l4 14q50 -4 83 -4q78 0 130 8l5 -25q-48 -15 -97 -21l-196 -315q0 -167 13 -263q53 -5 110 -19l-3 -24q-74 8 -156 8q-91 0 -144 -8l-4 25q45 14 96 21 q11 82 11 207v26q-100 212 -127 266.5t-45 75.5q-56 7 -96 21zM149 803q6 12 23 27.5t31 22.5q13 -8 30 -23.5t24 -26.5q-7 -13 -24.5 -33t-29.5 -28q-12 8 -29.5 28t-24.5 33zM334 803q6 12 23 27.5t31 22.5q13 -8 30 -23.5t24 -26.5q-7 -13 -24.5 -33t-29.5 -28 q-12 8 -29.5 28t-24.5 33z" />
<glyph unicode="&#x2c6;" horiz-adv-x="294" d="M0 539q84 71 137 168h20q53 -97 137 -168l-13 -17l-134 90l-134 -90z" />
<glyph unicode="&#x2dc;" horiz-adv-x="330" d="M0 581q56 61 128 82q59 -31 119 -31q45 0 65 24l18 -11q-56 -61 -104 -82q-21 0 -72.5 15.5t-72.5 15.5q-43 0 -63 -24z" />
<glyph unicode="&#x2000;" horiz-adv-x="442" />
<glyph unicode="&#x2001;" horiz-adv-x="885" />
<glyph unicode="&#x2002;" horiz-adv-x="442" />
<glyph unicode="&#x2003;" horiz-adv-x="885" />
<glyph unicode="&#x2004;" horiz-adv-x="295" />
<glyph unicode="&#x2005;" horiz-adv-x="221" />
<glyph unicode="&#x2006;" horiz-adv-x="147" />
<glyph unicode="&#x2007;" horiz-adv-x="147" />
<glyph unicode="&#x2008;" horiz-adv-x="110" />
<glyph unicode="&#x2009;" horiz-adv-x="177" />
<glyph unicode="&#x200a;" horiz-adv-x="49" />
<glyph unicode="&#x2010;" horiz-adv-x="286" d="M28 242l6 46h46q88 0 172 10l8 -5l-6 -42l-217 -15z" />
<glyph unicode="&#x2011;" horiz-adv-x="286" d="M28 242l6 46h46q88 0 172 10l8 -5l-6 -42l-217 -15z" />
<glyph unicode="&#x2012;" horiz-adv-x="286" d="M28 242l6 46h46q88 0 172 10l8 -5l-6 -42l-217 -15z" />
<glyph unicode="&#x2013;" horiz-adv-x="410" d="M-5 252l8 44q124 -9 312 -9q57 0 96 3l6 -6l-8 -39h-406z" />
<glyph unicode="&#x2014;" horiz-adv-x="615" d="M-3 252l8 44q170 -9 462 -9q107 0 146 3l6 -6l-8 -39h-606z" />
<glyph unicode="&#x2018;" horiz-adv-x="213" d="M53 481q0 50 34 102t80 83l10 -10q-21 -25 -38 -61.5t-18 -63.5q26 -24 40 -50q-6 -12 -23 -27.5t-31 -22.5q-13 8 -30 23.5t-24 26.5z" />
<glyph unicode="&#x2019;" horiz-adv-x="213" d="M36 441q21 25 38 61.5t18 63.5q-26 24 -40 50q6 12 23 27.5t31 22.5q13 -8 30 -23.5t24 -26.5q0 -50 -34 -102t-80 -83z" />
<glyph unicode="&#x201a;" horiz-adv-x="208" d="M36 -115q51 49 56 111q-26 24 -40 50q6 12 23 27.5t31 22.5q13 -8 30 -23.5t24 -26.5q0 -50 -32.5 -97t-81.5 -75z" />
<glyph unicode="&#x201c;" horiz-adv-x="366" d="M53 481q0 50 34 102t80 83l10 -10q-21 -25 -38 -61.5t-18 -63.5q26 -24 40 -50q-6 -12 -23 -27.5t-31 -22.5q-13 8 -30 23.5t-24 26.5zM206 481q0 50 34 102t80 83l10 -10q-21 -25 -38 -61.5t-18 -63.5q26 -24 40 -50q-6 -12 -23 -27.5t-31 -22.5q-13 8 -30 23.5 t-24 26.5z" />
<glyph unicode="&#x201d;" horiz-adv-x="366" d="M36 441q21 25 38 61.5t18 63.5q-26 24 -40 50q6 12 23 27.5t31 22.5q13 -8 30 -23.5t24 -26.5q0 -50 -34 -102t-80 -83zM189 441q21 25 38 61.5t18 63.5q-26 24 -40 50q6 12 23 27.5t31 22.5q13 -8 30 -23.5t24 -26.5q0 -50 -34 -102t-80 -83z" />
<glyph unicode="&#x201e;" horiz-adv-x="361" d="M36 -115q51 49 56 111q-26 24 -40 50q6 12 23 27.5t31 22.5q13 -8 30 -23.5t24 -26.5q0 -50 -32.5 -97t-81.5 -75zM189 -115q51 49 56 111q-26 24 -40 50q6 12 23 27.5t31 22.5q13 -8 30 -23.5t24 -26.5q0 -50 -32.5 -97t-81.5 -75z" />
<glyph unicode="&#x2022;" horiz-adv-x="349" d="M52 273v14q4 3 17.5 14t17 14t14.5 12.5t15 14t12.5 13.5t13.5 16t11 16.5t12 19.5h20l12 -20t11 -16.5t13.5 -15.5t12.5 -13.5t15 -14t14 -12t17 -13.5t17 -14v-14q-77 -64 -112 -133h-20q-36 71 -113 132z" />
<glyph unicode="&#x2026;" horiz-adv-x="650" d="M52 46q6 12 23 27.5t31 22.5q13 -8 30 -23.5t24 -26.5q-7 -13 -24.5 -33t-29.5 -28q-12 8 -29.5 28t-24.5 33zM271 46q6 12 23 27.5t31 22.5q13 -8 30 -23.5t24 -26.5q-7 -13 -24.5 -33t-29.5 -28q-12 8 -29.5 28t-24.5 33zM490 46q6 12 23 27.5t31 22.5q13 -8 30 -23.5 t24 -26.5q-7 -13 -24.5 -33t-29.5 -28q-12 8 -29.5 28t-24.5 33z" />
<glyph unicode="&#x202f;" horiz-adv-x="177" />
<glyph unicode="&#x2039;" horiz-adv-x="247" d="M21 269v20q95 52 178 150l19 -13l-107 -143l108 -158l-20 -14q-93 107 -178 158z" />
<glyph unicode="&#x203a;" horiz-adv-x="247" d="M28 125l108 158l-105 143l17 13q83 -98 178 -150v-20q-85 -51 -178 -158z" />
<glyph unicode="&#x205f;" horiz-adv-x="221" />
<glyph unicode="&#x20ac;" horiz-adv-x="456" d="M29 203q6 20 7 32l39 1q1 16 7 48q-29 -1 -50 -5l-3 4q6 20 7 32l53 2q23 80 75.5 139.5t126.5 81.5q71 0 131 -16v-14q-37 -48 -43 -113h-22q0 40 -3 64q-42 14 -84 14q-46 0 -77 -27q-26 -56 -36 -127l128 5q64 3 84 5q4 -20 9 -31v-5l-122 -2l-102 -3v-17v-16 q-1 -16 0 -16l131 5q63 3 84 5q4 -20 9 -31v-5l-122 -2l-100 -3q5 -72 31 -111.5t88 -39.5q59 0 128 63l10 -10q-60 -87 -156 -126q-91 0 -135.5 60t-46.5 160l-43 -5z" />
<glyph unicode="&#x2122;" horiz-adv-x="718" d="M-7 645l4 12q48 -6 136 -6q98 0 146 6l3 -12q-28 -25 -31 -79h-14q-5 20 -5 51q-21 10 -51 10q-9 0 -17 -3q-4 -32 -4 -120q0 -95 7 -158q21 -3 48 -9l-2 -16q-38 5 -79 5q-40 0 -72 -4l-2 14q17 6 40 11q6 42 6 127v30q0 86 -5 120q-6 3 -18 3q-27 0 -49 -8 q-3 -11 -8 -53h-15q-2 52 -18 79zM249 336q14 5 49 11l57 284q-23 3 -54 10l1 15q43 -5 91 -5q31 0 55 3l1 -10q-13 -3 -13 -14q0 -39 32 -158l13 -48l3 1q2 16 55 203q0 11 -17 16l1 10q24 -3 67 -3q49 0 79 5l3 -15q-15 -5 -40 -10q-3 -13 -3 -34q0 -37 8.5 -129 t15.5 -123q25 -3 47 -9l-2 -15q-42 5 -78 5q-42 0 -71 -4l-2 14q11 4 40 11q0 134 -11 266l-4 1q-60 -189 -66 -236q-48 -23 -62 -38l-8 4q1 6 1 16q0 71 -53 255h-3l-14 -107q-9 -81 -9 -128q0 -35 17 -46l-3 -11q-33 3 -51 3q-38 0 -70 -5z" />
<glyph unicode="&#xe000;" horiz-adv-x="485" d="M0 0v485h485v-485h-485z" />
<glyph unicode="&#xfb01;" horiz-adv-x="582" d="M47 431q0 16 3 22q13 5 53 17q10 78 64 145t128 96q41 -2 80 -16v-14q-38 -47 -43 -115h-22q0 39 -2 61q-16 10 -44 10q-43 0 -65 -22q-21 -56 -21 -145h146q110 0 167 15l7 -4q-13 -77 -13 -207v-84q0 -108 7 -160q28 -6 63 -19l-2 -19q-56 8 -105 8q-51 0 -102 -6 l-3 19q30 13 59 20q9 67 9 157q0 162 -6 223q-20 11 -94 13l-134 2v-198q0 -134 12 -290q-19 3 -35 2q-30 -55 -45 -142l-18 1q12 216 12 429v199h-54zM395 620q6 12 23 27.5t31 22.5q13 -8 30 -23.5t24 -26.5q-7 -13 -24.5 -33t-29.5 -28q-12 8 -29.5 28t-24.5 33z" />
<glyph unicode="&#xfb02;" horiz-adv-x="592" d="M47 431q0 16 3 22q22 9 53 17q15 96 78 158t161 83q42 -4 97 -22q50 8 99 22l5 -18q-19 -15 -47 -29q-11 -60 -13 -247l-3 -187q-2 -143 6 -200q28 -6 63 -19l-2 -19q-56 8 -105 8q-51 0 -102 -6l-3 19q30 13 59 20q9 64 10 197l3 187q2 132 -6 201q-32 21 -80 21 q-70 0 -128 -36q-17 -52 -17 -132l142 5l4 -4q-7 -19 -13 -47q-51 3 -134 3v-198q0 -158 12 -290q-19 3 -35 2q-29 -53 -45 -142l-18 1q12 216 12 429v199h-54z" />
</font>
</defs>
</svg>
