<?xml version="1.0" standalone="no"?>
<!DOCTYPE svg PUBLIC "-//W3C//DTD SVG 1.1//EN" "http://www.w3.org/Graphics/SVG/1.1/DTD/svg11.dtd" >
<svg xmlns="http://www.w3.org/2000/svg">
<metadata></metadata>
<defs>
<font id="megamaingifuremegamaingifures" horiz-adv-x="2134" >
<font-face units-per-em="2048" ascent="1638" descent="-410" />
<missing-glyph horiz-adv-x="2000" />
<glyph horiz-adv-x="2048" />
<glyph horiz-adv-x="2048" />
<glyph unicode="&#xd;" horiz-adv-x="508" />
<glyph unicode=" "  horiz-adv-x="2000" />
<glyph unicode="&#x09;" horiz-adv-x="2000" />
<glyph unicode="&#xa0;" horiz-adv-x="2000" />
<glyph unicode="0" d="M0 649q0 -441 313 -754t754 -313t754 313t313 754t-313 754t-754 313t-754 -313t-313 -754zM0 649q0 -441 313 -754t754 -313t754 313t313 754t-313 754t-754 313t-754 -313t-313 -754z" />
<glyph unicode="1" horiz-adv-x="1014" />
<glyph unicode="2" horiz-adv-x="1014" />
<glyph unicode="3" horiz-adv-x="2464" d="M0 -418l616 1067l616 1067l616 -1067l616 -1067h-2464zM0 -418l616 1067l616 1067l616 -1067l616 -1067h-2464z" />
<glyph unicode="4" d="M0 -418h2134v2134h-2134v-2134zM0 -418h2134v2134h-2134v-2134z" />
<glyph unicode="5" horiz-adv-x="2244" d="M0 901l561 407l561 408l561 -408l561 -407l-215 -660l-214 -659h-1386l-215 659zM0 901l561 407l561 408l561 -408l561 -407l-215 -660l-214 -659h-1386l-215 659z" />
<glyph unicode="6" horiz-adv-x="1848" d="M0 116v1067l462 266l462 267l462 -267l462 -266v-1067l-462 -267l-462 -267l-462 267zM0 116v1067l462 266l462 267l462 -267l462 -266v-1067l-462 -267l-462 -267l-462 267z" />
<glyph unicode="7" horiz-adv-x="1014" />
<glyph unicode="8" d="M0 649l156 377l157 378l377 156l377 156l377 -156l378 -156l156 -378l156 -377l-156 -377l-156 -377l-378 -157l-377 -156l-377 156l-377 157l-157 377z" />
<glyph unicode="9" horiz-adv-x="2135" d="M0 649l211 229l-68 305l297 93l94 297l304 -68l229 211l229 -211l305 68l93 -297l297 -93l-68 -305l211 -229l-211 -229l68 -304l-297 -94l-93 -297l-305 68l-229 -211l-229 211l-304 -68l-94 297l-297 94l68 304z" />
<glyph unicode="a" horiz-adv-x="922" />
<glyph unicode="b" horiz-adv-x="995" />
<glyph unicode="c" horiz-adv-x="905" />
<glyph unicode="d" horiz-adv-x="1040" />
<glyph unicode="e" horiz-adv-x="2464" d="M0 1716l616 -1067l616 -1067l616 1067l616 1067h-2464zM0 1716l616 -1067l616 -1067l616 1067l616 1067h-2464z" />
<glyph unicode="f" horiz-adv-x="559" />
<glyph unicode="g" horiz-adv-x="899" />
<glyph unicode="h" horiz-adv-x="1104" />
<glyph unicode="i" d="M0 207v884l313 313l312 312h884l313 -312l312 -313v-884l-312 -312l-313 -313h-884l-312 313zM0 207v884l313 313l312 312h884l313 -312l312 -313v-884l-312 -312l-313 -313h-884l-312 313z" />
<glyph unicode="j" horiz-adv-x="510" />
<glyph unicode="k" horiz-adv-x="1026" />
<glyph unicode="l" horiz-adv-x="522" />
<glyph unicode="m" horiz-adv-x="1569" />
<glyph unicode="n" horiz-adv-x="1108" />
<glyph unicode="o" horiz-adv-x="1010" />
<glyph unicode="p" horiz-adv-x="1010" />
<glyph unicode="q" horiz-adv-x="1024" />
<glyph unicode="r" horiz-adv-x="2135" d="M0 649l534 534l533 533l534 -533l533 -534l-533 -533l-534 -534l-533 534z" />
<glyph unicode="s" horiz-adv-x="702" />
<glyph unicode="t" horiz-adv-x="2244" d="M0 397l561 -407l561 -408l561 408l561 407l-215 659l-214 660h-1386l-215 -660zM0 397l561 -407l561 -408l561 408l561 407l-215 659l-214 660h-1386l-215 -660z" />
<glyph unicode="u" horiz-adv-x="1059" />
<glyph unicode="v" horiz-adv-x="993" />
<glyph unicode="w" horiz-adv-x="1415" />
<glyph unicode="x" horiz-adv-x="1010" />
<glyph unicode="y" horiz-adv-x="2464" d="M0 649l308 533l308 534h1232l308 -534l308 -533l-308 -534l-308 -533h-1232l-308 533z" />
<glyph unicode="z" horiz-adv-x="727" />
<glyph unicode="&#x25fc;" horiz-adv-x="500" d="M0 0z" />
</font>
</defs>
</svg>
